osu file format v14

[General]
AudioFilename: hitsugi to futago.mp3
AudioLeadIn: 0
PreviewTime: 97708
Countdown: 0
SampleSet: Normal
StackLeniency: 0.7
Mode: 3
LetterboxInBreaks: 0
SpecialStyle: 0
WidescreenStoryboard: 0

[Editor]
DistanceSpacing: 2
BeatDivisor: 12
GridSize: 16
TimelineZoom: 2.2

[Metadata]
Title:Hitsugi to Futago
TitleUnicode:ひつぎとふたご
Artist:plastic feat.Sakito
ArtistUnicode:plastic feat.サキト
Creator:snoverpk
Version:4KEY//PHANTASM
Source:BMS
Tags:bof2006
BeatmapID:1097111
BeatmapSetID:516255

[Difficulty]
HPDrainRate:8.5
CircleSize:4
OverallDifficulty:8.5
ApproachRate:5
SliderMultiplier:1.4
SliderTickRate:1

[Events]
//Background and Video events
0,0,"titlefutago.png",0,0
//Break Periods
//Storyboard Layer 0 (Background)
//Storyboard Layer 1 (Fail)
//Storyboard Layer 2 (Pass)
//Storyboard Layer 3 (Foreground)
//Storyboard Sound Samples

[TimingPoints]
1429,348.837209302326,4,1,0,15,1,0
97708,-100,4,1,0,15,0,1
120004,-100,4,1,0,15,0,0
120033,-100,4,1,0,15,0,1
142359,-100,4,1,0,15,0,0

[HitObjects]
448,192,1429,5,0,0:0:0:0:
320,192,1545,1,0,0:0:0:0:
192,192,1661,1,0,0:0:0:0:
64,192,1777,1,0,0:0:0:0:
192,192,1894,1,0,0:0:0:0:
320,192,2010,1,0,0:0:0:0:
64,192,2126,1,0,0:0:0:0:
192,192,2242,1,0,0:0:0:0:
320,192,2359,1,0,0:0:0:0:
448,192,2475,1,0,0:0:0:0:
320,192,2591,1,0,0:0:0:0:
192,192,2708,1,0,0:0:0:0:
448,192,2824,1,0,0:0:0:0:
320,192,2882,1,0,0:0:0:0:
192,192,2940,1,0,0:0:0:0:
64,192,2998,1,0,0:0:0:0:
192,192,3056,1,0,0:0:0:0:
320,192,3115,1,0,0:0:0:0:
448,192,3173,1,0,0:0:0:0:
64,192,3231,1,0,0:0:0:0:
192,192,3289,1,0,0:0:0:0:
320,192,3347,1,0,0:0:0:0:
448,192,3405,1,0,0:0:0:0:
320,192,3463,1,0,0:0:0:0:
192,192,3522,1,0,0:0:0:0:
64,192,3580,1,0,0:0:0:0:
448,192,3638,1,0,0:0:0:0:
320,192,3696,1,0,0:0:0:0:
192,192,3754,1,0,0:0:0:0:
64,192,3812,1,0,0:0:0:0:
192,192,3870,1,0,0:0:0:0:
320,192,3929,1,0,0:0:0:0:
448,192,3987,1,0,0:0:0:0:
64,192,4045,1,0,0:0:0:0:
320,192,4103,1,0,0:0:0:0:
192,192,4161,1,0,0:0:0:0:
448,192,4219,1,0,0:0:0:0:
320,192,4263,1,0,0:0:0:0:
192,192,4306,1,0,0:0:0:0:
64,192,4350,1,0,0:0:0:0:
448,192,4394,1,0,0:0:0:0:
320,192,4437,1,0,0:0:0:0:
64,192,4481,1,0,0:0:0:0:
192,192,4524,1,0,0:0:0:0:
448,192,4568,1,0,0:0:0:0:
64,192,4612,1,0,0:0:0:0:
320,192,4655,1,0,0:0:0:0:
448,192,4699,1,0,0:0:0:0:
192,192,4742,1,0,0:0:0:0:
320,192,4786,1,0,0:0:0:0:
64,192,4830,1,0,0:0:0:0:
192,192,4873,1,0,0:0:0:0:
448,192,4917,1,0,0:0:0:0:
320,192,4960,1,0,0:0:0:0:
64,192,5004,1,0,0:0:0:0:
192,192,5048,1,0,0:0:0:0:
448,192,5091,1,0,0:0:0:0:
320,192,5135,1,0,0:0:0:0:
64,192,5179,1,0,0:0:0:0:
448,192,5222,1,0,0:0:0:0:
192,192,5266,1,0,0:0:0:0:
320,192,5309,1,0,0:0:0:0:
64,192,5353,1,0,0:0:0:0:
192,192,5397,1,0,0:0:0:0:
320,192,5440,1,0,0:0:0:0:
448,192,5484,1,0,0:0:0:0:
64,192,5527,1,0,0:0:0:0:
192,192,5571,1,0,0:0:0:0:
448,192,5615,1,0,0:0:0:0:
64,192,5615,1,0,0:0:0:0:
320,192,5615,1,0,0:0:0:0:
64,192,5963,1,0,0:0:0:0:
192,192,6312,1,0,0:0:0:0:
448,192,6661,1,0,0:0:0:0:
320,192,7010,1,0,0:0:0:0:
64,192,7359,1,0,0:0:0:0:
192,192,7708,1,0,0:0:0:0:
64,192,8405,1,0,0:0:0:0:
192,192,8405,1,0,0:0:0:0:
320,192,8405,1,0,0:0:0:0:
192,192,8754,1,0,0:0:0:0:
448,192,9103,1,0,0:0:0:0:
64,192,9452,1,0,0:0:0:0:
320,192,9801,1,0,0:0:0:0:
448,192,10149,1,0,0:0:0:0:
320,192,10324,1,0,0:0:0:0:
448,192,10353,1,0,0:0:0:0:
192,192,10382,1,0,0:0:0:0:
64,192,10411,1,0,0:0:0:0:
320,192,10411,1,0,0:0:0:0:
448,192,10440,1,0,0:0:0:0:
192,192,10469,1,0,0:0:0:0:
64,192,10498,1,0,0:0:0:0:
320,192,10498,1,0,0:0:0:0:
64,192,11196,1,0,0:0:0:0:
320,192,11196,1,0,0:0:0:0:
448,192,11196,1,0,0:0:0:0:
192,192,11545,1,0,0:0:0:0:
320,192,11894,1,0,0:0:0:0:
448,192,12242,1,0,0:0:0:0:
320,192,12591,1,0,0:0:0:0:
192,192,12591,1,0,0:0:0:0:
64,192,12591,1,0,0:0:0:0:
448,192,12940,1,0,0:0:0:0:
320,192,13173,1,0,0:0:0:0:
192,192,13289,1,0,0:0:0:0:
64,192,13638,1,0,0:0:0:0:
192,192,13987,1,0,0:0:0:0:
320,192,13987,1,0,0:0:0:0:
448,192,13987,1,0,0:0:0:0:
64,192,14335,1,0,0:0:0:0:
192,192,14684,1,0,0:0:0:0:
320,192,14684,1,0,0:0:0:0:
448,192,14684,1,0,0:0:0:0:
448,192,15033,1,0,0:0:0:0:
64,192,15382,1,0,0:0:0:0:
192,192,15382,1,0,0:0:0:0:
320,192,15382,1,0,0:0:0:0:
448,192,15440,1,0,0:0:0:0:
64,192,15498,1,0,0:0:0:0:
192,192,15556,1,0,0:0:0:0:
320,192,15615,1,0,0:0:0:0:
448,192,15673,1,0,0:0:0:0:
64,192,15731,1,0,0:0:0:0:
192,192,15731,1,0,0:0:0:0:
320,192,15731,1,0,0:0:0:0:
448,192,15789,1,0,0:0:0:0:
192,192,15847,1,0,0:0:0:0:
320,192,15905,1,0,0:0:0:0:
64,192,15963,1,0,0:0:0:0:
192,192,16022,1,0,0:0:0:0:
320,192,16080,1,0,0:0:0:0:
448,192,16080,1,0,0:0:0:0:
64,192,16080,1,0,0:0:0:0:
192,192,16138,1,0,0:0:0:0:
320,192,16196,1,0,0:0:0:0:
448,192,16196,1,0,0:0:0:0:
64,192,16254,1,0,0:0:0:0:
192,192,16312,1,0,0:0:0:0:
448,192,16312,1,0,0:0:0:0:
320,192,16370,1,0,0:0:0:0:
64,192,16429,1,0,0:0:0:0:
192,192,16429,1,0,0:0:0:0:
448,192,16429,1,0,0:0:0:0:
320,192,16487,1,0,0:0:0:0:
64,192,16545,1,0,0:0:0:0:
192,192,16603,1,0,0:0:0:0:
320,192,16661,1,0,0:0:0:0:
448,192,16661,1,0,0:0:0:0:
64,192,16719,1,0,0:0:0:0:
192,192,16777,1,0,0:0:0:0:
320,192,16777,1,0,0:0:0:0:
448,192,16777,1,0,0:0:0:0:
64,192,17010,1,0,0:0:0:0:
320,192,17010,1,0,0:0:0:0:
192,192,17126,1,0,0:0:0:0:
320,192,17126,1,0,0:0:0:0:
448,192,17126,1,0,0:0:0:0:
64,192,17359,1,0,0:0:0:0:
448,192,17359,1,0,0:0:0:0:
320,192,17475,1,0,0:0:0:0:
192,192,17475,1,0,0:0:0:0:
64,192,17475,1,0,0:0:0:0:
320,192,17708,1,0,0:0:0:0:
64,192,17708,1,0,0:0:0:0:
448,192,17824,1,0,0:0:0:0:
192,192,17824,1,0,0:0:0:0:
320,192,17824,1,0,0:0:0:0:
448,192,18056,1,0,0:0:0:0:
192,192,18056,1,0,0:0:0:0:
320,192,18173,1,0,0:0:0:0:
192,192,18173,1,0,0:0:0:0:
64,192,18173,1,0,0:0:0:0:
64,192,18405,1,0,0:0:0:0:
192,192,18405,1,0,0:0:0:0:
320,192,18522,1,0,0:0:0:0:
448,192,18522,1,0,0:0:0:0:
64,192,18522,1,0,0:0:0:0:
448,192,18754,1,0,0:0:0:0:
320,192,18754,1,0,0:0:0:0:
64,192,18870,1,0,0:0:0:0:
448,192,18870,1,0,0:0:0:0:
192,192,18870,1,0,0:0:0:0:
320,192,19103,1,0,0:0:0:0:
192,192,19103,1,0,0:0:0:0:
64,192,19219,1,0,0:0:0:0:
320,192,19219,1,0,0:0:0:0:
448,192,19219,1,0,0:0:0:0:
64,192,19452,1,0,0:0:0:0:
192,192,19452,1,0,0:0:0:0:
448,192,19452,1,0,0:0:0:0:
320,192,19568,1,0,0:0:0:0:
192,192,19568,1,0,0:0:0:0:
64,192,19568,1,0,0:0:0:0:
64,192,19801,1,0,0:0:0:0:
320,192,19801,1,0,0:0:0:0:
192,192,19917,1,0,0:0:0:0:
320,192,19917,1,0,0:0:0:0:
448,192,19917,1,0,0:0:0:0:
64,192,20149,1,0,0:0:0:0:
448,192,20149,1,0,0:0:0:0:
320,192,20266,1,0,0:0:0:0:
192,192,20266,1,0,0:0:0:0:
64,192,20266,1,0,0:0:0:0:
192,192,20498,1,0,0:0:0:0:
320,192,20498,1,0,0:0:0:0:
448,192,20615,1,0,0:0:0:0:
320,192,20615,1,0,0:0:0:0:
64,192,20615,1,0,0:0:0:0:
64,192,20847,1,0,0:0:0:0:
320,192,20847,1,0,0:0:0:0:
192,192,20963,1,0,0:0:0:0:
64,192,20963,1,0,0:0:0:0:
448,192,20963,1,0,0:0:0:0:
192,192,21196,1,0,0:0:0:0:
64,192,21196,1,0,0:0:0:0:
192,192,21312,1,0,0:0:0:0:
448,192,21312,1,0,0:0:0:0:
320,192,21312,1,0,0:0:0:0:
192,192,21545,1,0,0:0:0:0:
448,192,21545,1,0,0:0:0:0:
320,192,21661,1,0,0:0:0:0:
192,192,21661,1,0,0:0:0:0:
64,192,21661,1,0,0:0:0:0:
192,192,21894,1,0,0:0:0:0:
320,192,21894,1,0,0:0:0:0:
320,192,22010,1,0,0:0:0:0:
448,192,22010,1,0,0:0:0:0:
64,192,22010,1,0,0:0:0:0:
192,192,22242,1,0,0:0:0:0:
320,192,22242,1,0,0:0:0:0:
448,192,22242,1,0,0:0:0:0:
64,192,22359,1,0,0:0:0:0:
320,192,22359,1,0,0:0:0:0:
448,192,22359,1,0,0:0:0:0:
192,192,22417,1,0,0:0:0:0:
320,192,22475,1,0,0:0:0:0:
448,192,22533,1,0,0:0:0:0:
192,192,22591,1,0,0:0:0:0:
320,192,22649,1,0,0:0:0:0:
64,192,22708,1,0,0:0:0:0:
192,192,22708,1,0,0:0:0:0:
448,192,22766,1,0,0:0:0:0:
320,192,22824,1,0,0:0:0:0:
192,192,22882,1,0,0:0:0:0:
64,192,22940,1,0,0:0:0:0:
320,192,22998,1,0,0:0:0:0:
448,192,23056,1,0,0:0:0:0:
64,192,23056,1,0,0:0:0:0:
192,192,23115,1,0,0:0:0:0:
320,192,23173,1,0,0:0:0:0:
448,192,23231,1,0,0:0:0:0:
192,192,23289,1,0,0:0:0:0:
320,192,23347,1,0,0:0:0:0:
64,192,23405,1,0,0:0:0:0:
448,192,23405,1,0,0:0:0:0:
320,192,23463,1,0,0:0:0:0:
192,192,23522,1,0,0:0:0:0:
64,192,23522,1,0,0:0:0:0:
320,192,23580,1,0,0:0:0:0:
64,192,23638,1,0,0:0:0:0:
448,192,23638,1,0,0:0:0:0:
192,192,23696,1,0,0:0:0:0:
320,192,23754,1,0,0:0:0:0:
448,192,23754,1,0,0:0:0:0:
64,192,23812,1,0,0:0:0:0:
192,192,23870,1,0,0:0:0:0:
320,192,23929,1,0,0:0:0:0:
192,192,23987,1,0,0:0:0:0:
64,192,24045,1,0,0:0:0:0:
320,192,24103,1,0,0:0:0:0:
448,192,24103,1,0,0:0:0:0:
192,192,24161,1,0,0:0:0:0:
320,192,24219,1,0,0:0:0:0:
448,192,24277,1,0,0:0:0:0:
64,192,24335,1,0,0:0:0:0:
320,192,24394,1,0,0:0:0:0:
64,192,24452,1,0,0:0:0:0:
192,192,24452,1,0,0:0:0:0:
320,192,24510,1,0,0:0:0:0:
448,192,24568,1,0,0:0:0:0:
64,192,24626,1,0,0:0:0:0:
192,192,24684,1,0,0:0:0:0:
320,192,24742,1,0,0:0:0:0:
192,192,24801,1,0,0:0:0:0:
448,192,24801,1,0,0:0:0:0:
64,192,24859,1,0,0:0:0:0:
320,192,24917,1,0,0:0:0:0:
192,192,24975,1,0,0:0:0:0:
64,192,25033,1,0,0:0:0:0:
448,192,25033,1,0,0:0:0:0:
192,192,25091,1,0,0:0:0:0:
320,192,25149,1,0,0:0:0:0:
448,192,25149,1,0,0:0:0:0:
64,192,25208,1,0,0:0:0:0:
192,192,25266,1,0,0:0:0:0:
320,192,25324,1,0,0:0:0:0:
448,192,25382,1,0,0:0:0:0:
192,192,25440,1,0,0:0:0:0:
64,192,25498,1,0,0:0:0:0:
448,192,25498,1,0,0:0:0:0:
320,192,25556,1,0,0:0:0:0:
192,192,25615,1,0,0:0:0:0:
64,192,25673,1,0,0:0:0:0:
320,192,25731,1,0,0:0:0:0:
192,192,25789,1,0,0:0:0:0:
320,192,25847,1,0,0:0:0:0:
448,192,25847,1,0,0:0:0:0:
64,192,25905,1,0,0:0:0:0:
192,192,25963,1,0,0:0:0:0:
320,192,26022,1,0,0:0:0:0:
448,192,26080,1,0,0:0:0:0:
192,192,26138,1,0,0:0:0:0:
64,192,26196,1,0,0:0:0:0:
448,192,26196,1,0,0:0:0:0:
320,192,26254,1,0,0:0:0:0:
192,192,26312,1,0,0:0:0:0:
448,192,26370,1,0,0:0:0:0:
64,192,26429,1,0,0:0:0:0:
320,192,26487,1,0,0:0:0:0:
192,192,26545,1,0,0:0:0:0:
64,192,26545,1,0,0:0:0:0:
448,192,26603,1,0,0:0:0:0:
320,192,26661,1,0,0:0:0:0:
192,192,26719,1,0,0:0:0:0:
64,192,26777,1,0,0:0:0:0:
448,192,26835,1,0,0:0:0:0:
320,192,26894,1,0,0:0:0:0:
192,192,26894,1,0,0:0:0:0:
448,192,26952,1,0,0:0:0:0:
64,192,27010,1,0,0:0:0:0:
192,192,27068,1,0,0:0:0:0:
320,192,27126,1,0,0:0:0:0:
448,192,27126,1,0,0:0:0:0:
192,192,27184,1,0,0:0:0:0:
64,192,27242,1,0,0:0:0:0:
448,192,27242,1,0,0:0:0:0:
320,192,27301,1,0,0:0:0:0:
192,192,27359,1,0,0:0:0:0:
64,192,27417,1,0,0:0:0:0:
448,192,27475,1,0,0:0:0:0:
320,192,27475,1,0,0:0:0:0:
192,192,27533,1,0,0:0:0:0:
320,192,27591,1,0,0:0:0:0:
64,192,27591,1,0,0:0:0:0:
448,192,27649,1,0,0:0:0:0:
64,192,27708,1,0,0:0:0:0:
192,192,27708,1,0,0:0:0:0:
320,192,27766,1,0,0:0:0:0:
64,192,27824,1,0,0:0:0:0:
448,192,27824,1,0,0:0:0:0:
192,192,27882,1,0,0:0:0:0:
64,192,27940,1,0,0:0:0:0:
448,192,27940,1,0,0:0:0:0:
320,192,27940,1,0,0:0:0:0:
192,192,27998,1,0,0:0:0:0:
448,192,28056,1,0,0:0:0:0:
320,192,28115,1,0,0:0:0:0:
192,192,28173,1,0,0:0:0:0:
64,192,28231,1,0,0:0:0:0:
320,192,28289,1,0,0:0:0:0:
448,192,28289,1,0,0:0:0:0:
192,192,28347,1,0,0:0:0:0:
64,192,28405,1,0,0:0:0:0:
192,192,28463,1,0,0:0:0:0:
320,192,28522,1,0,0:0:0:0:
448,192,28522,1,0,0:0:0:0:
64,192,28580,1,0,0:0:0:0:
448,192,28638,1,0,0:0:0:0:
192,192,28638,1,0,0:0:0:0:
64,192,28696,1,0,0:0:0:0:
320,192,28754,1,0,0:0:0:0:
192,192,28812,1,0,0:0:0:0:
448,192,28870,1,0,0:0:0:0:
192,192,28929,1,0,0:0:0:0:
64,192,28987,1,0,0:0:0:0:
448,192,28987,1,0,0:0:0:0:
320,192,29045,1,0,0:0:0:0:
192,192,29103,1,0,0:0:0:0:
64,192,29161,1,0,0:0:0:0:
320,192,29219,1,0,0:0:0:0:
192,192,29277,1,0,0:0:0:0:
320,192,29335,1,0,0:0:0:0:
448,192,29335,1,0,0:0:0:0:
64,192,29394,1,0,0:0:0:0:
448,192,29452,1,0,0:0:0:0:
192,192,29510,1,0,0:0:0:0:
320,192,29568,1,0,0:0:0:0:
64,192,29626,1,0,0:0:0:0:
448,192,29684,1,0,0:0:0:0:
320,192,29684,1,0,0:0:0:0:
192,192,29742,1,0,0:0:0:0:
448,192,29801,1,0,0:0:0:0:
64,192,29859,1,0,0:0:0:0:
320,192,29917,1,0,0:0:0:0:
192,192,29975,1,0,0:0:0:0:
64,192,30033,1,0,0:0:0:0:
448,192,30033,1,0,0:0:0:0:
320,192,30091,1,0,0:0:0:0:
192,192,30149,1,0,0:0:0:0:
448,192,30208,1,0,0:0:0:0:
64,192,30266,1,0,0:0:0:0:
320,192,30324,1,0,0:0:0:0:
448,192,30382,1,0,0:0:0:0:
64,192,30382,1,0,0:0:0:0:
192,192,30440,1,0,0:0:0:0:
320,192,30498,1,0,0:0:0:0:
448,192,30556,1,0,0:0:0:0:
64,192,30615,1,0,0:0:0:0:
320,192,30673,1,0,0:0:0:0:
192,192,30731,1,0,0:0:0:0:
448,192,30731,1,0,0:0:0:0:
64,192,30789,1,0,0:0:0:0:
320,192,30847,1,0,0:0:0:0:
192,192,30905,1,0,0:0:0:0:
448,192,30963,1,0,0:0:0:0:
192,192,31022,1,0,0:0:0:0:
64,192,31080,1,0,0:0:0:0:
448,192,31080,1,0,0:0:0:0:
320,192,31138,1,0,0:0:0:0:
192,192,31196,1,0,0:0:0:0:
64,192,31254,1,0,0:0:0:0:
320,192,31312,1,0,0:0:0:0:
448,192,31312,1,0,0:0:0:0:
192,192,31370,1,0,0:0:0:0:
320,192,31429,1,0,0:0:0:0:
448,192,31429,1,0,0:0:0:0:
64,192,31487,1,0,0:0:0:0:
192,192,31545,1,0,0:0:0:0:
320,192,31603,1,0,0:0:0:0:
448,192,31661,1,0,0:0:0:0:
192,192,31719,1,0,0:0:0:0:
64,192,31777,1,0,0:0:0:0:
448,192,31777,1,0,0:0:0:0:
320,192,31835,1,0,0:0:0:0:
192,192,31894,1,0,0:0:0:0:
64,192,31952,1,0,0:0:0:0:
320,192,32010,1,0,0:0:0:0:
448,192,32068,1,0,0:0:0:0:
64,192,32126,1,0,0:0:0:0:
192,192,32126,1,0,0:0:0:0:
320,192,32184,1,0,0:0:0:0:
448,192,32242,1,0,0:0:0:0:
192,192,32301,1,0,0:0:0:0:
320,192,32359,1,0,0:0:0:0:
64,192,32417,1,0,0:0:0:0:
448,192,32475,1,0,0:0:0:0:
320,192,32475,1,0,0:0:0:0:
192,192,32533,1,0,0:0:0:0:
64,192,32591,1,0,0:0:0:0:
448,192,32649,1,0,0:0:0:0:
320,192,32679,1,0,0:0:0:0:
192,192,32708,1,0,0:0:0:0:
64,192,32737,1,0,0:0:0:0:
448,192,32737,1,0,0:0:0:0:
320,192,32766,1,0,0:0:0:0:
192,192,32795,1,0,0:0:0:0:
64,192,32824,1,0,0:0:0:0:
448,192,32824,1,0,0:0:0:0:
320,192,32882,1,0,0:0:0:0:
192,192,32940,1,0,0:0:0:0:
448,192,32998,1,0,0:0:0:0:
64,192,33056,1,0,0:0:0:0:
320,192,33115,1,0,0:0:0:0:
192,192,33173,1,0,0:0:0:0:
64,192,33173,1,0,0:0:0:0:
320,192,33231,1,0,0:0:0:0:
448,192,33289,1,0,0:0:0:0:
192,192,33347,1,0,0:0:0:0:
64,192,33405,1,0,0:0:0:0:
320,192,33405,1,0,0:0:0:0:
192,192,33463,1,0,0:0:0:0:
320,192,33522,1,0,0:0:0:0:
448,192,33522,1,0,0:0:0:0:
64,192,33580,1,0,0:0:0:0:
192,192,33638,1,0,0:0:0:0:
320,192,33696,1,0,0:0:0:0:
448,192,33754,1,0,0:0:0:0:
192,192,33812,1,0,0:0:0:0:
64,192,33870,1,0,0:0:0:0:
320,192,33870,1,0,0:0:0:0:
448,192,33929,1,0,0:0:0:0:
192,192,33987,1,0,0:0:0:0:
320,192,34045,1,0,0:0:0:0:
192,192,34103,1,0,0:0:0:0:
64,192,34103,1,0,0:0:0:0:
320,192,34161,1,0,0:0:0:0:
448,192,34219,1,0,0:0:0:0:
64,192,34219,1,0,0:0:0:0:
192,192,34277,1,0,0:0:0:0:
320,192,34335,1,0,0:0:0:0:
192,192,34394,1,0,0:0:0:0:
64,192,34452,1,0,0:0:0:0:
320,192,34510,1,0,0:0:0:0:
448,192,34568,1,0,0:0:0:0:
192,192,34568,1,0,0:0:0:0:
320,192,34626,1,0,0:0:0:0:
64,192,34684,1,0,0:0:0:0:
448,192,34684,1,0,0:0:0:0:
192,192,34742,1,0,0:0:0:0:
320,192,34801,1,0,0:0:0:0:
64,192,34801,1,0,0:0:0:0:
448,192,34859,1,0,0:0:0:0:
64,192,34917,1,0,0:0:0:0:
192,192,34917,1,0,0:0:0:0:
320,192,34975,1,0,0:0:0:0:
448,192,35033,1,0,0:0:0:0:
192,192,35091,1,0,0:0:0:0:
320,192,35149,1,0,0:0:0:0:
64,192,35208,1,0,0:0:0:0:
192,192,35266,1,0,0:0:0:0:
448,192,35266,1,0,0:0:0:0:
320,192,35324,1,0,0:0:0:0:
64,192,35382,1,0,0:0:0:0:
448,192,35440,1,0,0:0:0:0:
320,192,35498,1,0,0:0:0:0:
192,192,35556,1,0,0:0:0:0:
64,192,35615,1,0,0:0:0:0:
448,192,35615,1,0,0:0:0:0:
192,192,35673,1,0,0:0:0:0:
320,192,35731,1,0,0:0:0:0:
448,192,35789,1,0,0:0:0:0:
64,192,35847,1,0,0:0:0:0:
320,192,35905,1,0,0:0:0:0:
192,192,35963,1,0,0:0:0:0:
64,192,35963,1,0,0:0:0:0:
448,192,36022,1,0,0:0:0:0:
320,192,36080,1,0,0:0:0:0:
192,192,36138,1,0,0:0:0:0:
64,192,36196,1,0,0:0:0:0:
320,192,36254,1,0,0:0:0:0:
192,192,36312,1,0,0:0:0:0:
64,192,36312,1,0,0:0:0:0:
448,192,36312,1,0,0:0:0:0:
320,192,36370,1,0,0:0:0:0:
192,192,36429,1,0,0:0:0:0:
448,192,36487,1,0,0:0:0:0:
64,192,36545,1,0,0:0:0:0:
192,192,36545,1,0,0:0:0:0:
448,192,36603,1,0,0:0:0:0:
320,192,36661,1,0,0:0:0:0:
192,192,36661,1,0,0:0:0:0:
64,192,36661,1,0,0:0:0:0:
448,192,36719,1,0,0:0:0:0:
64,192,36777,1,0,0:0:0:0:
192,192,36835,1,0,0:0:0:0:
320,192,36894,1,0,0:0:0:0:
448,192,36894,1,0,0:0:0:0:
192,192,36952,1,0,0:0:0:0:
64,192,37010,1,0,0:0:0:0:
320,192,37010,1,0,0:0:0:0:
448,192,37010,1,0,0:0:0:0:
192,192,37068,1,0,0:0:0:0:
64,192,37126,1,0,0:0:0:0:
448,192,37126,1,0,0:0:0:0:
320,192,37184,1,0,0:0:0:0:
192,192,37242,1,0,0:0:0:0:
448,192,37242,1,0,0:0:0:0:
64,192,37301,1,0,0:0:0:0:
192,192,37359,1,0,0:0:0:0:
448,192,37359,1,0,0:0:0:0:
320,192,37359,1,0,0:0:0:0:
64,192,37417,1,0,0:0:0:0:
320,192,37475,1,0,0:0:0:0:
192,192,37533,1,0,0:0:0:0:
64,192,37591,1,0,0:0:0:0:
448,192,37591,1,0,0:0:0:0:
320,192,37649,1,0,0:0:0:0:
64,192,37708,1,0,0:0:0:0:
448,192,37708,1,0,0:0:0:0:
192,192,37708,1,0,0:0:0:0:
320,192,37751,1,0,0:0:0:0:
192,192,37795,1,0,0:0:0:0:
448,192,37838,1,0,0:0:0:0:
64,192,37882,1,0,0:0:0:0:
320,192,37882,1,0,0:0:0:0:
192,192,37940,1,0,0:0:0:0:
448,192,37998,1,0,0:0:0:0:
320,192,38056,1,0,0:0:0:0:
192,192,38056,1,0,0:0:0:0:
64,192,38056,1,0,0:0:0:0:
448,192,38100,1,0,0:0:0:0:
64,192,38144,1,0,0:0:0:0:
320,192,38187,1,0,0:0:0:0:
192,192,38231,1,0,0:0:0:0:
448,192,38231,1,0,0:0:0:0:
64,192,38289,1,0,0:0:0:0:
320,192,38347,1,0,0:0:0:0:
192,192,38405,1,0,0:0:0:0:
64,192,38405,1,0,0:0:0:0:
448,192,38405,1,0,0:0:0:0:
320,192,38449,1,0,0:0:0:0:
64,192,38492,1,0,0:0:0:0:
192,192,38536,1,0,0:0:0:0:
448,192,38580,1,0,0:0:0:0:
320,192,38580,1,0,0:0:0:0:
64,192,38638,1,0,0:0:0:0:
448,192,38696,1,0,0:0:0:0:
320,192,38754,1,0,0:0:0:0:
192,192,38754,1,0,0:0:0:0:
64,192,38754,1,0,0:0:0:0:
448,192,38798,1,0,0:0:0:0:
192,192,38841,1,0,0:0:0:0:
320,192,38885,1,0,0:0:0:0:
64,192,38929,1,0,0:0:0:0:
448,192,38929,1,0,0:0:0:0:
192,192,38987,1,0,0:0:0:0:
320,192,39045,1,0,0:0:0:0:
192,192,39103,1,0,0:0:0:0:
448,192,39103,1,0,0:0:0:0:
64,192,39103,1,0,0:0:0:0:
64,192,39452,1,0,0:0:0:0:
192,192,39452,1,0,0:0:0:0:
320,192,39452,1,0,0:0:0:0:
64,192,39801,1,0,0:0:0:0:
448,192,39801,1,0,0:0:0:0:
192,192,39801,1,0,0:0:0:0:
320,192,40033,1,0,0:0:0:0:
64,192,40149,1,0,0:0:0:0:
320,192,40149,1,0,0:0:0:0:
448,192,40149,1,0,0:0:0:0:
64,192,40498,1,0,0:0:0:0:
192,192,40498,1,0,0:0:0:0:
448,192,40498,1,0,0:0:0:0:
320,192,40847,1,0,0:0:0:0:
192,192,40847,1,0,0:0:0:0:
64,192,40847,1,0,0:0:0:0:
320,192,41196,1,0,0:0:0:0:
448,192,41196,1,0,0:0:0:0:
64,192,41196,1,0,0:0:0:0:
192,192,41429,1,0,0:0:0:0:
192,192,41545,1,0,0:0:0:0:
448,192,41545,1,0,0:0:0:0:
64,192,41777,1,0,0:0:0:0:
192,192,41777,1,0,0:0:0:0:
64,192,41894,1,0,0:0:0:0:
192,192,41894,1,0,0:0:0:0:
320,192,41894,1,0,0:0:0:0:
64,192,42242,1,0,0:0:0:0:
192,192,42242,1,0,0:0:0:0:
448,192,42242,1,0,0:0:0:0:
64,192,42591,1,0,0:0:0:0:
320,192,42591,1,0,0:0:0:0:
448,192,42591,1,0,0:0:0:0:
448,192,42824,1,0,0:0:0:0:
64,192,42940,1,0,0:0:0:0:
192,192,42940,1,0,0:0:0:0:
448,192,42940,1,0,0:0:0:0:
64,192,43289,1,0,0:0:0:0:
192,192,43289,1,0,0:0:0:0:
320,192,43289,1,0,0:0:0:0:
192,192,43638,1,0,0:0:0:0:
320,192,43638,1,0,0:0:0:0:
448,192,43638,1,0,0:0:0:0:
448,192,43812,1,0,0:0:0:0:
192,192,43841,1,0,0:0:0:0:
320,192,43870,1,0,0:0:0:0:
64,192,43899,1,0,0:0:0:0:
448,192,43899,1,0,0:0:0:0:
192,192,43929,1,0,0:0:0:0:
320,192,43958,1,0,0:0:0:0:
64,192,43987,1,0,0:0:0:0:
448,192,43987,1,0,0:0:0:0:
64,192,44219,1,0,0:0:0:0:
448,192,44335,1,0,0:0:0:0:
64,192,44335,1,0,0:0:0:0:
192,192,44568,1,0,0:0:0:0:
320,192,44568,1,0,0:0:0:0:
192,192,44684,1,0,0:0:0:0:
64,192,44684,1,0,0:0:0:0:
448,192,44684,1,0,0:0:0:0:
64,192,45033,1,0,0:0:0:0:
192,192,45033,1,0,0:0:0:0:
320,192,45033,1,0,0:0:0:0:
64,192,45382,1,0,0:0:0:0:
448,192,45382,1,0,0:0:0:0:
192,192,45382,1,0,0:0:0:0:
320,192,45615,1,0,0:0:0:0:
64,192,45731,1,0,0:0:0:0:
320,192,45731,1,0,0:0:0:0:
448,192,45731,1,0,0:0:0:0:
64,192,45847,1,0,0:0:0:0:
64,192,45963,1,0,0:0:0:0:
320,192,46080,1,0,0:0:0:0:
192,192,46080,1,0,0:0:0:0:
64,192,46080,1,0,0:0:0:0:
192,192,46429,1,0,0:0:0:0:
320,192,46429,1,0,0:0:0:0:
448,192,46429,1,0,0:0:0:0:
320,192,46661,1,0,0:0:0:0:
192,192,46777,1,0,0:0:0:0:
64,192,46777,1,0,0:0:0:0:
448,192,46777,1,0,0:0:0:0:
320,192,47010,1,0,0:0:0:0:
64,192,47126,1,0,0:0:0:0:
192,192,47126,1,0,0:0:0:0:
320,192,47126,1,0,0:0:0:0:
64,192,47359,1,0,0:0:0:0:
192,192,47359,1,0,0:0:0:0:
64,192,47475,1,0,0:0:0:0:
320,192,47475,1,0,0:0:0:0:
448,192,47475,1,0,0:0:0:0:
64,192,47824,1,0,0:0:0:0:
192,192,47824,1,0,0:0:0:0:
320,192,47824,1,0,0:0:0:0:
64,192,48173,1,0,0:0:0:0:
448,192,48173,1,0,0:0:0:0:
320,192,48173,1,0,0:0:0:0:
192,192,48405,1,0,0:0:0:0:
192,192,48522,1,0,0:0:0:0:
320,192,48522,1,0,0:0:0:0:
448,192,48522,1,0,0:0:0:0:
448,192,48870,1,0,0:0:0:0:
320,192,48870,1,0,0:0:0:0:
64,192,48870,1,0,0:0:0:0:
192,192,48929,1,0,0:0:0:0:
320,192,48987,1,0,0:0:0:0:
448,192,49045,1,0,0:0:0:0:
192,192,49103,1,0,0:0:0:0:
320,192,49161,1,0,0:0:0:0:
64,192,49219,1,0,0:0:0:0:
448,192,49219,1,0,0:0:0:0:
192,192,49277,1,0,0:0:0:0:
320,192,49335,1,0,0:0:0:0:
64,192,49394,1,0,0:0:0:0:
192,192,49452,1,0,0:0:0:0:
320,192,49452,1,0,0:0:0:0:
448,192,49510,1,0,0:0:0:0:
320,192,49568,1,0,0:0:0:0:
64,192,49568,1,0,0:0:0:0:
192,192,49626,1,0,0:0:0:0:
448,192,49684,1,0,0:0:0:0:
320,192,49742,1,0,0:0:0:0:
192,192,49801,1,0,0:0:0:0:
64,192,49801,1,0,0:0:0:0:
320,192,49859,1,0,0:0:0:0:
448,192,49917,1,0,0:0:0:0:
64,192,49917,1,0,0:0:0:0:
320,192,49975,1,0,0:0:0:0:
192,192,50033,1,0,0:0:0:0:
448,192,50033,1,0,0:0:0:0:
64,192,50091,1,0,0:0:0:0:
320,192,50149,1,0,0:0:0:0:
448,192,50149,1,0,0:0:0:0:
64,192,50208,1,0,0:0:0:0:
320,192,50266,1,0,0:0:0:0:
448,192,50266,1,0,0:0:0:0:
192,192,50266,1,0,0:0:0:0:
64,192,50324,1,0,0:0:0:0:
320,192,50382,1,0,0:0:0:0:
192,192,50440,1,0,0:0:0:0:
448,192,50498,1,0,0:0:0:0:
192,192,50556,1,0,0:0:0:0:
64,192,50615,1,0,0:0:0:0:
320,192,50615,1,0,0:0:0:0:
448,192,50673,1,0,0:0:0:0:
192,192,50731,1,0,0:0:0:0:
320,192,50789,1,0,0:0:0:0:
64,192,50847,1,0,0:0:0:0:
192,192,50847,1,0,0:0:0:0:
448,192,50905,1,0,0:0:0:0:
64,192,50963,1,0,0:0:0:0:
320,192,50963,1,0,0:0:0:0:
192,192,51022,1,0,0:0:0:0:
320,192,51080,1,0,0:0:0:0:
448,192,51138,1,0,0:0:0:0:
192,192,51196,1,0,0:0:0:0:
64,192,51254,1,0,0:0:0:0:
320,192,51312,1,0,0:0:0:0:
448,192,51312,1,0,0:0:0:0:
64,192,51370,1,0,0:0:0:0:
192,192,51429,1,0,0:0:0:0:
320,192,51487,1,0,0:0:0:0:
448,192,51545,1,0,0:0:0:0:
192,192,51603,1,0,0:0:0:0:
64,192,51661,1,0,0:0:0:0:
448,192,51661,1,0,0:0:0:0:
320,192,51719,1,0,0:0:0:0:
192,192,51777,1,0,0:0:0:0:
64,192,51835,1,0,0:0:0:0:
448,192,51894,1,0,0:0:0:0:
192,192,51952,1,0,0:0:0:0:
64,192,52010,1,0,0:0:0:0:
320,192,52010,1,0,0:0:0:0:
192,192,52068,1,0,0:0:0:0:
448,192,52126,1,0,0:0:0:0:
320,192,52184,1,0,0:0:0:0:
64,192,52242,1,0,0:0:0:0:
192,192,52301,1,0,0:0:0:0:
320,192,52359,1,0,0:0:0:0:
448,192,52359,1,0,0:0:0:0:
192,192,52417,1,0,0:0:0:0:
64,192,52475,1,0,0:0:0:0:
448,192,52533,1,0,0:0:0:0:
320,192,52591,1,0,0:0:0:0:
192,192,52649,1,0,0:0:0:0:
320,192,52708,1,0,0:0:0:0:
448,192,52708,1,0,0:0:0:0:
64,192,52766,1,0,0:0:0:0:
192,192,52824,1,0,0:0:0:0:
320,192,52882,1,0,0:0:0:0:
64,192,52940,1,0,0:0:0:0:
448,192,52940,1,0,0:0:0:0:
320,192,52998,1,0,0:0:0:0:
64,192,53056,1,0,0:0:0:0:
192,192,53056,1,0,0:0:0:0:
448,192,53115,1,0,0:0:0:0:
320,192,53173,1,0,0:0:0:0:
64,192,53231,1,0,0:0:0:0:
192,192,53289,1,0,0:0:0:0:
320,192,53347,1,0,0:0:0:0:
448,192,53405,1,0,0:0:0:0:
64,192,53405,1,0,0:0:0:0:
192,192,53463,1,0,0:0:0:0:
320,192,53522,1,0,0:0:0:0:
64,192,53580,1,0,0:0:0:0:
192,192,53638,1,0,0:0:0:0:
320,192,53638,1,0,0:0:0:0:
448,192,53696,1,0,0:0:0:0:
320,192,53754,1,0,0:0:0:0:
64,192,53754,1,0,0:0:0:0:
448,192,53812,1,0,0:0:0:0:
192,192,53870,1,0,0:0:0:0:
64,192,53929,1,0,0:0:0:0:
320,192,53987,1,0,0:0:0:0:
64,192,54045,1,0,0:0:0:0:
448,192,54103,1,0,0:0:0:0:
320,192,54103,1,0,0:0:0:0:
192,192,54161,1,0,0:0:0:0:
448,192,54219,1,0,0:0:0:0:
64,192,54277,1,0,0:0:0:0:
192,192,54335,1,0,0:0:0:0:
320,192,54394,1,0,0:0:0:0:
448,192,54452,1,0,0:0:0:0:
64,192,54452,1,0,0:0:0:0:
192,192,54510,1,0,0:0:0:0:
320,192,54568,1,0,0:0:0:0:
192,192,54626,1,0,0:0:0:0:
448,192,54684,1,0,0:0:0:0:
64,192,54742,1,0,0:0:0:0:
320,192,54801,1,0,0:0:0:0:
192,192,54801,1,0,0:0:0:0:
448,192,54859,1,0,0:0:0:0:
64,192,54917,1,0,0:0:0:0:
448,192,54975,1,0,0:0:0:0:
320,192,55004,1,0,0:0:0:0:
192,192,55033,1,0,0:0:0:0:
64,192,55062,1,0,0:0:0:0:
448,192,55062,1,0,0:0:0:0:
320,192,55091,1,0,0:0:0:0:
192,192,55120,1,0,0:0:0:0:
64,192,55149,1,0,0:0:0:0:
448,192,55149,1,0,0:0:0:0:
320,192,55208,1,0,0:0:0:0:
192,192,55266,1,0,0:0:0:0:
448,192,55324,1,0,0:0:0:0:
64,192,55382,1,0,0:0:0:0:
320,192,55440,1,0,0:0:0:0:
192,192,55498,1,0,0:0:0:0:
64,192,55498,1,0,0:0:0:0:
320,192,55556,1,0,0:0:0:0:
448,192,55615,1,0,0:0:0:0:
192,192,55673,1,0,0:0:0:0:
320,192,55731,1,0,0:0:0:0:
64,192,55731,1,0,0:0:0:0:
448,192,55789,1,0,0:0:0:0:
192,192,55847,1,0,0:0:0:0:
64,192,55847,1,0,0:0:0:0:
320,192,55905,1,0,0:0:0:0:
64,192,55963,1,0,0:0:0:0:
448,192,56022,1,0,0:0:0:0:
320,192,56080,1,0,0:0:0:0:
192,192,56138,1,0,0:0:0:0:
64,192,56196,1,0,0:0:0:0:
448,192,56196,1,0,0:0:0:0:
192,192,56254,1,0,0:0:0:0:
320,192,56312,1,0,0:0:0:0:
64,192,56370,1,0,0:0:0:0:
448,192,56429,1,0,0:0:0:0:
192,192,56487,1,0,0:0:0:0:
320,192,56545,1,0,0:0:0:0:
448,192,56545,1,0,0:0:0:0:
64,192,56603,1,0,0:0:0:0:
192,192,56661,1,0,0:0:0:0:
320,192,56719,1,0,0:0:0:0:
192,192,56777,1,0,0:0:0:0:
448,192,56835,1,0,0:0:0:0:
64,192,56894,1,0,0:0:0:0:
320,192,56894,1,0,0:0:0:0:
192,192,56952,1,0,0:0:0:0:
64,192,57010,1,0,0:0:0:0:
320,192,57010,1,0,0:0:0:0:
448,192,57068,1,0,0:0:0:0:
64,192,57126,1,0,0:0:0:0:
192,192,57126,1,0,0:0:0:0:
320,192,57184,1,0,0:0:0:0:
64,192,57242,1,0,0:0:0:0:
448,192,57242,1,0,0:0:0:0:
320,192,57301,1,0,0:0:0:0:
192,192,57359,1,0,0:0:0:0:
64,192,57417,1,0,0:0:0:0:
320,192,57475,1,0,0:0:0:0:
448,192,57533,1,0,0:0:0:0:
192,192,57591,1,0,0:0:0:0:
64,192,57591,1,0,0:0:0:0:
320,192,57649,1,0,0:0:0:0:
64,192,57708,1,0,0:0:0:0:
192,192,57766,1,0,0:0:0:0:
320,192,57824,1,0,0:0:0:0:
448,192,57882,1,0,0:0:0:0:
192,192,57940,1,0,0:0:0:0:
64,192,57940,1,0,0:0:0:0:
320,192,57998,1,0,0:0:0:0:
448,192,58056,1,0,0:0:0:0:
192,192,58115,1,0,0:0:0:0:
320,192,58173,1,0,0:0:0:0:
192,192,58231,1,0,0:0:0:0:
64,192,58289,1,0,0:0:0:0:
448,192,58289,1,0,0:0:0:0:
320,192,58347,1,0,0:0:0:0:
448,192,58405,1,0,0:0:0:0:
64,192,58463,1,0,0:0:0:0:
192,192,58522,1,0,0:0:0:0:
320,192,58580,1,0,0:0:0:0:
448,192,58638,1,0,0:0:0:0:
64,192,58638,1,0,0:0:0:0:
192,192,58638,1,0,0:0:0:0:
320,192,58696,1,0,0:0:0:0:
64,192,58754,1,0,0:0:0:0:
192,192,58812,1,0,0:0:0:0:
320,192,58870,1,0,0:0:0:0:
448,192,58870,1,0,0:0:0:0:
192,192,58929,1,0,0:0:0:0:
64,192,58987,1,0,0:0:0:0:
320,192,58987,1,0,0:0:0:0:
448,192,58987,1,0,0:0:0:0:
192,192,59045,1,0,0:0:0:0:
448,192,59103,1,0,0:0:0:0:
64,192,59161,1,0,0:0:0:0:
320,192,59219,1,0,0:0:0:0:
192,192,59219,1,0,0:0:0:0:
448,192,59277,1,0,0:0:0:0:
320,192,59335,1,0,0:0:0:0:
192,192,59335,1,0,0:0:0:0:
64,192,59335,1,0,0:0:0:0:
448,192,59394,1,0,0:0:0:0:
320,192,59452,1,0,0:0:0:0:
64,192,59452,1,0,0:0:0:0:
192,192,59510,1,0,0:0:0:0:
64,192,59568,1,0,0:0:0:0:
448,192,59568,1,0,0:0:0:0:
320,192,59626,1,0,0:0:0:0:
192,192,59684,1,0,0:0:0:0:
64,192,59684,1,0,0:0:0:0:
448,192,59684,1,0,0:0:0:0:
320,192,59742,1,0,0:0:0:0:
192,192,59801,1,0,0:0:0:0:
64,192,59859,1,0,0:0:0:0:
320,192,59917,1,0,0:0:0:0:
448,192,59917,1,0,0:0:0:0:
192,192,59975,1,0,0:0:0:0:
64,192,60033,1,0,0:0:0:0:
320,192,60033,1,0,0:0:0:0:
448,192,60033,1,0,0:0:0:0:
192,192,60077,1,0,0:0:0:0:
448,192,60120,1,0,0:0:0:0:
64,192,60164,1,0,0:0:0:0:
320,192,60208,1,0,0:0:0:0:
192,192,60208,1,0,0:0:0:0:
448,192,60266,1,0,0:0:0:0:
64,192,60324,1,0,0:0:0:0:
192,192,60382,1,0,0:0:0:0:
320,192,60382,1,0,0:0:0:0:
448,192,60382,1,0,0:0:0:0:
64,192,60426,1,0,0:0:0:0:
320,192,60469,1,0,0:0:0:0:
192,192,60513,1,0,0:0:0:0:
448,192,60556,1,0,0:0:0:0:
64,192,60556,1,0,0:0:0:0:
320,192,60615,1,0,0:0:0:0:
192,192,60673,1,0,0:0:0:0:
64,192,60731,1,0,0:0:0:0:
320,192,60731,1,0,0:0:0:0:
448,192,60731,1,0,0:0:0:0:
192,192,60774,1,0,0:0:0:0:
448,192,60818,1,0,0:0:0:0:
320,192,60862,1,0,0:0:0:0:
192,192,60905,1,0,0:0:0:0:
64,192,60905,1,0,0:0:0:0:
448,192,60963,1,0,0:0:0:0:
64,192,61022,1,0,0:0:0:0:
192,192,61080,1,0,0:0:0:0:
320,192,61080,1,0,0:0:0:0:
448,192,61080,1,0,0:0:0:0:
64,192,61123,1,0,0:0:0:0:
320,192,61167,1,0,0:0:0:0:
192,192,61210,1,0,0:0:0:0:
64,192,61254,1,0,0:0:0:0:
448,192,61254,1,0,0:0:0:0:
320,192,61312,1,0,0:0:0:0:
192,192,61370,1,0,0:0:0:0:
320,192,61429,1,0,0:0:0:0:
64,192,61429,1,0,0:0:0:0:
448,192,61429,128,0,64219:0:0:0:0:
448,192,64568,1,0,0:0:0:0:
320,192,64801,1,0,0:0:0:0:
64,192,64917,1,0,0:0:0:0:
192,192,65149,1,0,0:0:0:0:
448,192,65266,1,0,0:0:0:0:
320,192,65498,1,0,0:0:0:0:
64,192,65615,1,0,0:0:0:0:
192,192,65847,1,0,0:0:0:0:
448,192,65963,1,0,0:0:0:0:
320,192,66196,1,0,0:0:0:0:
64,192,66312,1,0,0:0:0:0:
192,192,66545,1,0,0:0:0:0:
448,192,66661,1,0,0:0:0:0:
320,192,66894,1,0,0:0:0:0:
64,192,67010,1,0,0:0:0:0:
192,192,67242,1,0,0:0:0:0:
448,192,67359,1,0,0:0:0:0:
320,192,67591,1,0,0:0:0:0:
64,192,67708,1,0,0:0:0:0:
192,192,67940,1,0,0:0:0:0:
448,192,68056,1,0,0:0:0:0:
320,192,68289,1,0,0:0:0:0:
64,192,68405,1,0,0:0:0:0:
192,192,68638,1,0,0:0:0:0:
448,192,68754,1,0,0:0:0:0:
320,192,68987,1,0,0:0:0:0:
64,192,69103,1,0,0:0:0:0:
192,192,69335,1,0,0:0:0:0:
448,192,69452,1,0,0:0:0:0:
64,192,69801,1,0,0:0:0:0:
192,192,69859,1,0,0:0:0:0:
320,192,69917,1,0,0:0:0:0:
448,192,69975,1,0,0:0:0:0:
320,192,70033,1,0,0:0:0:0:
192,192,70091,1,0,0:0:0:0:
64,192,70149,1,0,0:0:0:0:
448,192,70149,1,0,0:0:0:0:
192,192,70208,1,0,0:0:0:0:
320,192,70266,1,0,0:0:0:0:
448,192,70324,1,0,0:0:0:0:
320,192,70382,1,0,0:0:0:0:
192,192,70440,1,0,0:0:0:0:
64,192,70498,1,0,0:0:0:0:
192,192,70556,1,0,0:0:0:0:
320,192,70615,1,0,0:0:0:0:
448,192,70673,1,0,0:0:0:0:
320,192,70731,1,0,0:0:0:0:
192,192,70789,1,0,0:0:0:0:
64,192,70847,1,0,0:0:0:0:
448,192,70847,1,0,0:0:0:0:
192,192,70905,1,0,0:0:0:0:
320,192,70963,1,0,0:0:0:0:
448,192,71022,1,0,0:0:0:0:
320,192,71080,1,0,0:0:0:0:
192,192,71138,1,0,0:0:0:0:
64,192,71196,1,0,0:0:0:0:
192,192,71254,1,0,0:0:0:0:
320,192,71312,1,0,0:0:0:0:
448,192,71370,1,0,0:0:0:0:
320,192,71429,1,0,0:0:0:0:
192,192,71487,1,0,0:0:0:0:
64,192,71545,1,0,0:0:0:0:
448,192,71545,1,0,0:0:0:0:
192,192,71603,1,0,0:0:0:0:
320,192,71661,1,0,0:0:0:0:
448,192,71719,1,0,0:0:0:0:
320,192,71777,1,0,0:0:0:0:
192,192,71835,1,0,0:0:0:0:
64,192,71894,1,0,0:0:0:0:
192,192,71952,1,0,0:0:0:0:
320,192,72010,1,0,0:0:0:0:
448,192,72068,1,0,0:0:0:0:
320,192,72126,1,0,0:0:0:0:
192,192,72184,1,0,0:0:0:0:
64,192,72242,1,0,0:0:0:0:
448,192,72242,1,0,0:0:0:0:
192,192,72301,1,0,0:0:0:0:
320,192,72359,1,0,0:0:0:0:
448,192,72417,1,0,0:0:0:0:
320,192,72475,1,0,0:0:0:0:
192,192,72533,1,0,0:0:0:0:
64,192,72591,1,0,0:0:0:0:
320,192,72649,1,0,0:0:0:0:
192,192,72708,1,0,0:0:0:0:
448,192,72766,1,0,0:0:0:0:
192,192,72824,1,0,0:0:0:0:
320,192,72882,1,0,0:0:0:0:
64,192,72940,1,0,0:0:0:0:
448,192,72940,1,0,0:0:0:0:
320,192,72998,1,0,0:0:0:0:
192,192,73056,1,0,0:0:0:0:
448,192,73115,1,0,0:0:0:0:
192,192,73173,1,0,0:0:0:0:
320,192,73231,1,0,0:0:0:0:
64,192,73289,1,0,0:0:0:0:
320,192,73347,1,0,0:0:0:0:
192,192,73405,1,0,0:0:0:0:
448,192,73463,1,0,0:0:0:0:
192,192,73522,1,0,0:0:0:0:
320,192,73580,1,0,0:0:0:0:
64,192,73638,1,0,0:0:0:0:
448,192,73638,1,0,0:0:0:0:
320,192,73696,1,0,0:0:0:0:
192,192,73754,1,0,0:0:0:0:
448,192,73812,1,0,0:0:0:0:
192,192,73870,1,0,0:0:0:0:
320,192,73929,1,0,0:0:0:0:
64,192,73987,1,0,0:0:0:0:
192,192,74045,1,0,0:0:0:0:
320,192,74103,1,0,0:0:0:0:
64,192,74161,1,0,0:0:0:0:
320,192,74219,1,0,0:0:0:0:
192,192,74277,1,0,0:0:0:0:
64,192,74335,1,0,0:0:0:0:
448,192,74335,1,0,0:0:0:0:
192,192,74394,1,0,0:0:0:0:
320,192,74452,1,0,0:0:0:0:
64,192,74510,1,0,0:0:0:0:
320,192,74568,1,0,0:0:0:0:
192,192,74626,1,0,0:0:0:0:
448,192,74684,1,0,0:0:0:0:
192,192,74742,1,0,0:0:0:0:
320,192,74801,1,0,0:0:0:0:
64,192,74859,1,0,0:0:0:0:
320,192,74917,1,0,0:0:0:0:
192,192,74975,1,0,0:0:0:0:
64,192,75033,1,0,0:0:0:0:
448,192,75033,1,0,0:0:0:0:
192,192,75091,1,0,0:0:0:0:
320,192,75149,1,0,0:0:0:0:
448,192,75208,1,0,0:0:0:0:
64,192,75266,1,0,0:0:0:0:
192,192,75324,1,0,0:0:0:0:
448,192,75382,1,0,0:0:0:0:
320,192,75382,1,0,0:0:0:0:
64,192,75440,1,0,0:0:0:0:
192,192,75498,1,0,0:0:0:0:
64,192,75556,1,0,0:0:0:0:
448,192,75615,1,0,0:0:0:0:
320,192,75673,1,0,0:0:0:0:
192,192,75731,1,0,0:0:0:0:
64,192,75731,1,0,0:0:0:0:
320,192,75789,1,0,0:0:0:0:
448,192,75847,1,0,0:0:0:0:
192,192,75905,1,0,0:0:0:0:
320,192,75963,1,0,0:0:0:0:
64,192,76022,1,0,0:0:0:0:
192,192,76080,1,0,0:0:0:0:
448,192,76080,1,0,0:0:0:0:
320,192,76138,1,0,0:0:0:0:
192,192,76196,1,0,0:0:0:0:
64,192,76254,1,0,0:0:0:0:
320,192,76312,1,0,0:0:0:0:
448,192,76312,1,0,0:0:0:0:
192,192,76370,1,0,0:0:0:0:
64,192,76429,1,0,0:0:0:0:
448,192,76429,1,0,0:0:0:0:
192,192,76487,1,0,0:0:0:0:
320,192,76545,1,0,0:0:0:0:
64,192,76603,1,0,0:0:0:0:
448,192,76661,1,0,0:0:0:0:
192,192,76719,1,0,0:0:0:0:
448,192,76777,1,0,0:0:0:0:
320,192,76777,1,0,0:0:0:0:
64,192,76835,1,0,0:0:0:0:
192,192,76894,1,0,0:0:0:0:
320,192,76952,1,0,0:0:0:0:
448,192,77010,1,0,0:0:0:0:
64,192,77068,1,0,0:0:0:0:
320,192,77126,1,0,0:0:0:0:
448,192,77126,1,0,0:0:0:0:
192,192,77184,1,0,0:0:0:0:
64,192,77242,1,0,0:0:0:0:
448,192,77301,1,0,0:0:0:0:
320,192,77359,1,0,0:0:0:0:
448,192,77417,1,0,0:0:0:0:
192,192,77475,1,0,0:0:0:0:
64,192,77475,1,0,0:0:0:0:
320,192,77533,1,0,0:0:0:0:
448,192,77591,1,0,0:0:0:0:
192,192,77649,1,0,0:0:0:0:
64,192,77708,1,0,0:0:0:0:
448,192,77708,1,0,0:0:0:0:
320,192,77766,1,0,0:0:0:0:
192,192,77824,1,0,0:0:0:0:
64,192,77824,1,0,0:0:0:0:
448,192,77882,1,0,0:0:0:0:
64,192,77940,1,0,0:0:0:0:
192,192,77998,1,0,0:0:0:0:
320,192,78056,1,0,0:0:0:0:
448,192,78056,1,0,0:0:0:0:
192,192,78115,1,0,0:0:0:0:
64,192,78173,1,0,0:0:0:0:
320,192,78173,1,0,0:0:0:0:
448,192,78231,1,0,0:0:0:0:
192,192,78289,1,0,0:0:0:0:
320,192,78347,1,0,0:0:0:0:
64,192,78405,1,0,0:0:0:0:
320,192,78463,1,0,0:0:0:0:
192,192,78522,1,0,0:0:0:0:
448,192,78522,1,0,0:0:0:0:
64,192,78580,1,0,0:0:0:0:
320,192,78638,1,0,0:0:0:0:
192,192,78696,1,0,0:0:0:0:
448,192,78754,1,0,0:0:0:0:
320,192,78812,1,0,0:0:0:0:
192,192,78870,1,0,0:0:0:0:
64,192,78870,1,0,0:0:0:0:
320,192,78929,1,0,0:0:0:0:
448,192,78987,1,0,0:0:0:0:
64,192,79045,1,0,0:0:0:0:
192,192,79103,1,0,0:0:0:0:
320,192,79103,1,0,0:0:0:0:
64,192,79161,1,0,0:0:0:0:
448,192,79219,1,0,0:0:0:0:
192,192,79219,1,0,0:0:0:0:
320,192,79277,1,0,0:0:0:0:
64,192,79335,1,0,0:0:0:0:
448,192,79394,1,0,0:0:0:0:
192,192,79452,1,0,0:0:0:0:
320,192,79510,1,0,0:0:0:0:
192,192,79568,1,0,0:0:0:0:
64,192,79568,1,0,0:0:0:0:
320,192,79626,1,0,0:0:0:0:
448,192,79684,1,0,0:0:0:0:
192,192,79742,1,0,0:0:0:0:
320,192,79801,1,0,0:0:0:0:
64,192,79859,1,0,0:0:0:0:
192,192,79917,1,0,0:0:0:0:
448,192,79917,1,0,0:0:0:0:
320,192,79975,1,0,0:0:0:0:
192,192,80033,1,0,0:0:0:0:
64,192,80091,1,0,0:0:0:0:
448,192,80149,1,0,0:0:0:0:
320,192,80208,1,0,0:0:0:0:
192,192,80266,1,0,0:0:0:0:
64,192,80266,1,0,0:0:0:0:
448,192,80324,1,0,0:0:0:0:
192,192,80382,1,0,0:0:0:0:
320,192,80440,1,0,0:0:0:0:
64,192,80498,1,0,0:0:0:0:
448,192,80498,1,0,0:0:0:0:
192,192,80556,1,0,0:0:0:0:
320,192,80615,1,0,0:0:0:0:
448,192,80615,1,0,0:0:0:0:
64,192,80673,1,0,0:0:0:0:
192,192,80731,1,0,0:0:0:0:
320,192,80789,1,0,0:0:0:0:
64,192,80847,1,0,0:0:0:0:
448,192,80847,1,0,0:0:0:0:
192,192,80905,1,0,0:0:0:0:
64,192,80963,1,0,0:0:0:0:
448,192,80963,1,0,0:0:0:0:
320,192,81022,1,0,0:0:0:0:
192,192,81080,1,0,0:0:0:0:
64,192,81138,1,0,0:0:0:0:
448,192,81196,1,0,0:0:0:0:
192,192,81254,1,0,0:0:0:0:
320,192,81312,1,0,0:0:0:0:
448,192,81312,1,0,0:0:0:0:
64,192,81370,1,0,0:0:0:0:
192,192,81429,1,0,0:0:0:0:
320,192,81487,1,0,0:0:0:0:
448,192,81545,1,0,0:0:0:0:
192,192,81603,1,0,0:0:0:0:
64,192,81661,1,0,0:0:0:0:
448,192,81661,1,0,0:0:0:0:
192,192,81719,1,0,0:0:0:0:
320,192,81777,1,0,0:0:0:0:
448,192,81835,1,0,0:0:0:0:
192,192,81894,1,0,0:0:0:0:
64,192,81894,1,0,0:0:0:0:
448,192,81952,1,0,0:0:0:0:
320,192,82010,1,0,0:0:0:0:
64,192,82010,1,0,0:0:0:0:
192,192,82068,1,0,0:0:0:0:
448,192,82126,1,0,0:0:0:0:
320,192,82184,1,0,0:0:0:0:
64,192,82242,1,0,0:0:0:0:
192,192,82301,1,0,0:0:0:0:
320,192,82359,1,0,0:0:0:0:
448,192,82359,1,0,0:0:0:0:
64,192,82417,1,0,0:0:0:0:
192,192,82475,1,0,0:0:0:0:
320,192,82533,1,0,0:0:0:0:
448,192,82591,1,0,0:0:0:0:
192,192,82649,1,0,0:0:0:0:
64,192,82708,1,0,0:0:0:0:
320,192,82708,1,0,0:0:0:0:
192,192,82766,1,0,0:0:0:0:
448,192,82824,1,0,0:0:0:0:
320,192,82882,1,0,0:0:0:0:
64,192,82940,1,0,0:0:0:0:
192,192,82998,1,0,0:0:0:0:
320,192,83056,1,0,0:0:0:0:
448,192,83056,1,0,0:0:0:0:
64,192,83115,1,0,0:0:0:0:
192,192,83173,1,0,0:0:0:0:
448,192,83231,1,0,0:0:0:0:
64,192,83289,1,0,0:0:0:0:
320,192,83289,1,0,0:0:0:0:
192,192,83347,1,0,0:0:0:0:
64,192,83405,1,0,0:0:0:0:
448,192,83405,1,0,0:0:0:0:
320,192,83463,1,0,0:0:0:0:
192,192,83522,1,0,0:0:0:0:
320,192,83580,1,0,0:0:0:0:
64,192,83638,1,0,0:0:0:0:
448,192,83638,1,0,0:0:0:0:
192,192,83696,1,0,0:0:0:0:
320,192,83754,1,0,0:0:0:0:
448,192,83754,1,0,0:0:0:0:
192,192,83812,1,0,0:0:0:0:
64,192,83870,1,0,0:0:0:0:
320,192,83929,1,0,0:0:0:0:
192,192,83987,1,0,0:0:0:0:
448,192,84045,1,0,0:0:0:0:
192,192,84103,1,0,0:0:0:0:
64,192,84103,1,0,0:0:0:0:
320,192,84161,1,0,0:0:0:0:
448,192,84219,1,0,0:0:0:0:
64,192,84277,1,0,0:0:0:0:
320,192,84335,1,0,0:0:0:0:
64,192,84394,1,0,0:0:0:0:
192,192,84452,1,0,0:0:0:0:
448,192,84452,1,0,0:0:0:0:
320,192,84510,1,0,0:0:0:0:
448,192,84568,1,0,0:0:0:0:
64,192,84626,1,0,0:0:0:0:
320,192,84684,1,0,0:0:0:0:
192,192,84684,1,0,0:0:0:0:
64,192,84742,1,0,0:0:0:0:
320,192,84801,1,0,0:0:0:0:
448,192,84801,1,0,0:0:0:0:
192,192,84859,1,0,0:0:0:0:
64,192,84917,1,0,0:0:0:0:
320,192,84975,1,0,0:0:0:0:
192,192,85033,1,0,0:0:0:0:
448,192,85091,1,0,0:0:0:0:
64,192,85149,1,0,0:0:0:0:
192,192,85149,1,0,0:0:0:0:
320,192,85208,1,0,0:0:0:0:
448,192,85266,1,0,0:0:0:0:
64,192,85324,1,0,0:0:0:0:
320,192,85382,1,0,0:0:0:0:
192,192,85440,1,0,0:0:0:0:
320,192,85498,1,0,0:0:0:0:
448,192,85498,1,0,0:0:0:0:
64,192,85556,1,0,0:0:0:0:
192,192,85615,1,0,0:0:0:0:
320,192,85673,1,0,0:0:0:0:
448,192,85731,1,0,0:0:0:0:
64,192,85789,1,0,0:0:0:0:
192,192,85847,1,0,0:0:0:0:
448,192,85847,1,0,0:0:0:0:
320,192,85905,1,0,0:0:0:0:
64,192,85963,1,0,0:0:0:0:
448,192,86022,1,0,0:0:0:0:
192,192,86080,1,0,0:0:0:0:
64,192,86080,1,0,0:0:0:0:
320,192,86138,1,0,0:0:0:0:
448,192,86196,1,0,0:0:0:0:
64,192,86196,1,0,0:0:0:0:
192,192,86254,1,0,0:0:0:0:
320,192,86312,1,0,0:0:0:0:
448,192,86370,1,0,0:0:0:0:
64,192,86429,1,0,0:0:0:0:
320,192,86487,1,0,0:0:0:0:
192,192,86545,1,0,0:0:0:0:
64,192,86545,1,0,0:0:0:0:
448,192,86545,1,0,0:0:0:0:
320,192,86603,1,0,0:0:0:0:
448,192,86661,1,0,0:0:0:0:
64,192,86661,1,0,0:0:0:0:
192,192,86719,1,0,0:0:0:0:
320,192,86777,1,0,0:0:0:0:
64,192,86777,1,0,0:0:0:0:
448,192,86835,1,0,0:0:0:0:
64,192,86894,1,0,0:0:0:0:
192,192,86894,1,0,0:0:0:0:
320,192,86952,1,0,0:0:0:0:
448,192,87010,1,0,0:0:0:0:
192,192,87010,1,0,0:0:0:0:
64,192,87068,1,0,0:0:0:0:
320,192,87126,1,0,0:0:0:0:
448,192,87126,1,0,0:0:0:0:
192,192,87184,1,0,0:0:0:0:
64,192,87242,1,0,0:0:0:0:
320,192,87242,1,0,0:0:0:0:
448,192,87301,1,0,0:0:0:0:
64,192,87359,1,0,0:0:0:0:
192,192,87359,1,0,0:0:0:0:
320,192,87417,1,0,0:0:0:0:
448,192,87475,1,0,0:0:0:0:
64,192,87475,1,0,0:0:0:0:
320,192,87533,1,0,0:0:0:0:
64,192,87591,1,0,0:0:0:0:
192,192,87591,1,0,0:0:0:0:
320,192,87649,1,0,0:0:0:0:
448,192,87708,1,0,0:0:0:0:
192,192,87708,1,0,0:0:0:0:
64,192,87766,1,0,0:0:0:0:
320,192,87824,1,0,0:0:0:0:
448,192,87824,1,0,0:0:0:0:
192,192,87882,1,0,0:0:0:0:
64,192,87940,1,0,0:0:0:0:
448,192,87940,1,0,0:0:0:0:
320,192,87998,1,0,0:0:0:0:
192,192,88056,1,0,0:0:0:0:
448,192,88056,1,0,0:0:0:0:
64,192,88115,1,0,0:0:0:0:
192,192,88173,1,0,0:0:0:0:
320,192,88173,1,0,0:0:0:0:
448,192,88231,1,0,0:0:0:0:
64,192,88289,1,0,0:0:0:0:
192,192,88289,1,0,0:0:0:0:
320,192,88347,1,0,0:0:0:0:
448,192,88405,1,0,0:0:0:0:
64,192,88405,1,0,0:0:0:0:
192,192,88463,1,0,0:0:0:0:
320,192,88522,1,0,0:0:0:0:
448,192,88522,1,0,0:0:0:0:
192,192,88580,1,0,0:0:0:0:
64,192,88638,1,0,0:0:0:0:
448,192,88638,1,0,0:0:0:0:
320,192,88696,1,0,0:0:0:0:
192,192,88754,1,0,0:0:0:0:
64,192,88754,1,0,0:0:0:0:
320,192,88812,1,0,0:0:0:0:
448,192,88870,1,0,0:0:0:0:
64,192,88870,1,0,0:0:0:0:
320,192,88929,1,0,0:0:0:0:
192,192,88987,1,0,0:0:0:0:
64,192,88987,1,0,0:0:0:0:
448,192,89045,1,0,0:0:0:0:
320,192,89103,1,0,0:0:0:0:
192,192,89103,1,0,0:0:0:0:
64,192,89161,1,0,0:0:0:0:
320,192,89219,1,0,0:0:0:0:
448,192,89219,1,0,0:0:0:0:
192,192,89277,1,0,0:0:0:0:
64,192,89335,1,0,0:0:0:0:
320,192,89335,1,0,0:0:0:0:
448,192,89335,1,0,0:0:0:0:
192,192,89394,1,0,0:0:0:0:
64,192,89452,1,0,0:0:0:0:
448,192,89452,1,0,0:0:0:0:
320,192,89510,1,0,0:0:0:0:
192,192,89568,1,0,0:0:0:0:
448,192,89568,1,0,0:0:0:0:
64,192,89626,1,0,0:0:0:0:
320,192,89684,1,0,0:0:0:0:
448,192,89684,1,0,0:0:0:0:
64,192,89742,1,0,0:0:0:0:
192,192,89801,1,0,0:0:0:0:
320,192,89801,1,0,0:0:0:0:
448,192,89859,1,0,0:0:0:0:
192,192,89917,1,0,0:0:0:0:
64,192,89917,1,0,0:0:0:0:
448,192,89975,1,0,0:0:0:0:
64,192,90033,1,0,0:0:0:0:
320,192,90033,1,0,0:0:0:0:
192,192,90091,1,0,0:0:0:0:
64,192,90149,1,0,0:0:0:0:
448,192,90149,1,0,0:0:0:0:
320,192,90208,1,0,0:0:0:0:
448,192,90266,1,0,0:0:0:0:
192,192,90266,1,0,0:0:0:0:
64,192,90324,1,0,0:0:0:0:
448,192,90382,1,0,0:0:0:0:
320,192,90382,1,0,0:0:0:0:
64,192,90440,1,0,0:0:0:0:
448,192,90498,1,0,0:0:0:0:
192,192,90498,1,0,0:0:0:0:
320,192,90556,1,0,0:0:0:0:
448,192,90615,1,0,0:0:0:0:
64,192,90615,1,0,0:0:0:0:
192,192,90673,1,0,0:0:0:0:
64,192,90731,1,0,0:0:0:0:
448,192,90731,1,0,0:0:0:0:
320,192,90789,1,0,0:0:0:0:
192,192,90847,1,0,0:0:0:0:
64,192,90847,1,0,0:0:0:0:
448,192,90905,1,0,0:0:0:0:
320,192,90963,1,0,0:0:0:0:
192,192,90963,1,0,0:0:0:0:
64,192,91022,1,0,0:0:0:0:
320,192,91080,1,0,0:0:0:0:
448,192,91080,1,0,0:0:0:0:
64,192,91138,1,0,0:0:0:0:
192,192,91196,1,0,0:0:0:0:
448,192,91196,1,0,0:0:0:0:
320,192,91254,1,0,0:0:0:0:
64,192,91312,1,0,0:0:0:0:
448,192,91312,1,0,0:0:0:0:
192,192,91370,1,0,0:0:0:0:
320,192,91429,1,0,0:0:0:0:
64,192,91429,1,0,0:0:0:0:
448,192,91487,1,0,0:0:0:0:
192,192,91545,1,0,0:0:0:0:
64,192,91545,1,0,0:0:0:0:
320,192,91603,1,0,0:0:0:0:
448,192,91661,1,0,0:0:0:0:
64,192,91661,1,0,0:0:0:0:
320,192,91719,1,0,0:0:0:0:
192,192,91777,1,0,0:0:0:0:
64,192,91777,1,0,0:0:0:0:
448,192,91835,1,0,0:0:0:0:
320,192,91894,1,0,0:0:0:0:
192,192,91894,1,0,0:0:0:0:
64,192,91952,1,0,0:0:0:0:
448,192,92010,1,0,0:0:0:0:
320,192,92010,1,0,0:0:0:0:
192,192,92068,1,0,0:0:0:0:
64,192,92126,1,0,0:0:0:0:
448,192,92126,1,0,0:0:0:0:
320,192,92126,1,0,0:0:0:0:
64,192,92242,1,0,0:0:0:0:
192,192,92242,1,0,0:0:0:0:
448,192,92242,1,0,0:0:0:0:
320,192,92359,1,0,0:0:0:0:
192,192,92359,1,0,0:0:0:0:
64,192,92359,1,0,0:0:0:0:
448,192,92475,1,0,0:0:0:0:
320,192,92475,1,0,0:0:0:0:
192,192,92475,1,0,0:0:0:0:
64,192,92591,1,0,0:0:0:0:
192,192,92591,1,0,0:0:0:0:
448,192,92591,1,0,0:0:0:0:
320,192,92708,1,0,0:0:0:0:
448,192,92708,1,0,0:0:0:0:
64,192,92708,1,0,0:0:0:0:
192,192,92824,1,0,0:0:0:0:
64,192,92824,1,0,0:0:0:0:
320,192,92824,1,0,0:0:0:0:
448,192,92940,1,0,0:0:0:0:
320,192,92940,1,0,0:0:0:0:
192,192,92940,1,0,0:0:0:0:
64,192,93056,1,0,0:0:0:0:
192,192,93056,1,0,0:0:0:0:
448,192,93056,1,0,0:0:0:0:
320,192,93173,1,0,0:0:0:0:
448,192,93173,1,0,0:0:0:0:
64,192,93173,1,0,0:0:0:0:
192,192,93289,1,0,0:0:0:0:
320,192,93289,1,0,0:0:0:0:
448,192,93289,1,0,0:0:0:0:
192,192,93405,1,0,0:0:0:0:
64,192,93405,1,0,0:0:0:0:
448,192,93405,1,0,0:0:0:0:
192,192,93522,1,0,0:0:0:0:
64,192,93522,1,0,0:0:0:0:
320,192,93580,1,0,0:0:0:0:
448,192,93580,1,0,0:0:0:0:
192,192,93638,1,0,0:0:0:0:
64,192,93638,1,0,0:0:0:0:
320,192,93696,1,0,0:0:0:0:
448,192,93696,1,0,0:0:0:0:
192,192,93754,1,0,0:0:0:0:
64,192,93754,1,0,0:0:0:0:
320,192,93812,1,0,0:0:0:0:
448,192,93812,1,0,0:0:0:0:
64,192,93870,1,0,0:0:0:0:
192,192,93870,1,0,0:0:0:0:
320,192,93929,1,0,0:0:0:0:
448,192,93929,1,0,0:0:0:0:
192,192,93987,1,0,0:0:0:0:
64,192,93987,1,0,0:0:0:0:
320,192,94045,1,0,0:0:0:0:
448,192,94045,1,0,0:0:0:0:
64,192,94103,1,0,0:0:0:0:
192,192,94103,1,0,0:0:0:0:
448,192,94161,1,0,0:0:0:0:
320,192,94161,1,0,0:0:0:0:
192,192,94219,1,0,0:0:0:0:
64,192,94219,1,0,0:0:0:0:
448,192,94277,1,0,0:0:0:0:
320,192,94277,1,0,0:0:0:0:
64,192,94335,1,0,0:0:0:0:
192,192,94335,1,0,0:0:0:0:
448,192,94394,1,0,0:0:0:0:
320,192,94394,1,0,0:0:0:0:
192,192,94452,1,0,0:0:0:0:
64,192,94452,1,0,0:0:0:0:
320,192,94510,1,0,0:0:0:0:
448,192,94510,1,0,0:0:0:0:
64,192,94568,1,0,0:0:0:0:
192,192,94568,1,0,0:0:0:0:
320,192,94626,1,0,0:0:0:0:
448,192,94626,1,0,0:0:0:0:
192,192,94684,1,0,0:0:0:0:
64,192,94684,1,0,0:0:0:0:
320,192,94742,1,0,0:0:0:0:
448,192,94742,1,0,0:0:0:0:
64,192,94801,1,0,0:0:0:0:
192,192,94801,1,0,0:0:0:0:
448,192,94859,1,0,0:0:0:0:
320,192,94859,1,0,0:0:0:0:
64,192,94917,1,0,0:0:0:0:
192,192,94917,1,0,0:0:0:0:
320,192,94960,1,0,0:0:0:0:
448,192,95004,1,0,0:0:0:0:
192,192,95048,1,0,0:0:0:0:
64,192,95091,1,0,0:0:0:0:
320,192,95135,1,0,0:0:0:0:
192,192,95179,1,0,0:0:0:0:
448,192,95222,1,0,0:0:0:0:
320,192,95266,1,0,0:0:0:0:
64,192,95266,1,0,0:0:0:0:
192,192,95309,1,0,0:0:0:0:
448,192,95353,1,0,0:0:0:0:
320,192,95397,1,0,0:0:0:0:
64,192,95440,1,0,0:0:0:0:
448,192,95484,1,0,0:0:0:0:
192,192,95527,1,0,0:0:0:0:
320,192,95571,1,0,0:0:0:0:
64,192,95615,1,0,0:0:0:0:
448,192,95615,1,0,0:0:0:0:
192,192,95658,1,0,0:0:0:0:
320,192,95702,1,0,0:0:0:0:
64,192,95745,1,0,0:0:0:0:
192,192,95789,1,0,0:0:0:0:
448,192,95789,1,0,0:0:0:0:
320,192,95833,1,0,0:0:0:0:
64,192,95876,1,0,0:0:0:0:
192,192,95920,1,0,0:0:0:0:
64,192,95963,1,0,0:0:0:0:
448,192,95963,1,0,0:0:0:0:
320,192,96007,1,0,0:0:0:0:
192,192,96051,1,0,0:0:0:0:
448,192,96094,1,0,0:0:0:0:
64,192,96138,1,0,0:0:0:0:
320,192,96138,1,0,0:0:0:0:
192,192,96181,1,0,0:0:0:0:
448,192,96225,1,0,0:0:0:0:
320,192,96269,1,0,0:0:0:0:
192,192,96312,1,0,0:0:0:0:
64,192,96312,1,0,0:0:0:0:
448,192,96312,1,0,0:0:0:0:
320,192,96370,1,0,0:0:0:0:
192,192,96429,1,0,0:0:0:0:
64,192,96429,1,0,0:0:0:0:
448,192,96487,1,0,0:0:0:0:
320,192,96545,1,0,0:0:0:0:
64,192,96545,1,0,0:0:0:0:
192,192,96603,1,0,0:0:0:0:
64,192,96661,1,0,0:0:0:0:
320,192,96661,1,0,0:0:0:0:
448,192,96661,1,0,0:0:0:0:
192,192,96719,1,0,0:0:0:0:
320,192,96777,1,0,0:0:0:0:
448,192,96777,1,0,0:0:0:0:
64,192,96835,1,0,0:0:0:0:
192,192,96894,1,0,0:0:0:0:
320,192,96894,1,0,0:0:0:0:
448,192,96952,1,0,0:0:0:0:
192,192,97010,1,0,0:0:0:0:
64,192,97010,1,0,0:0:0:0:
320,192,97010,1,0,0:0:0:0:
448,192,97068,1,0,0:0:0:0:
192,192,97126,1,0,0:0:0:0:
64,192,97126,1,0,0:0:0:0:
320,192,97184,1,0,0:0:0:0:
448,192,97242,1,0,0:0:0:0:
64,192,97242,1,0,0:0:0:0:
320,192,97301,1,0,0:0:0:0:
192,192,97359,1,0,0:0:0:0:
64,192,97359,1,0,0:0:0:0:
320,192,97417,1,0,0:0:0:0:
448,192,97475,1,0,0:0:0:0:
64,192,97475,1,0,0:0:0:0:
192,192,97533,1,0,0:0:0:0:
448,192,97591,1,0,0:0:0:0:
320,192,97591,1,0,0:0:0:0:
192,192,97649,1,0,0:0:0:0:
64,192,97708,1,0,0:0:0:0:
448,192,97708,1,0,0:0:0:0:
320,192,97708,1,0,0:0:0:0:
192,192,97766,1,0,0:0:0:0:
448,192,97824,1,0,0:0:0:0:
320,192,97882,1,0,0:0:0:0:
192,192,97940,1,0,0:0:0:0:
64,192,97998,1,0,0:0:0:0:
320,192,98056,1,0,0:0:0:0:
448,192,98056,1,0,0:0:0:0:
192,192,98115,1,0,0:0:0:0:
64,192,98173,1,0,0:0:0:0:
192,192,98231,1,0,0:0:0:0:
320,192,98289,1,0,0:0:0:0:
448,192,98347,1,0,0:0:0:0:
192,192,98405,1,0,0:0:0:0:
64,192,98405,1,0,0:0:0:0:
320,192,98463,1,0,0:0:0:0:
448,192,98522,1,0,0:0:0:0:
320,192,98580,1,0,0:0:0:0:
192,192,98638,1,0,0:0:0:0:
64,192,98696,1,0,0:0:0:0:
320,192,98754,1,0,0:0:0:0:
448,192,98754,1,0,0:0:0:0:
64,192,98812,1,0,0:0:0:0:
192,192,98870,1,0,0:0:0:0:
320,192,98929,1,0,0:0:0:0:
448,192,98987,1,0,0:0:0:0:
320,192,99045,1,0,0:0:0:0:
192,192,99103,1,0,0:0:0:0:
64,192,99103,1,0,0:0:0:0:
448,192,99161,1,0,0:0:0:0:
320,192,99219,1,0,0:0:0:0:
192,192,99277,1,0,0:0:0:0:
64,192,99335,1,0,0:0:0:0:
192,192,99394,1,0,0:0:0:0:
320,192,99452,1,0,0:0:0:0:
448,192,99452,1,0,0:0:0:0:
64,192,99510,1,0,0:0:0:0:
192,192,99568,1,0,0:0:0:0:
320,192,99626,1,0,0:0:0:0:
448,192,99684,1,0,0:0:0:0:
320,192,99742,1,0,0:0:0:0:
192,192,99801,1,0,0:0:0:0:
64,192,99801,1,0,0:0:0:0:
448,192,99859,1,0,0:0:0:0:
320,192,99917,1,0,0:0:0:0:
192,192,99975,1,0,0:0:0:0:
64,192,100033,1,0,0:0:0:0:
192,192,100091,1,0,0:0:0:0:
320,192,100149,1,0,0:0:0:0:
448,192,100149,1,0,0:0:0:0:
64,192,100208,1,0,0:0:0:0:
192,192,100266,1,0,0:0:0:0:
320,192,100324,1,0,0:0:0:0:
448,192,100382,1,0,0:0:0:0:
64,192,100382,1,0,0:0:0:0:
320,192,100440,1,0,0:0:0:0:
192,192,100498,1,0,0:0:0:0:
64,192,100498,1,0,0:0:0:0:
448,192,100556,1,0,0:0:0:0:
192,192,100615,1,0,0:0:0:0:
320,192,100673,1,0,0:0:0:0:
64,192,100731,1,0,0:0:0:0:
320,192,100789,1,0,0:0:0:0:
192,192,100847,1,0,0:0:0:0:
64,192,100847,1,0,0:0:0:0:
448,192,100905,1,0,0:0:0:0:
192,192,100963,1,0,0:0:0:0:
320,192,101022,1,0,0:0:0:0:
64,192,101080,1,0,0:0:0:0:
320,192,101138,1,0,0:0:0:0:
192,192,101196,1,0,0:0:0:0:
448,192,101196,1,0,0:0:0:0:
64,192,101254,1,0,0:0:0:0:
320,192,101312,1,0,0:0:0:0:
64,192,101370,1,0,0:0:0:0:
448,192,101429,1,0,0:0:0:0:
192,192,101487,1,0,0:0:0:0:
448,192,101545,1,0,0:0:0:0:
320,192,101545,1,0,0:0:0:0:
64,192,101603,1,0,0:0:0:0:
320,192,101661,1,0,0:0:0:0:
192,192,101719,1,0,0:0:0:0:
448,192,101777,1,0,0:0:0:0:
192,192,101835,1,0,0:0:0:0:
64,192,101894,1,0,0:0:0:0:
320,192,101894,1,0,0:0:0:0:
448,192,101952,1,0,0:0:0:0:
320,192,102010,1,0,0:0:0:0:
192,192,102068,1,0,0:0:0:0:
64,192,102126,1,0,0:0:0:0:
192,192,102184,1,0,0:0:0:0:
320,192,102242,1,0,0:0:0:0:
448,192,102242,1,0,0:0:0:0:
64,192,102301,1,0,0:0:0:0:
192,192,102359,1,0,0:0:0:0:
320,192,102417,1,0,0:0:0:0:
448,192,102446,1,0,0:0:0:0:
192,192,102475,1,0,0:0:0:0:
64,192,102504,1,0,0:0:0:0:
320,192,102504,1,0,0:0:0:0:
448,192,102533,1,0,0:0:0:0:
192,192,102562,1,0,0:0:0:0:
64,192,102591,1,0,0:0:0:0:
320,192,102591,1,0,0:0:0:0:
448,192,102649,1,0,0:0:0:0:
192,192,102708,1,0,0:0:0:0:
64,192,102766,1,0,0:0:0:0:
320,192,102824,1,0,0:0:0:0:
192,192,102882,1,0,0:0:0:0:
448,192,102940,1,0,0:0:0:0:
64,192,102940,1,0,0:0:0:0:
192,192,102998,1,0,0:0:0:0:
320,192,103056,1,0,0:0:0:0:
448,192,103115,1,0,0:0:0:0:
192,192,103173,1,0,0:0:0:0:
64,192,103173,1,0,0:0:0:0:
320,192,103231,1,0,0:0:0:0:
448,192,103289,1,0,0:0:0:0:
64,192,103289,1,0,0:0:0:0:
192,192,103347,1,0,0:0:0:0:
448,192,103405,1,0,0:0:0:0:
64,192,103463,1,0,0:0:0:0:
320,192,103522,1,0,0:0:0:0:
64,192,103580,1,0,0:0:0:0:
320,192,103638,1,0,0:0:0:0:
448,192,103638,1,0,0:0:0:0:
192,192,103696,1,0,0:0:0:0:
320,192,103754,1,0,0:0:0:0:
64,192,103812,1,0,0:0:0:0:
448,192,103870,1,0,0:0:0:0:
64,192,103929,1,0,0:0:0:0:
192,192,103987,1,0,0:0:0:0:
448,192,103987,1,0,0:0:0:0:
64,192,104045,1,0,0:0:0:0:
320,192,104103,1,0,0:0:0:0:
192,192,104161,1,0,0:0:0:0:
448,192,104219,1,0,0:0:0:0:
64,192,104277,1,0,0:0:0:0:
320,192,104335,1,0,0:0:0:0:
192,192,104335,1,0,0:0:0:0:
64,192,104394,1,0,0:0:0:0:
448,192,104452,1,0,0:0:0:0:
320,192,104452,1,0,0:0:0:0:
192,192,104510,1,0,0:0:0:0:
320,192,104568,1,0,0:0:0:0:
64,192,104568,1,0,0:0:0:0:
192,192,104626,1,0,0:0:0:0:
64,192,104684,1,0,0:0:0:0:
448,192,104684,1,0,0:0:0:0:
320,192,104742,1,0,0:0:0:0:
192,192,104801,1,0,0:0:0:0:
64,192,104859,1,0,0:0:0:0:
448,192,104917,1,0,0:0:0:0:
64,192,104975,1,0,0:0:0:0:
320,192,105033,1,0,0:0:0:0:
448,192,105033,1,0,0:0:0:0:
192,192,105091,1,0,0:0:0:0:
64,192,105149,1,0,0:0:0:0:
320,192,105208,1,0,0:0:0:0:
192,192,105266,1,0,0:0:0:0:
64,192,105324,1,0,0:0:0:0:
320,192,105382,1,0,0:0:0:0:
448,192,105382,1,0,0:0:0:0:
192,192,105440,1,0,0:0:0:0:
448,192,105498,1,0,0:0:0:0:
64,192,105556,1,0,0:0:0:0:
320,192,105615,1,0,0:0:0:0:
64,192,105673,1,0,0:0:0:0:
192,192,105731,1,0,0:0:0:0:
448,192,105731,1,0,0:0:0:0:
320,192,105789,1,0,0:0:0:0:
192,192,105847,1,0,0:0:0:0:
64,192,105905,1,0,0:0:0:0:
320,192,105963,1,0,0:0:0:0:
448,192,105963,1,0,0:0:0:0:
192,192,106022,1,0,0:0:0:0:
64,192,106080,1,0,0:0:0:0:
320,192,106080,1,0,0:0:0:0:
448,192,106080,1,0,0:0:0:0:
192,192,106138,1,0,0:0:0:0:
448,192,106196,1,0,0:0:0:0:
64,192,106254,1,0,0:0:0:0:
320,192,106312,1,0,0:0:0:0:
192,192,106312,1,0,0:0:0:0:
448,192,106370,1,0,0:0:0:0:
320,192,106429,1,0,0:0:0:0:
192,192,106429,1,0,0:0:0:0:
64,192,106429,1,0,0:0:0:0:
448,192,106487,1,0,0:0:0:0:
64,192,106545,1,0,0:0:0:0:
320,192,106603,1,0,0:0:0:0:
192,192,106661,1,0,0:0:0:0:
64,192,106661,1,0,0:0:0:0:
320,192,106719,1,0,0:0:0:0:
448,192,106777,1,0,0:0:0:0:
64,192,106777,1,0,0:0:0:0:
192,192,106835,1,0,0:0:0:0:
320,192,106835,1,0,0:0:0:0:
64,192,106894,1,0,0:0:0:0:
448,192,106894,1,0,0:0:0:0:
192,192,106952,1,0,0:0:0:0:
320,192,107010,1,0,0:0:0:0:
448,192,107010,1,0,0:0:0:0:
192,192,107068,1,0,0:0:0:0:
320,192,107126,1,0,0:0:0:0:
64,192,107126,1,0,0:0:0:0:
448,192,107126,1,0,0:0:0:0:
192,192,107184,1,0,0:0:0:0:
320,192,107242,1,0,0:0:0:0:
64,192,107301,1,0,0:0:0:0:
448,192,107359,1,0,0:0:0:0:
192,192,107359,1,0,0:0:0:0:
320,192,107417,1,0,0:0:0:0:
192,192,107475,1,0,0:0:0:0:
64,192,107475,1,0,0:0:0:0:
448,192,107475,1,0,0:0:0:0:
320,192,107533,1,0,0:0:0:0:
64,192,107591,1,0,0:0:0:0:
192,192,107649,1,0,0:0:0:0:
448,192,107708,1,0,0:0:0:0:
192,192,107766,1,0,0:0:0:0:
64,192,107824,1,0,0:0:0:0:
320,192,107824,1,0,0:0:0:0:
448,192,107824,1,0,0:0:0:0:
192,192,107882,1,0,0:0:0:0:
320,192,107940,1,0,0:0:0:0:
64,192,107998,1,0,0:0:0:0:
448,192,108056,1,0,0:0:0:0:
320,192,108056,1,0,0:0:0:0:
192,192,108115,1,0,0:0:0:0:
64,192,108173,1,0,0:0:0:0:
320,192,108173,1,0,0:0:0:0:
448,192,108173,1,0,0:0:0:0:
192,192,108231,1,0,0:0:0:0:
64,192,108289,1,0,0:0:0:0:
448,192,108347,1,0,0:0:0:0:
320,192,108405,1,0,0:0:0:0:
64,192,108405,1,0,0:0:0:0:
192,192,108463,1,0,0:0:0:0:
64,192,108522,1,0,0:0:0:0:
320,192,108522,1,0,0:0:0:0:
448,192,108522,1,0,0:0:0:0:
192,192,108580,1,0,0:0:0:0:
448,192,108638,1,0,0:0:0:0:
320,192,108638,1,0,0:0:0:0:
64,192,108696,1,0,0:0:0:0:
192,192,108754,1,0,0:0:0:0:
448,192,108754,1,0,0:0:0:0:
320,192,108812,1,0,0:0:0:0:
64,192,108870,1,0,0:0:0:0:
448,192,108870,1,0,0:0:0:0:
192,192,108870,1,0,0:0:0:0:
320,192,108929,1,0,0:0:0:0:
192,192,108987,1,0,0:0:0:0:
64,192,108987,1,0,0:0:0:0:
320,192,109045,1,0,0:0:0:0:
448,192,109103,1,0,0:0:0:0:
64,192,109103,1,0,0:0:0:0:
192,192,109161,1,0,0:0:0:0:
320,192,109219,1,0,0:0:0:0:
448,192,109219,1,0,0:0:0:0:
64,192,109277,1,0,0:0:0:0:
192,192,109335,1,0,0:0:0:0:
448,192,109335,1,0,0:0:0:0:
320,192,109394,1,0,0:0:0:0:
192,192,109452,1,0,0:0:0:0:
448,192,109452,1,0,0:0:0:0:
64,192,109510,1,0,0:0:0:0:
448,192,109568,1,0,0:0:0:0:
320,192,109568,1,0,0:0:0:0:
192,192,109626,1,0,0:0:0:0:
64,192,109684,1,0,0:0:0:0:
320,192,109684,1,0,0:0:0:0:
448,192,109742,1,0,0:0:0:0:
192,192,109801,1,0,0:0:0:0:
64,192,109801,1,0,0:0:0:0:
320,192,109859,1,0,0:0:0:0:
448,192,109917,1,0,0:0:0:0:
64,192,109917,1,0,0:0:0:0:
320,192,109975,1,0,0:0:0:0:
192,192,110033,1,0,0:0:0:0:
64,192,110033,1,0,0:0:0:0:
448,192,110091,1,0,0:0:0:0:
320,192,110149,1,0,0:0:0:0:
64,192,110149,1,0,0:0:0:0:
192,192,110208,1,0,0:0:0:0:
320,192,110266,1,0,0:0:0:0:
448,192,110266,1,0,0:0:0:0:
64,192,110324,1,0,0:0:0:0:
192,192,110382,1,0,0:0:0:0:
448,192,110382,1,0,0:0:0:0:
320,192,110440,1,0,0:0:0:0:
192,192,110498,1,0,0:0:0:0:
64,192,110498,1,0,0:0:0:0:
320,192,110556,1,0,0:0:0:0:
448,192,110615,1,0,0:0:0:0:
64,192,110615,1,0,0:0:0:0:
192,192,110673,1,0,0:0:0:0:
64,192,110731,1,0,0:0:0:0:
320,192,110731,1,0,0:0:0:0:
448,192,110789,1,0,0:0:0:0:
192,192,110847,1,0,0:0:0:0:
64,192,110847,1,0,0:0:0:0:
320,192,110905,1,0,0:0:0:0:
448,192,110963,1,0,0:0:0:0:
192,192,110963,1,0,0:0:0:0:
64,192,111022,1,0,0:0:0:0:
320,192,111080,1,0,0:0:0:0:
448,192,111080,1,0,0:0:0:0:
192,192,111138,1,0,0:0:0:0:
64,192,111196,1,0,0:0:0:0:
448,192,111196,1,0,0:0:0:0:
192,192,111254,1,0,0:0:0:0:
320,192,111312,1,0,0:0:0:0:
448,192,111312,1,0,0:0:0:0:
192,192,111370,1,0,0:0:0:0:
64,192,111429,1,0,0:0:0:0:
320,192,111429,1,0,0:0:0:0:
448,192,111487,1,0,0:0:0:0:
192,192,111545,1,0,0:0:0:0:
64,192,111545,1,0,0:0:0:0:
448,192,111603,1,0,0:0:0:0:
320,192,111661,1,0,0:0:0:0:
64,192,111661,1,0,0:0:0:0:
448,192,111719,1,0,0:0:0:0:
192,192,111777,1,0,0:0:0:0:
64,192,111777,1,0,0:0:0:0:
320,192,111835,1,0,0:0:0:0:
448,192,111894,1,0,0:0:0:0:
64,192,111894,1,0,0:0:0:0:
192,192,111952,1,0,0:0:0:0:
320,192,112010,1,0,0:0:0:0:
448,192,112010,1,0,0:0:0:0:
64,192,112068,1,0,0:0:0:0:
192,192,112126,1,0,0:0:0:0:
448,192,112126,1,0,0:0:0:0:
320,192,112184,1,0,0:0:0:0:
192,192,112242,1,0,0:0:0:0:
64,192,112242,1,0,0:0:0:0:
448,192,112301,1,0,0:0:0:0:
320,192,112359,1,0,0:0:0:0:
64,192,112359,1,0,0:0:0:0:
192,192,112417,1,0,0:0:0:0:
64,192,112475,1,0,0:0:0:0:
448,192,112475,1,0,0:0:0:0:
320,192,112533,1,0,0:0:0:0:
192,192,112591,1,0,0:0:0:0:
448,192,112591,1,0,0:0:0:0:
64,192,112649,1,0,0:0:0:0:
320,192,112708,1,0,0:0:0:0:
448,192,112708,1,0,0:0:0:0:
64,192,112766,1,0,0:0:0:0:
192,192,112824,1,0,0:0:0:0:
448,192,112824,1,0,0:0:0:0:
320,192,112882,1,0,0:0:0:0:
192,192,112940,1,0,0:0:0:0:
64,192,112940,1,0,0:0:0:0:
320,192,112998,1,0,0:0:0:0:
448,192,113056,1,0,0:0:0:0:
64,192,113056,1,0,0:0:0:0:
192,192,113115,1,0,0:0:0:0:
320,192,113173,1,0,0:0:0:0:
448,192,113173,1,0,0:0:0:0:
64,192,113231,1,0,0:0:0:0:
192,192,113289,1,0,0:0:0:0:
320,192,113289,1,0,0:0:0:0:
448,192,113347,1,0,0:0:0:0:
192,192,113405,1,0,0:0:0:0:
64,192,113405,1,0,0:0:0:0:
320,192,113463,1,0,0:0:0:0:
448,192,113522,1,0,0:0:0:0:
64,192,113522,1,0,0:0:0:0:
320,192,113580,1,0,0:0:0:0:
192,192,113609,1,0,0:0:0:0:
64,192,113638,1,0,0:0:0:0:
448,192,113638,1,0,0:0:0:0:
320,192,113667,1,0,0:0:0:0:
192,192,113696,1,0,0:0:0:0:
64,192,113725,1,0,0:0:0:0:
448,192,113725,1,0,0:0:0:0:
320,192,113754,1,0,0:0:0:0:
192,192,113812,1,0,0:0:0:0:
64,192,113870,1,0,0:0:0:0:
448,192,113870,1,0,0:0:0:0:
320,192,113929,1,0,0:0:0:0:
192,192,113987,1,0,0:0:0:0:
64,192,113987,1,0,0:0:0:0:
320,192,114045,1,0,0:0:0:0:
448,192,114103,1,0,0:0:0:0:
64,192,114103,1,0,0:0:0:0:
320,192,114161,1,0,0:0:0:0:
64,192,114219,1,0,0:0:0:0:
192,192,114219,1,0,0:0:0:0:
448,192,114277,1,0,0:0:0:0:
320,192,114335,1,0,0:0:0:0:
192,192,114335,1,0,0:0:0:0:
64,192,114394,1,0,0:0:0:0:
320,192,114452,1,0,0:0:0:0:
448,192,114452,1,0,0:0:0:0:
192,192,114510,1,0,0:0:0:0:
64,192,114568,1,0,0:0:0:0:
448,192,114568,1,0,0:0:0:0:
192,192,114626,1,0,0:0:0:0:
320,192,114684,1,0,0:0:0:0:
448,192,114684,1,0,0:0:0:0:
64,192,114742,1,0,0:0:0:0:
192,192,114801,1,0,0:0:0:0:
448,192,114801,1,0,0:0:0:0:
320,192,114859,1,0,0:0:0:0:
192,192,114917,1,0,0:0:0:0:
64,192,114917,1,0,0:0:0:0:
448,192,114975,1,0,0:0:0:0:
320,192,115033,1,0,0:0:0:0:
64,192,115033,1,0,0:0:0:0:
448,192,115091,1,0,0:0:0:0:
192,192,115149,1,0,0:0:0:0:
64,192,115149,1,0,0:0:0:0:
320,192,115208,1,0,0:0:0:0:
448,192,115266,1,0,0:0:0:0:
64,192,115266,1,0,0:0:0:0:
192,192,115324,1,0,0:0:0:0:
320,192,115382,1,0,0:0:0:0:
448,192,115382,1,0,0:0:0:0:
192,192,115440,1,0,0:0:0:0:
64,192,115498,1,0,0:0:0:0:
448,192,115498,1,0,0:0:0:0:
192,192,115556,1,0,0:0:0:0:
320,192,115615,1,0,0:0:0:0:
448,192,115615,1,0,0:0:0:0:
64,192,115673,1,0,0:0:0:0:
192,192,115731,1,0,0:0:0:0:
320,192,115731,1,0,0:0:0:0:
448,192,115789,1,0,0:0:0:0:
64,192,115847,1,0,0:0:0:0:
192,192,115847,1,0,0:0:0:0:
320,192,115905,1,0,0:0:0:0:
64,192,115963,1,0,0:0:0:0:
448,192,115963,1,0,0:0:0:0:
320,192,116022,1,0,0:0:0:0:
192,192,116080,1,0,0:0:0:0:
64,192,116080,1,0,0:0:0:0:
320,192,116138,1,0,0:0:0:0:
192,192,116196,1,0,0:0:0:0:
448,192,116196,1,0,0:0:0:0:
64,192,116254,1,0,0:0:0:0:
448,192,116312,1,0,0:0:0:0:
320,192,116312,1,0,0:0:0:0:
192,192,116370,1,0,0:0:0:0:
320,192,116429,1,0,0:0:0:0:
448,192,116429,1,0,0:0:0:0:
64,192,116487,1,0,0:0:0:0:
192,192,116545,1,0,0:0:0:0:
448,192,116545,1,0,0:0:0:0:
320,192,116603,1,0,0:0:0:0:
192,192,116661,1,0,0:0:0:0:
64,192,116661,1,0,0:0:0:0:
320,192,116719,1,0,0:0:0:0:
448,192,116777,1,0,0:0:0:0:
64,192,116777,1,0,0:0:0:0:
192,192,116835,1,0,0:0:0:0:
320,192,116894,1,0,0:0:0:0:
448,192,116894,1,0,0:0:0:0:
64,192,116952,1,0,0:0:0:0:
192,192,117010,1,0,0:0:0:0:
320,192,117010,1,0,0:0:0:0:
448,192,117068,1,0,0:0:0:0:
192,192,117126,1,0,0:0:0:0:
64,192,117126,1,0,0:0:0:0:
320,192,117184,1,0,0:0:0:0:
448,192,117242,1,0,0:0:0:0:
192,192,117242,1,0,0:0:0:0:
64,192,117242,1,0,0:0:0:0:
320,192,117301,1,0,0:0:0:0:
64,192,117359,1,0,0:0:0:0:
448,192,117359,1,0,0:0:0:0:
192,192,117417,1,0,0:0:0:0:
320,192,117475,1,0,0:0:0:0:
448,192,117475,1,0,0:0:0:0:
64,192,117475,1,0,0:0:0:0:
192,192,117533,1,0,0:0:0:0:
64,192,117591,1,0,0:0:0:0:
320,192,117591,1,0,0:0:0:0:
448,192,117591,1,0,0:0:0:0:
192,192,117649,1,0,0:0:0:0:
320,192,117708,1,0,0:0:0:0:
448,192,117708,1,0,0:0:0:0:
64,192,117766,1,0,0:0:0:0:
192,192,117824,1,0,0:0:0:0:
448,192,117824,1,0,0:0:0:0:
320,192,117824,1,0,0:0:0:0:
64,192,117882,1,0,0:0:0:0:
448,192,117940,1,0,0:0:0:0:
320,192,117940,1,0,0:0:0:0:
64,192,117998,1,0,0:0:0:0:
192,192,117998,1,0,0:0:0:0:
448,192,118056,1,0,0:0:0:0:
320,192,118056,1,0,0:0:0:0:
192,192,118115,1,0,0:0:0:0:
64,192,118173,1,0,0:0:0:0:
448,192,118173,1,0,0:0:0:0:
320,192,118173,1,0,0:0:0:0:
192,192,118231,1,0,0:0:0:0:
64,192,118289,1,0,0:0:0:0:
448,192,118289,1,0,0:0:0:0:
320,192,118289,1,0,0:0:0:0:
192,192,118347,1,0,0:0:0:0:
448,192,118405,1,0,0:0:0:0:
64,192,118405,1,0,0:0:0:0:
320,192,118463,1,0,0:0:0:0:
192,192,118522,1,0,0:0:0:0:
448,192,118522,1,0,0:0:0:0:
64,192,118580,1,0,0:0:0:0:
320,192,118638,1,0,0:0:0:0:
448,192,118638,1,0,0:0:0:0:
192,192,118638,1,0,0:0:0:0:
64,192,118696,1,0,0:0:0:0:
320,192,118754,1,0,0:0:0:0:
448,192,118754,1,0,0:0:0:0:
192,192,118812,1,0,0:0:0:0:
64,192,118870,1,0,0:0:0:0:
448,192,118870,1,0,0:0:0:0:
320,192,118929,1,0,0:0:0:0:
192,192,118987,1,0,0:0:0:0:
64,192,118987,1,0,0:0:0:0:
448,192,118987,1,0,0:0:0:0:
320,192,119045,1,0,0:0:0:0:
64,192,119103,1,0,0:0:0:0:
192,192,119103,1,0,0:0:0:0:
448,192,119161,1,0,0:0:0:0:
320,192,119219,1,0,0:0:0:0:
64,192,119219,1,0,0:0:0:0:
192,192,119277,1,0,0:0:0:0:
320,192,119335,1,0,0:0:0:0:
448,192,119335,1,0,0:0:0:0:
64,192,119335,1,0,0:0:0:0:
192,192,119394,1,0,0:0:0:0:
320,192,119452,1,0,0:0:0:0:
448,192,119452,1,0,0:0:0:0:
64,192,119510,1,0,0:0:0:0:
192,192,119568,1,0,0:0:0:0:
448,192,119568,1,0,0:0:0:0:
320,192,119626,1,0,0:0:0:0:
192,192,119684,1,0,0:0:0:0:
64,192,119684,1,0,0:0:0:0:
448,192,119684,1,0,0:0:0:0:
320,192,119742,1,0,0:0:0:0:
64,192,119801,1,0,0:0:0:0:
448,192,119801,1,0,0:0:0:0:
192,192,119859,1,0,0:0:0:0:
320,192,119917,1,0,0:0:0:0:
64,192,119917,1,0,0:0:0:0:
448,192,119975,1,0,0:0:0:0:
320,192,120033,1,0,0:0:0:0:
192,192,120033,1,0,0:0:0:0:
64,192,120033,1,0,0:0:0:0:
448,192,120091,1,0,0:0:0:0:
192,192,120149,1,0,0:0:0:0:
64,192,120149,1,0,0:0:0:0:
320,192,120208,1,0,0:0:0:0:
64,192,120266,1,0,0:0:0:0:
448,192,120266,1,0,0:0:0:0:
192,192,120324,1,0,0:0:0:0:
320,192,120382,1,0,0:0:0:0:
448,192,120382,1,0,0:0:0:0:
64,192,120440,1,0,0:0:0:0:
192,192,120498,1,0,0:0:0:0:
448,192,120498,1,0,0:0:0:0:
320,192,120556,1,0,0:0:0:0:
192,192,120615,1,0,0:0:0:0:
64,192,120615,1,0,0:0:0:0:
320,192,120673,1,0,0:0:0:0:
448,192,120731,1,0,0:0:0:0:
64,192,120731,1,0,0:0:0:0:
192,192,120789,1,0,0:0:0:0:
320,192,120847,1,0,0:0:0:0:
64,192,120847,1,0,0:0:0:0:
448,192,120905,1,0,0:0:0:0:
192,192,120963,1,0,0:0:0:0:
320,192,120963,1,0,0:0:0:0:
64,192,121022,1,0,0:0:0:0:
192,192,121080,1,0,0:0:0:0:
448,192,121080,1,0,0:0:0:0:
320,192,121138,1,0,0:0:0:0:
64,192,121196,1,0,0:0:0:0:
448,192,121196,1,0,0:0:0:0:
192,192,121254,1,0,0:0:0:0:
320,192,121312,1,0,0:0:0:0:
448,192,121312,1,0,0:0:0:0:
192,192,121370,1,0,0:0:0:0:
64,192,121429,1,0,0:0:0:0:
448,192,121429,1,0,0:0:0:0:
320,192,121487,1,0,0:0:0:0:
192,192,121545,1,0,0:0:0:0:
64,192,121545,1,0,0:0:0:0:
320,192,121603,1,0,0:0:0:0:
448,192,121661,1,0,0:0:0:0:
64,192,121661,1,0,0:0:0:0:
320,192,121719,1,0,0:0:0:0:
192,192,121777,1,0,0:0:0:0:
64,192,121777,1,0,0:0:0:0:
448,192,121835,1,0,0:0:0:0:
320,192,121894,1,0,0:0:0:0:
64,192,121894,1,0,0:0:0:0:
192,192,121952,1,0,0:0:0:0:
320,192,122010,1,0,0:0:0:0:
448,192,122010,1,0,0:0:0:0:
192,192,122068,1,0,0:0:0:0:
64,192,122126,1,0,0:0:0:0:
448,192,122126,1,0,0:0:0:0:
192,192,122184,1,0,0:0:0:0:
320,192,122242,1,0,0:0:0:0:
448,192,122242,1,0,0:0:0:0:
64,192,122301,1,0,0:0:0:0:
192,192,122359,1,0,0:0:0:0:
320,192,122359,1,0,0:0:0:0:
448,192,122417,1,0,0:0:0:0:
192,192,122475,1,0,0:0:0:0:
64,192,122475,1,0,0:0:0:0:
320,192,122533,1,0,0:0:0:0:
448,192,122591,1,0,0:0:0:0:
64,192,122591,1,0,0:0:0:0:
320,192,122649,1,0,0:0:0:0:
192,192,122708,1,0,0:0:0:0:
448,192,122708,1,0,0:0:0:0:
64,192,122766,1,0,0:0:0:0:
320,192,122824,1,0,0:0:0:0:
192,192,122824,1,0,0:0:0:0:
448,192,122882,1,0,0:0:0:0:
64,192,122940,1,0,0:0:0:0:
320,192,122940,1,0,0:0:0:0:
192,192,122998,1,0,0:0:0:0:
64,192,123056,1,0,0:0:0:0:
448,192,123056,1,0,0:0:0:0:
192,192,123115,1,0,0:0:0:0:
320,192,123173,1,0,0:0:0:0:
448,192,123173,1,0,0:0:0:0:
64,192,123231,1,0,0:0:0:0:
192,192,123289,1,0,0:0:0:0:
448,192,123289,1,0,0:0:0:0:
320,192,123347,1,0,0:0:0:0:
192,192,123405,1,0,0:0:0:0:
64,192,123405,1,0,0:0:0:0:
448,192,123463,1,0,0:0:0:0:
320,192,123522,1,0,0:0:0:0:
64,192,123522,1,0,0:0:0:0:
192,192,123580,1,0,0:0:0:0:
448,192,123638,1,0,0:0:0:0:
64,192,123638,1,0,0:0:0:0:
320,192,123696,1,0,0:0:0:0:
192,192,123754,1,0,0:0:0:0:
64,192,123754,1,0,0:0:0:0:
448,192,123812,1,0,0:0:0:0:
320,192,123870,1,0,0:0:0:0:
192,192,123870,1,0,0:0:0:0:
64,192,123929,1,0,0:0:0:0:
448,192,123987,1,0,0:0:0:0:
320,192,123987,1,0,0:0:0:0:
64,192,124045,1,0,0:0:0:0:
192,192,124103,1,0,0:0:0:0:
448,192,124103,1,0,0:0:0:0:
320,192,124161,1,0,0:0:0:0:
64,192,124219,1,0,0:0:0:0:
448,192,124219,1,0,0:0:0:0:
192,192,124277,1,0,0:0:0:0:
320,192,124335,1,0,0:0:0:0:
448,192,124335,1,0,0:0:0:0:
192,192,124394,1,0,0:0:0:0:
64,192,124452,1,0,0:0:0:0:
448,192,124452,1,0,0:0:0:0:
320,192,124510,1,0,0:0:0:0:
192,192,124568,1,0,0:0:0:0:
64,192,124568,1,0,0:0:0:0:
448,192,124626,1,0,0:0:0:0:
320,192,124684,1,0,0:0:0:0:
64,192,124684,1,0,0:0:0:0:
192,192,124742,1,0,0:0:0:0:
448,192,124772,1,0,0:0:0:0:
320,192,124801,1,0,0:0:0:0:
192,192,124830,1,0,0:0:0:0:
64,192,124830,1,0,0:0:0:0:
448,192,124859,1,0,0:0:0:0:
320,192,124888,1,0,0:0:0:0:
192,192,124917,1,0,0:0:0:0:
64,192,124917,1,0,0:0:0:0:
448,192,124975,1,0,0:0:0:0:
192,192,125033,1,0,0:0:0:0:
64,192,125033,1,0,0:0:0:0:
320,192,125091,1,0,0:0:0:0:
448,192,125149,1,0,0:0:0:0:
64,192,125149,1,0,0:0:0:0:
192,192,125208,1,0,0:0:0:0:
320,192,125266,1,0,0:0:0:0:
448,192,125266,1,0,0:0:0:0:
64,192,125324,1,0,0:0:0:0:
320,192,125382,1,0,0:0:0:0:
448,192,125382,1,0,0:0:0:0:
192,192,125440,1,0,0:0:0:0:
64,192,125498,1,0,0:0:0:0:
448,192,125498,1,0,0:0:0:0:
320,192,125556,1,0,0:0:0:0:
192,192,125615,1,0,0:0:0:0:
64,192,125615,1,0,0:0:0:0:
448,192,125615,1,0,0:0:0:0:
320,192,125673,1,0,0:0:0:0:
192,192,125731,1,0,0:0:0:0:
64,192,125731,1,0,0:0:0:0:
448,192,125789,1,0,0:0:0:0:
320,192,125847,1,0,0:0:0:0:
64,192,125847,1,0,0:0:0:0:
192,192,125905,1,0,0:0:0:0:
64,192,125963,1,0,0:0:0:0:
320,192,125963,1,0,0:0:0:0:
448,192,126022,1,0,0:0:0:0:
64,192,126080,1,0,0:0:0:0:
192,192,126080,1,0,0:0:0:0:
320,192,126138,1,0,0:0:0:0:
448,192,126196,1,0,0:0:0:0:
64,192,126196,1,0,0:0:0:0:
192,192,126254,1,0,0:0:0:0:
320,192,126312,1,0,0:0:0:0:
448,192,126312,1,0,0:0:0:0:
192,192,126370,1,0,0:0:0:0:
64,192,126429,1,0,0:0:0:0:
448,192,126429,1,0,0:0:0:0:
320,192,126487,1,0,0:0:0:0:
192,192,126545,1,0,0:0:0:0:
448,192,126545,1,0,0:0:0:0:
64,192,126603,1,0,0:0:0:0:
320,192,126661,1,0,0:0:0:0:
192,192,126661,1,0,0:0:0:0:
448,192,126719,1,0,0:0:0:0:
320,192,126777,1,0,0:0:0:0:
64,192,126777,1,0,0:0:0:0:
192,192,126835,1,0,0:0:0:0:
448,192,126894,1,0,0:0:0:0:
64,192,126894,1,0,0:0:0:0:
320,192,126952,1,0,0:0:0:0:
192,192,127010,1,0,0:0:0:0:
448,192,127010,1,0,0:0:0:0:
64,192,127068,1,0,0:0:0:0:
320,192,127126,1,0,0:0:0:0:
448,192,127126,1,0,0:0:0:0:
192,192,127184,1,0,0:0:0:0:
64,192,127242,1,0,0:0:0:0:
448,192,127242,1,0,0:0:0:0:
320,192,127301,1,0,0:0:0:0:
192,192,127359,1,0,0:0:0:0:
64,192,127359,1,0,0:0:0:0:
320,192,127417,1,0,0:0:0:0:
448,192,127475,1,0,0:0:0:0:
64,192,127475,1,0,0:0:0:0:
320,192,127533,1,0,0:0:0:0:
192,192,127591,1,0,0:0:0:0:
64,192,127591,1,0,0:0:0:0:
448,192,127649,1,0,0:0:0:0:
320,192,127708,1,0,0:0:0:0:
64,192,127708,1,0,0:0:0:0:
192,192,127766,1,0,0:0:0:0:
320,192,127824,1,0,0:0:0:0:
448,192,127824,1,0,0:0:0:0:
192,192,127882,1,0,0:0:0:0:
64,192,127940,1,0,0:0:0:0:
448,192,127940,1,0,0:0:0:0:
192,192,127998,1,0,0:0:0:0:
320,192,128056,1,0,0:0:0:0:
448,192,128056,1,0,0:0:0:0:
64,192,128115,1,0,0:0:0:0:
192,192,128173,1,0,0:0:0:0:
448,192,128173,1,0,0:0:0:0:
320,192,128231,1,0,0:0:0:0:
192,192,128289,1,0,0:0:0:0:
64,192,128289,1,0,0:0:0:0:
448,192,128347,1,0,0:0:0:0:
320,192,128405,1,0,0:0:0:0:
64,192,128405,1,0,0:0:0:0:
192,192,128463,1,0,0:0:0:0:
64,192,128522,1,0,0:0:0:0:
448,192,128522,1,0,0:0:0:0:
320,192,128580,1,0,0:0:0:0:
192,192,128638,1,0,0:0:0:0:
64,192,128638,1,0,0:0:0:0:
320,192,128696,1,0,0:0:0:0:
448,192,128754,1,0,0:0:0:0:
192,192,128754,1,0,0:0:0:0:
64,192,128812,1,0,0:0:0:0:
320,192,128870,1,0,0:0:0:0:
448,192,128870,1,0,0:0:0:0:
192,192,128929,1,0,0:0:0:0:
64,192,128987,1,0,0:0:0:0:
448,192,128987,1,0,0:0:0:0:
192,192,129045,1,0,0:0:0:0:
320,192,129103,1,0,0:0:0:0:
448,192,129103,1,0,0:0:0:0:
64,192,129161,1,0,0:0:0:0:
192,192,129219,1,0,0:0:0:0:
320,192,129219,1,0,0:0:0:0:
448,192,129277,1,0,0:0:0:0:
192,192,129335,1,0,0:0:0:0:
64,192,129335,1,0,0:0:0:0:
448,192,129394,1,0,0:0:0:0:
320,192,129452,1,0,0:0:0:0:
64,192,129452,1,0,0:0:0:0:
192,192,129510,1,0,0:0:0:0:
320,192,129568,1,0,0:0:0:0:
448,192,129568,1,0,0:0:0:0:
64,192,129626,1,0,0:0:0:0:
192,192,129684,1,0,0:0:0:0:
448,192,129684,1,0,0:0:0:0:
320,192,129742,1,0,0:0:0:0:
192,192,129801,1,0,0:0:0:0:
64,192,129801,1,0,0:0:0:0:
320,192,129859,1,0,0:0:0:0:
448,192,129917,1,0,0:0:0:0:
64,192,129917,1,0,0:0:0:0:
192,192,129975,1,0,0:0:0:0:
320,192,130033,1,0,0:0:0:0:
448,192,130033,1,0,0:0:0:0:
64,192,130091,1,0,0:0:0:0:
192,192,130149,1,0,0:0:0:0:
448,192,130149,1,0,0:0:0:0:
320,192,130208,1,0,0:0:0:0:
192,192,130266,1,0,0:0:0:0:
64,192,130266,1,0,0:0:0:0:
448,192,130324,1,0,0:0:0:0:
320,192,130382,1,0,0:0:0:0:
64,192,130382,1,0,0:0:0:0:
192,192,130440,1,0,0:0:0:0:
448,192,130498,1,0,0:0:0:0:
64,192,130498,1,0,0:0:0:0:
320,192,130556,1,0,0:0:0:0:
192,192,130615,1,0,0:0:0:0:
448,192,130615,1,0,0:0:0:0:
64,192,130673,1,0,0:0:0:0:
192,192,130731,1,0,0:0:0:0:
320,192,130731,1,0,0:0:0:0:
448,192,130789,1,0,0:0:0:0:
320,192,130847,1,0,0:0:0:0:
64,192,130847,1,0,0:0:0:0:
192,192,130905,1,0,0:0:0:0:
320,192,130963,1,0,0:0:0:0:
448,192,130963,1,0,0:0:0:0:
192,192,131022,1,0,0:0:0:0:
64,192,131080,1,0,0:0:0:0:
448,192,131080,1,0,0:0:0:0:
320,192,131138,1,0,0:0:0:0:
192,192,131196,1,0,0:0:0:0:
64,192,131196,1,0,0:0:0:0:
448,192,131196,1,0,0:0:0:0:
320,192,131254,1,0,0:0:0:0:
64,192,131312,1,0,0:0:0:0:
192,192,131312,1,0,0:0:0:0:
448,192,131370,1,0,0:0:0:0:
320,192,131429,1,0,0:0:0:0:
64,192,131429,1,0,0:0:0:0:
192,192,131487,1,0,0:0:0:0:
320,192,131545,1,0,0:0:0:0:
448,192,131545,1,0,0:0:0:0:
192,192,131603,1,0,0:0:0:0:
64,192,131661,1,0,0:0:0:0:
448,192,131661,1,0,0:0:0:0:
320,192,131719,1,0,0:0:0:0:
448,192,131777,1,0,0:0:0:0:
192,192,131777,1,0,0:0:0:0:
64,192,131835,1,0,0:0:0:0:
320,192,131894,1,0,0:0:0:0:
448,192,131894,1,0,0:0:0:0:
192,192,131952,1,0,0:0:0:0:
64,192,132010,1,0,0:0:0:0:
320,192,132010,1,0,0:0:0:0:
192,192,132068,1,0,0:0:0:0:
448,192,132126,1,0,0:0:0:0:
320,192,132126,1,0,0:0:0:0:
64,192,132184,1,0,0:0:0:0:
448,192,132242,1,0,0:0:0:0:
192,192,132242,1,0,0:0:0:0:
320,192,132301,1,0,0:0:0:0:
192,192,132359,1,0,0:0:0:0:
64,192,132359,1,0,0:0:0:0:
320,192,132417,1,0,0:0:0:0:
448,192,132475,1,0,0:0:0:0:
64,192,132475,1,0,0:0:0:0:
320,192,132533,1,0,0:0:0:0:
192,192,132591,1,0,0:0:0:0:
64,192,132591,1,0,0:0:0:0:
448,192,132649,1,0,0:0:0:0:
320,192,132708,1,0,0:0:0:0:
192,192,132708,1,0,0:0:0:0:
64,192,132766,1,0,0:0:0:0:
320,192,132824,1,0,0:0:0:0:
448,192,132824,1,0,0:0:0:0:
192,192,132882,1,0,0:0:0:0:
64,192,132940,1,0,0:0:0:0:
320,192,132940,1,0,0:0:0:0:
448,192,132998,1,0,0:0:0:0:
192,192,133056,1,0,0:0:0:0:
64,192,133056,1,0,0:0:0:0:
448,192,133115,1,0,0:0:0:0:
320,192,133173,1,0,0:0:0:0:
64,192,133173,1,0,0:0:0:0:
192,192,133231,1,0,0:0:0:0:
320,192,133289,1,0,0:0:0:0:
448,192,133289,1,0,0:0:0:0:
64,192,133347,1,0,0:0:0:0:
192,192,133405,1,0,0:0:0:0:
448,192,133405,1,0,0:0:0:0:
320,192,133463,1,0,0:0:0:0:
192,192,133522,1,0,0:0:0:0:
64,192,133522,1,0,0:0:0:0:
448,192,133580,1,0,0:0:0:0:
64,192,133638,1,0,0:0:0:0:
192,192,133638,1,0,0:0:0:0:
320,192,133696,1,0,0:0:0:0:
448,192,133754,1,0,0:0:0:0:
64,192,133754,1,0,0:0:0:0:
192,192,133812,1,0,0:0:0:0:
320,192,133870,1,0,0:0:0:0:
448,192,133870,1,0,0:0:0:0:
64,192,133929,1,0,0:0:0:0:
192,192,133987,1,0,0:0:0:0:
320,192,133987,1,0,0:0:0:0:
448,192,133987,1,0,0:0:0:0:
64,192,134045,1,0,0:0:0:0:
320,192,134103,1,0,0:0:0:0:
448,192,134103,1,0,0:0:0:0:
192,192,134161,1,0,0:0:0:0:
64,192,134219,1,0,0:0:0:0:
448,192,134219,1,0,0:0:0:0:
320,192,134277,1,0,0:0:0:0:
192,192,134335,1,0,0:0:0:0:
64,192,134335,1,0,0:0:0:0:
448,192,134394,1,0,0:0:0:0:
320,192,134452,1,0,0:0:0:0:
64,192,134452,1,0,0:0:0:0:
192,192,134510,1,0,0:0:0:0:
320,192,134568,1,0,0:0:0:0:
448,192,134568,1,0,0:0:0:0:
64,192,134626,1,0,0:0:0:0:
192,192,134684,1,0,0:0:0:0:
448,192,134684,1,0,0:0:0:0:
320,192,134742,1,0,0:0:0:0:
64,192,134801,1,0,0:0:0:0:
448,192,134801,1,0,0:0:0:0:
192,192,134859,1,0,0:0:0:0:
320,192,134917,1,0,0:0:0:0:
64,192,134917,1,0,0:0:0:0:
448,192,134975,1,0,0:0:0:0:
192,192,135033,1,0,0:0:0:0:
64,192,135033,1,0,0:0:0:0:
320,192,135091,1,0,0:0:0:0:
448,192,135149,1,0,0:0:0:0:
64,192,135149,1,0,0:0:0:0:
192,192,135208,1,0,0:0:0:0:
320,192,135266,1,0,0:0:0:0:
448,192,135266,1,0,0:0:0:0:
64,192,135324,1,0,0:0:0:0:
320,192,135382,1,0,0:0:0:0:
448,192,135382,1,0,0:0:0:0:
192,192,135440,1,0,0:0:0:0:
64,192,135498,1,0,0:0:0:0:
448,192,135498,1,0,0:0:0:0:
192,192,135556,1,0,0:0:0:0:
320,192,135615,1,0,0:0:0:0:
448,192,135615,1,0,0:0:0:0:
192,192,135673,1,0,0:0:0:0:
64,192,135731,1,0,0:0:0:0:
448,192,135731,1,0,0:0:0:0:
320,192,135789,1,0,0:0:0:0:
192,192,135847,1,0,0:0:0:0:
64,192,135847,1,0,0:0:0:0:
320,192,135905,1,0,0:0:0:0:
448,192,135963,1,0,0:0:0:0:
64,192,135963,1,0,0:0:0:0:
320,192,136022,1,0,0:0:0:0:
192,192,136080,1,0,0:0:0:0:
64,192,136080,1,0,0:0:0:0:
448,192,136138,1,0,0:0:0:0:
320,192,136196,1,0,0:0:0:0:
64,192,136196,1,0,0:0:0:0:
192,192,136254,1,0,0:0:0:0:
320,192,136312,1,0,0:0:0:0:
448,192,136312,1,0,0:0:0:0:
64,192,136370,1,0,0:0:0:0:
192,192,136429,1,0,0:0:0:0:
448,192,136429,1,0,0:0:0:0:
320,192,136487,1,0,0:0:0:0:
192,192,136545,1,0,0:0:0:0:
64,192,136545,1,0,0:0:0:0:
448,192,136603,1,0,0:0:0:0:
320,192,136661,1,0,0:0:0:0:
64,192,136661,1,0,0:0:0:0:
192,192,136719,1,0,0:0:0:0:
320,192,136777,1,0,0:0:0:0:
448,192,136777,1,0,0:0:0:0:
64,192,136777,1,0,0:0:0:0:
192,192,136835,1,0,0:0:0:0:
320,192,136894,1,0,0:0:0:0:
448,192,136894,1,0,0:0:0:0:
64,192,136952,1,0,0:0:0:0:
192,192,137010,1,0,0:0:0:0:
448,192,137010,1,0,0:0:0:0:
320,192,137068,1,0,0:0:0:0:
192,192,137126,1,0,0:0:0:0:
64,192,137126,1,0,0:0:0:0:
448,192,137126,1,0,0:0:0:0:
320,192,137184,1,0,0:0:0:0:
64,192,137242,1,0,0:0:0:0:
448,192,137242,1,0,0:0:0:0:
192,192,137301,1,0,0:0:0:0:
320,192,137359,1,0,0:0:0:0:
448,192,137359,1,0,0:0:0:0:
192,192,137417,1,0,0:0:0:0:
64,192,137475,1,0,0:0:0:0:
320,192,137475,1,0,0:0:0:0:
448,192,137475,1,0,0:0:0:0:
192,192,137533,1,0,0:0:0:0:
64,192,137591,1,0,0:0:0:0:
320,192,137591,1,0,0:0:0:0:
448,192,137649,1,0,0:0:0:0:
320,192,137708,1,0,0:0:0:0:
192,192,137708,1,0,0:0:0:0:
64,192,137766,1,0,0:0:0:0:
192,192,137824,1,0,0:0:0:0:
320,192,137824,1,0,0:0:0:0:
448,192,137824,1,0,0:0:0:0:
64,192,137882,1,0,0:0:0:0:
320,192,137940,1,0,0:0:0:0:
448,192,137940,1,0,0:0:0:0:
192,192,137998,1,0,0:0:0:0:
64,192,138056,1,0,0:0:0:0:
448,192,138056,1,0,0:0:0:0:
320,192,138115,1,0,0:0:0:0:
192,192,138173,1,0,0:0:0:0:
64,192,138173,1,0,0:0:0:0:
320,192,138231,1,0,0:0:0:0:
448,192,138231,1,0,0:0:0:0:
192,192,138289,1,0,0:0:0:0:
64,192,138289,1,0,0:0:0:0:
320,192,138347,1,0,0:0:0:0:
448,192,138347,1,0,0:0:0:0:
192,192,138405,1,0,0:0:0:0:
64,192,138405,1,0,0:0:0:0:
320,192,138463,1,0,0:0:0:0:
448,192,138463,1,0,0:0:0:0:
192,192,138522,1,0,0:0:0:0:
64,192,138522,1,0,0:0:0:0:
448,192,138580,1,0,0:0:0:0:
320,192,138580,1,0,0:0:0:0:
64,192,138638,1,0,0:0:0:0:
192,192,138638,1,0,0:0:0:0:
320,192,138696,1,0,0:0:0:0:
448,192,138696,1,0,0:0:0:0:
64,192,138754,1,0,0:0:0:0:
192,192,138754,1,0,0:0:0:0:
320,192,138812,1,0,0:0:0:0:
448,192,138812,1,0,0:0:0:0:
192,192,138870,1,0,0:0:0:0:
64,192,138870,1,0,0:0:0:0:
320,192,138929,1,0,0:0:0:0:
448,192,138929,1,0,0:0:0:0:
192,192,138987,1,0,0:0:0:0:
64,192,138987,1,0,0:0:0:0:
320,192,139045,1,0,0:0:0:0:
448,192,139045,1,0,0:0:0:0:
64,192,139103,1,0,0:0:0:0:
192,192,139103,1,0,0:0:0:0:
320,192,139161,1,0,0:0:0:0:
448,192,139161,1,0,0:0:0:0:
192,192,139219,1,0,0:0:0:0:
64,192,139219,1,0,0:0:0:0:
320,192,139277,1,0,0:0:0:0:
448,192,139277,1,0,0:0:0:0:
64,192,139335,1,0,0:0:0:0:
192,192,139335,1,0,0:0:0:0:
448,192,139394,1,0,0:0:0:0:
320,192,139394,1,0,0:0:0:0:
64,192,139452,1,0,0:0:0:0:
192,192,139452,1,0,0:0:0:0:
320,192,139510,1,0,0:0:0:0:
448,192,139510,1,0,0:0:0:0:
64,192,139568,1,0,0:0:0:0:
192,192,139568,1,0,0:0:0:0:
320,192,139612,1,0,0:0:0:0:
448,192,139655,1,0,0:0:0:0:
64,192,139699,1,0,0:0:0:0:
192,192,139742,1,0,0:0:0:0:
448,192,139786,1,0,0:0:0:0:
64,192,139830,1,0,0:0:0:0:
320,192,139873,1,0,0:0:0:0:
448,192,139917,1,0,0:0:0:0:
192,192,139917,1,0,0:0:0:0:
64,192,139960,1,0,0:0:0:0:
320,192,140004,1,0,0:0:0:0:
192,192,140048,1,0,0:0:0:0:
448,192,140091,1,0,0:0:0:0:
320,192,140135,1,0,0:0:0:0:
192,192,140179,1,0,0:0:0:0:
64,192,140222,1,0,0:0:0:0:
320,192,140266,1,0,0:0:0:0:
448,192,140266,1,0,0:0:0:0:
192,192,140309,1,0,0:0:0:0:
64,192,140353,1,0,0:0:0:0:
320,192,140397,1,0,0:0:0:0:
192,192,140440,1,0,0:0:0:0:
448,192,140440,1,0,0:0:0:0:
320,192,140484,1,0,0:0:0:0:
64,192,140527,1,0,0:0:0:0:
192,192,140571,1,0,0:0:0:0:
320,192,140615,1,0,0:0:0:0:
448,192,140615,1,0,0:0:0:0:
192,192,140658,1,0,0:0:0:0:
64,192,140702,1,0,0:0:0:0:
448,192,140745,1,0,0:0:0:0:
320,192,140789,1,0,0:0:0:0:
192,192,140789,1,0,0:0:0:0:
64,192,140833,1,0,0:0:0:0:
448,192,140876,1,0,0:0:0:0:
320,192,140920,1,0,0:0:0:0:
64,192,140963,1,0,0:0:0:0:
192,192,140963,1,0,0:0:0:0:
448,192,140963,1,0,0:0:0:0:
320,192,141080,1,0,0:0:0:0:
64,192,141080,1,0,0:0:0:0:
448,192,141196,1,0,0:0:0:0:
192,192,141196,1,0,0:0:0:0:
64,192,141312,1,0,0:0:0:0:
192,192,141312,1,0,0:0:0:0:
320,192,141312,1,0,0:0:0:0:
448,192,141312,1,0,0:0:0:0:
320,192,141429,1,0,0:0:0:0:
192,192,141429,1,0,0:0:0:0:
64,192,141545,1,0,0:0:0:0:
448,192,141545,1,0,0:0:0:0:
64,192,141661,1,0,0:0:0:0:
192,192,141661,1,0,0:0:0:0:
320,192,141661,1,0,0:0:0:0:
448,192,141661,1,0,0:0:0:0:
192,192,141777,1,0,0:0:0:0:
64,192,141777,1,0,0:0:0:0:
320,192,141894,1,0,0:0:0:0:
448,192,141894,1,0,0:0:0:0:
64,192,142010,1,0,0:0:0:0:
192,192,142010,1,0,0:0:0:0:
320,192,142010,1,0,0:0:0:0:
448,192,142010,1,0,0:0:0:0:
320,192,142126,1,0,0:0:0:0:
64,192,142126,1,0,0:0:0:0:
192,192,142242,1,0,0:0:0:0:
448,192,142242,1,0,0:0:0:0:
