osu file format v5

[General]
AudioFilename: pizza_cats.mp3
AudioLeadIn: 0
PreviewTime: -1
Countdown: 0
SampleSet: Normal
EditorBookmarks: 9396,9957,10331,11812,18173,19296,20418,30147,31457,32766,38940,39876,40624,41373,55982,56917,63091,65336,71884,74317,85152,86274

[Metadata]
Title:Samurai Pizza Cats Theme
Artist:
Creator:Mifune24
Version:Cheese

[Difficulty]
HPDrainRate:4
CircleSize:5
OverallDifficulty:5
SliderMultiplier:1.4
SliderTickRate:1

[Events]
//Background and Video events
1,412,"7b2777a03ebe7cc4c4ced52c110f4434.avi"
//Break Periods
//Storyboard Layer 0 (Background)
//Storyboard Layer 1 (Failing)
//Storyboard Layer 2 (Passing)
//Storyboard Layer 3 (Foreground)
//Storyboard Sound Samples
//Background Colour Transformations
3,100,163,162,255

[TimingPoints]
6200,374.181478016838,4,1,0,60

[Colours]
Combo1 : 255,0,128
Combo2 : 5,240,5
Combo3 : 5,5,240
Combo4 : 192,192,192

[HitObjects]
209,62,6200,5,0
209,62,6387,1,0
209,62,6574,1,0
301,62,6948,1,0
301,62,7135,1,0
301,62,7322,1,0
256,192,8257,5,0
256,192,8445,1,0
159,257,9380,6,0,B|254:321|365:254,1,210
449,194,10315,2,0,B|448:138|430:78|368:61|327:38|263:36|203:30|148:50|97:67|64:98|59:111|57:204,1,560
160,192,12186,5,0
160,192,12373,1,0
160,192,12561,1,0
256,192,12935,1,0
256,192,13122,1,0
256,192,13309,1,0
352,192,14244,5,0
352,192,14431,1,0
256,96,15180,5,2
256,192,15554,1,2
256,288,15928,1,2
384,288,16677,1,2
384,192,17051,1,2
384,96,17425,1,2
288,128,18173,6,0,B|256:64|160:96|160:192|256:224|320:224|320:320|288:352|224:352|160:288,2,420
352,160,20605,5,2
352,160,20793,1,2
352,256,21167,5,0
192,256,21728,1,0
448,352,22663,1,0
288,352,23225,1,0
224,224,23973,6,0,L|224:64|224:32|320:32|320:128|256:128,2,420
320,256,26592,5,0
320,256,26779,1,0
320,352,27154,5,2
192,352,27902,1,2
192,224,28650,1,2
320,224,29399,1,2
288,64,30147,6,0,L|192:64|192:256|288:256|288:160|256:160,2,490
352,192,33234,5,0
224,192,33702,1,0
224,192,34076,1,0
128,288,34637,2,0,B|256:320|288:320|352:320|480:288,1,350
192,96,36134,5,0
288,160,36508,1,0
192,224,36882,1,0
288,288,37257,1,0
63,66,38940,6,0,B|160:33|259:19|386:61|428:73,1,350
384,161,40624,2,0,B|256:222|102:156,1,280
128,288,42121,5,0
224,288,42495,1,0
320,288,42869,1,0
416,288,43243,1,0
384,192,43618,2,4,B|224:192,3,140
256,256,45114,5,0
256,128,45489,1,0
256,0,45863,1,0
352,32,46237,2,4,B|352:192,3,140
160,192,47734,5,2
128,96,48108,1,2
64,192,48482,1,2
32,96,48856,1,2
320,192,50727,5,0
416,192,51101,1,0
352,96,51475,1,0
448,96,51850,1,0
160,192,53908,6,0,B|288:160|384:192,1,210
320,256,54843,1,0
256,256,55030,1,0
192,256,55217,1,0
416,192,57369,6,0,B|32:192,1,350
160,288,58959,1,4
256,288,59333,1,4
256,288,59520,1,4
352,288,59895,1,4
64,256,60830,5,0
256,160,61578,1,0
448,64,62327,1,0
128,64,63075,5,2
64,160,63449,1,2
128,256,63823,1,2
224,320,64198,1,2
320,320,64572,1,2
416,256,64946,1,2
480,160,65320,1,2
320,128,65881,6,0,B|256:64|224:64|160:128|128:224|224:288|256:288|352:224,2,420
416,320,68688,5,0
416,320,69062,2,0,B|192:320,1,210
128,320,69997,1,0
128,320,70185,1,0
96,224,70559,1,0
128,128,70933,1,0
96,32,71307,1,0
320,64,72055,5,0
416,128,72430,1,0
384,224,72804,1,0
480,288,73178,1,0
384,352,73552,1,0
288,288,73926,1,0
192,352,74301,1,0
256,224,75049,5,0
160,256,75423,1,0
64,224,75797,1,0
32,128,76171,1,0
64,32,76546,1,0
160,64,76920,1,0
192,160,77294,1,0
384,192,78042,5,2
384,192,78229,1,2
384,192,78417,1,2
416,288,78791,1,2
416,288,78978,1,2
416,288,79165,1,2
320,352,79539,2,2,B|32:352,1,280
256,192,81036,5,0
256,192,81410,1,0
256,192,81784,1,0
256,192,82158,1,0
256,64,82533,2,0,L|96:64|256:384|416:64|288:64,1,980
256,192,86274,12,4,88894
