osu file format v14

[General]
AudioFilename: CALENDAR GIRL12.mp3
AudioLeadIn: 0
PreviewTime: 57718
Countdown: 0
SampleSet: Soft
StackLeniency: 0.7
Mode: 0
LetterboxInBreaks: 1
WidescreenStoryboard: 1

[Editor]
DistanceSpacing: 2
BeatDivisor: 4
GridSize: 4
TimelineZoom: 1

[Metadata]
Title:Sakura no Door wo
TitleUnicode:桜のドアを
Artist:petit milady
ArtistUnicode:petit milady
Creator:Rizia
Version:wkyik
Source:
Tags:CALENDAR GIRL kawaiwkyik wkyik
BeatmapID:1049652
BeatmapSetID:492742

[Difficulty]
HPDrainRate:7
CircleSize:4
OverallDifficulty:8
ApproachRate:9
SliderMultiplier:1.7
SliderTickRate:1

[Events]
//Background and Video events
0,0,"bg123.jpg",0,0
//Break Periods
2,79821,84476
2,142549,147203
2,178003,182658
//Storyboard Layer 0 (Background)
//Storyboard Layer 1 (Fail)
//Storyboard Layer 2 (Pass)
//Storyboard Layer 3 (Foreground)
//Storyboard Sound Samples

[TimingPoints]
531,340.909090909091,4,2,1,20,1,0
531,-133.333333333333,4,2,1,20,0,0
5985,-133.333333333333,4,2,1,40,0,0
9053,-133.333333333333,4,2,1,40,0,0
9394,-133.333333333333,4,2,1,50,0,0
9735,-133.333333333333,4,2,1,60,0,0
9906,-133.333333333333,4,2,1,70,0,0
11099,-133.333333333333,4,2,1,50,0,0
11440,-100,4,2,1,70,0,0
44167,-133.333333333333,4,2,1,70,0,0
52349,-100,4,2,1,70,0,0
57803,-100,4,2,1,70,0,1
68031,-100,4,2,1,30,0,0
68201,-100,4,2,1,40,0,0
68371,-100,4,2,1,50,0,0
68542,-100,4,2,1,60,0,0
68712,-100,4,2,1,70,0,1
79621,-100,4,2,1,70,0,0
106894,-133.333333333333,4,2,1,70,0,0
115076,-100,4,2,1,70,0,0
120531,-100,4,2,1,70,0,1
130758,-100,4,2,1,30,0,0
130928,-100,4,2,1,40,0,0
131099,-100,4,2,1,50,0,0
131269,-100,4,2,1,60,0,0
131440,-100,4,2,1,70,0,1
140815,-100,4,2,1,70,0,0
149167,-125,4,2,1,70,0,0
150531,-100,4,2,1,70,0,0
151894,-125,4,2,1,70,0,0
153258,-100,4,2,1,70,0,0
164167,-133.333333333333,4,2,1,70,0,0
169621,-100,4,2,1,70,0,0
173542,-142.857142857143,4,2,1,70,0,0
175076,-142.857142857143,4,2,1,20,0,0
177803,-142.857142857143,4,3,99,30,0,0
183258,-200,4,2,1,70,0,0
185985,-133.333333333333,4,2,1,70,0,0
186326,-133.333333333333,4,2,1,50,0,0
186667,-133.333333333333,4,2,1,60,0,0
187008,-133.333333333333,4,2,1,70,0,0
188371,-83.3333333333333,4,2,1,70,0,0
188627,-83.3333333333333,4,2,1,5,0,0
188712,-100,4,2,1,70,0,1
199621,-100,4,2,1,70,0,0
211212,-100,4,2,1,50,0,0
211894,-100,4,2,1,45,0,0
212576,-100,4,2,1,40,0,0
213258,-100,4,2,1,35,0,0
213940,-100,4,2,1,30,0,0
214621,-100,4,2,1,25,0,0
215303,-100,4,2,1,20,0,0
215985,-100,4,2,1,15,0,0
216667,-100,4,2,1,10,0,0
217349,-100,4,2,1,5,0,0

[Colours]
Combo1 : 255,128,192
Combo2 : 255,128,128
Combo3 : 255,0,0
Combo4 : 255,255,0

[HitObjects]
80,112,531,5,2,0:0:0:0:
152,152,701,1,0,0:0:0:0:
224,112,871,2,0,P|232:64|236:20,1,63.7500024318696,2|0,0:0|0:0,0:0:0:0:
300,140,1212,2,0,P|308:188|332:276,1,127.500004863739,2|0,0:0|0:0,0:0:0:0:
264,212,1724,6,0,P|218:194|130:171,2,127.500004863739,2|2|2,0:0|0:0|0:0,0:0:0:0:
40,328,2746,2,0,L|32:264,1,63.7500024318696,2|0,0:0|0:0,0:0:0:0:
32,264,3087,1,0,0:0:0:0:
136,356,3258,6,0,L|128:292,1,63.7500024318696,2|0,0:0|0:0,0:0:0:0:
224,160,3599,1,2,0:0:0:0:
176,228,3769,1,0,0:0:0:0:
104,272,3940,2,0,P|164:280|256:296,1,127.500004863739,2|0,0:0|0:0,0:0:0:0:
332,236,4451,6,0,P|269:246|205:255,2,127.500004863739,2|2|2,0:0|0:0|0:0,0:0:0:0:
420,252,5303,2,0,P|452:288|356:300,1,191.250007295609
336,152,5985,5,4,0:0:0:0:
96,272,7349,1,4,0:0:0:0:
212,64,8712,6,0,L|204:156,1,63.7500024318696,4|0,0:0|0:0,0:0:0:0:
196,232,9053,1,8,0:0:0:0:
356,192,9224,1,8,0:0:0:0:
120,168,9394,1,8,0:0:0:0:
180,352,9565,1,8,0:0:0:0:
320,96,9735,1,8,0:0:0:0:
44,280,9906,1,8,0:0:0:0:
44,280,10928,5,0,0:0:0:0:
180,352,11099,2,0,P|220:340|284:344,1,95.6250036478044,8|0,0:0|0:0,0:0:0:0:
352,360,11440,6,0,P|360:312|364:272,1,85,4|0,0:0|0:0,0:0:0:0:
256,136,11781,2,0,P|260:178|267:220,1,85,10|0,0:0|0:0,0:0:0:0:
388,284,12121,2,0,P|429:276|472:272,1,85,2|0,0:0|0:0,0:0:0:0:
348,172,12462,1,8,0:0:0:0:
232,344,12633,6,0,P|224:284|216:164,1,170,2|0,0:0|0:0,0:0:0:0:
276,52,13144,1,8,0:0:0:0:
100,104,13315,1,2,0:0:0:0:
100,104,13400,1,0,0:0:0:0:
100,104,13485,2,0,P|144:98|192:96,1,85
364,88,13826,1,8,0:0:0:0:
260,192,13996,1,0,0:0:0:0:
452,224,14167,6,0,P|416:192|284:208,1,170,4|10,0:0|0:0,0:0:0:0:
204,272,14678,1,0,0:0:0:0:
364,272,14849,2,0,P|360:324|352:372,1,85,2|0,0:0|0:0,0:0:0:0:
280,168,15190,1,8,0:0:0:0:
176,300,15360,6,0,P|124:296|76:288,1,85,2|0,0:0|0:0,0:0:0:0:
176,168,15701,1,2,0:0:0:0:
260,356,15871,1,8,0:0:0:0:
16,332,16042,2,0,P|4:292|84:204,1,170,2|0,0:0|0:0,0:0:0:0:
296,152,16553,1,10,0:0:0:0:
176,300,16724,1,0,0:0:0:0:
176,300,16809,1,0,0:0:0:0:
176,300,16894,6,0,P|236:288|364:272,1,170,4|8,0:0|0:0,0:0:0:0:
420,112,17406,1,2,0:0:0:0:
300,176,17576,1,2,0:0:0:0:
272,44,17746,1,0,0:0:0:0:
396,196,17917,1,8,0:0:0:0:
224,120,18087,6,0,P|196:160|208:300,1,170,2|2,0:0|0:0,0:0:0:0:
372,280,18599,2,0,P|324:264|260:280,1,85,10|0,0:0|0:0,0:0:0:0:
160,364,18940,2,0,P|76:374|2:335,1,170,2|8,0:0|0:0,0:0:0:0:
120,140,19451,1,0,0:0:0:0:
180,252,19621,6,0,P|224:248|280:240,1,85,4|0,0:0|0:0,0:0:0:0:
344,92,19962,1,8,0:0:0:0:
240,220,20133,1,0,0:0:0:0:
424,232,20303,1,8,0:0:0:0:
232,136,20474,1,8,0:3:0:0:
312,332,20644,1,8,0:3:0:0:
496,204,20815,6,0,P|428:216|320:232,1,170,4|0,0:0|0:0,0:0:0:0:
124,192,21326,1,0,0:0:0:0:
192,374,21496,2,0,B|228:338|228:338|240:220,1,170,4|8,0:0|0:3,0:0:0:0:
252,88,22008,1,4,0:3:0:0:
252,88,22349,6,0,P|208:108|148:8,1,170,4|8,0:0|0:0,0:0:0:0:
344,60,22860,2,0,P|340:112|320:168,1,85
168,212,23201,2,0,P|215:189|273:178,1,85,0|8,0:0|0:0,0:0:0:0:
388,296,23542,2,0,P|344:266|306:221,1,85
420,208,23883,5,0,0:0:0:0:
304,348,24053,1,8,0:0:0:0:
192,240,24224,1,0,0:0:0:0:
192,240,24309,1,8,0:0:0:0:
192,240,24394,2,0,P|132:252|80:268,1,85
184,96,24735,2,0,P|225:106|266:114,1,85,8|0,0:0|0:0,0:0:0:0:
88,148,25076,6,0,P|76:92|148:-4,1,170,0|8,0:0|0:0,0:0:0:0:
288,112,25587,2,0,L|276:216,1,85
192,240,25928,1,0,0:0:0:0:
184,96,26099,1,8,0:0:0:0:
368,196,26269,2,0,P|356:236|332:284,1,85
168,208,26610,5,0,0:0:0:0:
312,92,26781,1,8,0:0:0:0:
248,316,26951,1,0,0:0:0:0:
248,316,27036,1,8,0:0:0:0:
248,316,27121,2,0,P|206:323|163:325,1,85
8,240,27462,2,0,P|49:232|92:230,1,85,8|0,0:0|0:0,0:0:0:0:
163,325,27803,5,0,0:0:0:0:
104,152,27974,1,0,0:0:0:0:
56,312,28144,1,8,0:0:0:0:
248,228,28315,2,0,P|296:240|328:280,1,85
416,356,28656,2,0,P|408:304|404:252,1,85,0|8,0:0|0:0,0:0:0:0:
464,172,28996,6,0,P|436:208|312:220,1,170
304,32,29508,1,8,0:0:0:0:
284,144,29678,1,0,0:0:0:0:
284,144,29763,1,8,0:0:0:0:
284,144,29849,2,0,P|324:140|372:124,1,85
208,72,30190,1,8,0:0:0:0:
316,244,30360,6,0,P|272:228|140:220,1,170
12,88,30871,1,8,0:0:0:0:
88,144,31042,1,0,0:0:0:0:
128,32,31212,1,0,0:0:0:0:
64,232,31383,1,0,0:0:0:0:
228,168,31553,1,8,0:0:0:0:
360,308,31724,6,0,B|400:280|392:232|392:232|368:124,1,170
176,252,32235,2,0,L|292:268,1,85,8|0,0:0|0:0,0:0:0:0:
260,263,32491,1,0,0:0:0:0:
260,263,32576,1,0,0:0:0:0:
120,360,32746,2,0,L|108:300,1,42.5,8|8,0:0|0:0,0:0:0:0:
96,156,32917,2,0,L|104:197,1,42.5,8|8,0:0|0:0,0:0:0:0:
0,280,33087,2,0,L|36:257,1,42.5,8|8,0:0|0:0,0:0:0:0:
192,128,33258,6,0,P|148:136|28:68,1,170,4|8,0:0|0:0,0:0:0:0:
276,64,33769,2,0,P|320:60|368:52,1,85
428,164,34110,1,0,0:0:0:0:
360,53,34281,1,8,0:0:0:0:
288,176,34451,6,0,P|244:172|196:164,1,85
312,292,34792,2,0,P|353:285|396:281,1,85,0|8,0:0|0:0,0:0:0:0:
196,356,35133,1,0,0:0:0:0:
196,356,35218,1,8,0:0:0:0:
196,356,35303,2,0,P|189:314|185:271,1,85
288,176,35644,2,0,P|284:218|277:260,1,85,8|0,0:0|0:0,0:0:0:0:
80,284,35985,5,0,0:0:0:0:
156,184,36156,1,0,0:0:0:0:
184,336,36326,1,8,0:0:0:0:
64,200,36496,5,0,0:0:0:0:
228,256,36667,1,0,0:0:0:0:
192,80,36837,1,0,0:0:0:0:
156,184,37008,1,8,0:0:0:0:
300,140,37178,6,0,B|348:120|348:120|392:164|476:152,1,170
424,60,37690,1,8,0:0:0:0:
372,236,37860,1,0,0:0:0:0:
372,236,37945,1,8,0:0:0:0:
372,236,38031,2,0,P|412:244|476:244,1,85
308,312,38371,2,0,P|268:304|204:304,1,85,8|0,0:0|0:0,0:0:0:0:
40,312,38712,5,0,0:0:0:0:
200,200,38883,1,0,0:0:0:0:
68,168,39053,1,8,0:0:0:0:
224,329,39224,2,0,P|266:321|308:312,1,85
272,140,39565,2,0,P|257:179|245:220,1,85,0|8,0:0|0:0,0:0:0:0:
408,272,39906,2,0,P|380:239|351:208,1,85
240,128,40246,5,0,0:0:0:0:
388,60,40417,1,8,0:0:0:0:
328,216,40587,1,0,0:0:0:0:
328,216,40673,1,8,0:0:0:0:
328,216,40758,1,0,0:0:0:0:
200,92,40928,1,0,0:0:0:0:
132,264,41099,2,0,P|84:260|40:252,1,85,8|0,0:0|0:0,0:0:0:0:
196,352,41440,6,0,P|232:304|212:192,1,170,4|8,0:0|0:0,0:0:0:0:
40,72,41951,1,0,0:0:0:0:
24,296,42121,2,0,L|44:204,1,85,8|0,0:0|0:0,0:0:0:0:
124,48,42462,1,0,0:0:0:0:
300,240,42633,6,0,L|131:263,1,170,4|0,0:0|0:0,0:0:0:0:
252,328,43144,2,0,L|340:336,1,85
452,340,43485,1,0,0:0:0:0:
300,240,43656,1,0,0:0:0:0:
504,200,43826,1,8,0:3:0:0:
284,16,44167,6,0,L|292:160,1,127.500004863739,4|2,0:0|0:0,0:0:0:0:
180,168,44678,1,0,0:0:0:0:
236,248,44849,2,0,L|300:240,2,63.7500024318696,8|0|2,0:0|0:0|0:0,0:0:0:0:
120,264,45360,5,0,0:0:0:0:
120,264,45531,1,0,0:0:0:0:
180,168,45701,1,8,0:0:0:0:
196,320,45871,2,0,P|164:348|124:368,1,63.7500024318696,2|0,0:0|0:0,0:0:0:0:
44,208,46212,2,0,P|76:180|116:160,1,63.7500024318696,8|0,0:0|0:0,0:0:0:0:
236,248,46553,2,0,P|276:264|372:252,1,127.500004863739,2|4,0:0|0:0,0:0:0:0:
240,76,47235,5,2,0:0:0:0:
156,44,47406,1,0,0:0:0:0:
156,44,47576,2,0,L|20:56,1,127.500004863739,8|2,0:0|0:0,0:0:0:0:
220,112,48087,2,0,L|283:106,1,63.7500024318696
392,24,48428,2,0,L|328:29,1,63.7500024318696,8|2,0:0|0:0,0:0:0:0:
448,96,48769,1,0,0:0:0:0:
372,160,48940,2,0,L|360:287,1,127.500004863739,8|8,0:0|0:3,0:0:0:0:
151,287,49621,6,0,L|140:160,1,127.500004863739,4|2,0:0|0:0,0:0:0:0:
140,160,50133,1,0,0:0:0:0:
278,90,50303,2,0,P|251:107|220:112,1,63.7500024318696,8|0,0:0|0:0,0:0:0:0:
136,52,50644,1,2,0:0:0:0:
81,138,50815,6,0,P|112:143|140:160,1,63.7500024318696
244,256,51156,2,0,P|232:226|233:194,1,63.7500024318696,8|2,0:0|0:0,0:0:0:0:
320,212,51496,1,0,0:0:0:0:
272,340,51667,2,0,L|200:336,1,63.7500024318696,8|0,0:0|0:0,0:0:0:0:
124,280,52008,2,0,L|60:283,1,63.7500024318696,8|0,0:0|0:0,0:0:0:0:
220,172,52349,6,0,B|160:192|160:192|28:168,1,170,4|8,0:0|0:0,0:0:0:0:
208,272,52860,1,2,0:0:0:0:
152,88,53031,1,0,0:0:0:0:
32,260,53201,2,0,P|72:248|115:243,1,85,2|8,0:0|0:0,0:0:0:0:
205,88,53542,2,0,P|214:129|219:172,1,85,2|0,0:0|0:0,0:0:0:0:
144,344,53883,5,0,0:0:0:0:
288,228,54053,1,8,0:0:0:0:
356,352,54224,1,2,0:0:0:0:
356,352,54309,1,8,0:0:0:0:
356,352,54394,1,2,0:0:0:0:
208,272,54565,1,2,0:0:0:0:
408,220,54735,1,12,0:0:0:0:
200,140,54906,1,0,0:0:0:0:
424,84,55076,5,4,0:0:0:0:
288,228,55246,1,8,0:0:0:0:
212,40,55417,1,8,0:0:0:0:
384,176,55587,5,4,0:0:0:0:
164,124,55758,1,8,0:0:0:0:
328,312,55928,1,8,0:0:0:0:
280,104,56099,5,8,0:0:0:0:
92,228,56269,2,0,P|64:192|60:64,1,170,4|8,0:0|0:3,0:0:0:0:
216,208,56781,5,8,0:3:0:0:
184,324,56951,1,8,0:3:0:0:
344,224,57121,2,0,L|332:128,1,85,2|0,0:0|0:0,0:0:0:0:
448,304,57462,1,8,0:0:0:0:
448,304,57803,6,0,P|388:324|340:320,1,85,4|0,0:0|0:0,0:0:0:0:
216,208,58144,1,10,0:0:0:0:
272,368,58315,1,0,0:0:0:0:
132,160,58485,1,2,0:0:0:0:
56,320,58656,1,2,0:0:0:0:
240,212,58826,1,8,0:0:0:0:
52,140,58996,6,0,P|76:100|192:100,1,170,2|2,0:0|0:0,0:0:0:0:
352,116,59508,1,10,0:0:0:0:
240,212,59678,1,0,0:0:0:0:
240,212,59763,1,0,0:0:0:0:
240,212,59849,2,0,P|184:208|128:200,1,85,2|0,0:0|0:0,0:0:0:0:
332,128,60190,1,8,0:0:0:0:
356,308,60360,1,0,0:0:0:0:
224,196,60531,6,0,P|212:264|204:380,1,170,4|10,0:0|0:0,0:0:0:0:
380,220,61042,1,0,0:0:0:0:
380,220,61127,1,0,0:0:0:0:
380,220,61212,1,2,0:0:0:0:
264,328,61383,2,0,P|216:324|152:316,1,85,2|8,0:0|0:0,0:0:0:0:
20,248,61724,6,0,P|36:196|148:168,1,170,2|2,0:0|0:0,0:0:0:0:
328,136,62235,1,8,0:0:0:0:
216,256,62406,2,0,L|224:200,1,42.5,2|0,0:0|0:0,0:0:0:0:
240,116,62576,1,0,0:0:0:0:
308,324,62746,1,2,0:0:0:0:
136,240,62917,2,0,P|140:304|148:356,1,85,10|0,0:0|0:0,0:0:0:0:
368,248,63258,6,0,P|376:192|388:72,1,170,4|8,0:0|0:0,0:0:0:0:
208,92,63769,1,2,0:0:0:0:
284,192,63940,2,0,P|236:196|196:204,1,85,2|0,0:0|0:0,0:0:0:0:
80,124,64281,1,10,0:0:0:0:
76,312,64451,2,0,P|96:268|109:229,1,85,2|0,0:0|0:0,0:0:0:0:
80,124,64792,5,2,0:0:0:0:
184,284,64962,2,0,P|204:327|217:366,1,85,10|0,0:0|0:0,0:0:0:0:
296,168,65303,2,0,P|302:126|314:85,1,85,2|0,0:0|0:0,0:0:0:0:
424,32,65644,1,8,0:0:0:0:
380,220,65815,1,0,0:0:0:0:
228,100,65985,6,0,B|184:120|184:120|64:104,1,170,4|8,0:0|0:0,0:0:0:0:
88,204,66496,1,2,0:0:0:0:
88,204,66582,1,0,0:0:0:0:
88,204,66667,1,0,0:0:0:0:
168,32,66837,1,2,0:0:0:0:
292,188,67008,1,8,0:0:0:0:
152,132,67178,6,0,P|128:176|136:304,1,170,4|2,0:0|0:0,0:0:0:0:
344,360,67690,1,8,0:0:0:0:
216,224,67860,1,2,0:0:0:0:
236,376,68031,2,0,L|244:324,1,42.5,12|8,0:0|0:0,0:0:0:0:
304,216,68201,1,8,0:0:0:0:
333,200,68286,1,8,0:0:0:0:
367,196,68371,1,8,0:0:0:0:
400,204,68456,1,8,0:0:0:0:
427,224,68541,1,8,0:0:0:0:
446,252,68627,1,8,0:0:0:0:
453,285,68712,6,0,P|464:196|484:88,1,170,4|10,0:0|0:0,0:0:0:0:
344,24,69224,1,0,0:0:0:0:
216,224,69394,1,2,0:0:0:0:
232,96,69565,1,2,0:0:0:0:
288,312,69735,1,8,0:0:0:0:
112,188,69906,6,0,B|72:216|72:216|52:352,1,170,2|2,0:0|0:0,0:0:0:0:
216,304,70417,1,8,0:0:0:0:
276,156,70587,1,2,0:0:0:0:
276,156,70673,1,0,0:0:0:0:
276,156,70758,2,0,L|268:68,1,85
112,188,71099,1,8,0:0:0:0:
316,232,71269,1,2,0:0:0:0:
71,312,71440,6,0,P|98:279|138:267,1,85,4|0,0:0|0:0,0:0:0:0:
372,344,71781,2,0,P|330:337|296:312,1,85,10|0,0:0|0:0,0:0:0:0:
208,208,72121,1,2,0:0:0:0:
240,380,72292,1,2,0:0:0:0:
276,156,72462,1,8,0:0:0:0:
144,272,72633,6,0,P|88:268|-28:248,1,170,4|2,0:0|0:0,0:0:0:0:
156,144,73144,1,8,0:0:0:0:
288,312,73315,1,2,0:0:0:0:
288,312,73400,1,0,0:0:0:0:
288,312,73485,2,0,P|296:256|300:208,1,85,0|2,0:0|0:0,0:0:0:0:
188,88,73826,2,0,P|192:130|198:172,1,85,10|0,0:0|0:0,0:0:0:0:
372,308,74167,6,0,P|340:252|232:252,1,170,4|8,0:0|0:0,0:0:0:0:
64,196,74678,1,2,0:0:0:0:
64,196,74763,1,0,0:0:0:0:
64,196,74849,1,2,0:0:0:0:
200,344,75019,1,0,0:0:0:0:
164,208,75190,1,8,0:0:0:0:
20,324,75360,6,0,B|80:308|80:308|116:324|116:324|200:304,1,170,2|0,0:0|0:0,0:0:0:0:
336,184,75871,1,10,0:0:0:0:
208,272,76042,1,2,0:0:0:0:
208,272,76127,1,0,0:0:0:0:
208,272,76212,1,2,0:0:0:0:
400,296,76383,1,0,0:0:0:0:
248,180,76553,1,8,0:0:0:0:
428,116,76724,1,2,0:0:0:0:
288,264,76894,6,0,P|240:272|152:184,1,170,4|8,0:0|0:0,0:0:0:0:
152,96,77406,1,2,0:0:0:0:
248,180,77576,1,4,0:3:0:0:
52,228,77746,1,10,0:3:0:0:
116,84,77917,1,8,0:3:0:0:
348,144,78087,1,4,0:0:0:0:
348,144,78428,5,8,0:0:0:0:
284,264,78599,1,8,0:0:0:0:
228,96,78769,1,8,0:0:0:0:
376,240,78940,1,8,0:0:0:0:
220,340,79110,1,8,0:0:0:0:
187,350,79195,1,8,0:0:0:0:
153,351,79280,1,8,0:0:0:0:
121,343,79365,1,8,0:0:0:0:
92,325,79450,1,8,0:0:0:0:
69,300,79536,1,8,0:0:0:0:
53,270,79621,5,4,0:0:0:0:
88,104,85076,5,4,0:0:0:0:
172,148,85246,2,0,P|212:144|260:136,1,85,0|8,0:0|0:0,0:0:0:0:
168,56,85587,1,0,0:0:0:0:
96,200,85758,1,0,0:0:0:0:
248,260,85928,2,0,P|264:223|276:173,1,85,0|8,0:0|0:0,0:0:0:0:
80,244,86269,2,0,P|89:285|107:324,1,85
340,264,86610,5,0,0:0:0:0:
168,232,86781,1,8,0:0:0:0:
320,368,86951,1,0,0:0:0:0:
320,368,87036,1,0,0:0:0:0:
320,368,87121,2,0,P|368:364|412:356,1,85
508,212,87462,2,0,P|466:204|423:201,1,85,8|0,0:0|0:0,0:0:0:0:
280,192,87803,6,0,P|268:152|336:32,1,170,0|8,0:0|0:0,0:0:0:0:
180,84,88315,2,0,L|88:96,1,85
28,216,88656,1,0,0:0:0:0:
80,84,88826,1,8,0:0:0:0:
176,172,88996,6,0,L|260:161,1,85
396,212,89337,2,0,L|344:144,1,85,0|8,0:0|0:0,0:0:0:0:
316,0,89678,1,0,0:0:0:0:
316,0,89763,1,8,0:0:0:0:
316,0,89849,2,0,L|283:78,1,85
300,232,90190,2,0,P|260:256|216:256,1,85,8|0,0:0|0:0,0:0:0:0:
32,248,90531,5,0,0:0:0:0:
176,172,90701,1,0,0:0:0:0:
128,320,90871,1,8,0:0:0:0:
12,200,91042,6,0,P|4:158|2:115,1,85
176,45,91383,2,0,P|163:86|156:128,1,85,0|8,0:0|0:0,0:0:0:0:
304,128,91724,2,0,P|325:91|351:57,1,85
448,176,92065,5,0,0:0:0:0:
304,224,92235,1,8,0:0:0:0:
452,264,92406,1,0,0:0:0:0:
452,264,92491,1,8,0:0:0:0:
452,264,92576,1,0,0:0:0:0:
308,312,92746,2,0,P|248:308|208:300,1,85,0|8,0:0|0:0,0:0:0:0:
76,248,93087,5,0,0:0:0:0:
192,160,93258,1,0,0:0:0:0:
120,324,93428,1,0,0:0:0:0:
4,204,93599,1,8,0:0:0:0:
188,252,93769,2,0,P|248:248|288:240,1,85
108,168,94110,1,0,0:0:0:0:
256,100,94281,1,8,0:0:0:0:
364,196,94451,6,0,P|376:252|304:344,1,170
188,252,94962,2,0,L|284:244,1,85,8|0,0:0|0:0,0:0:0:0:
272,244,95218,1,0,0:0:0:0:
272,244,95303,1,0,0:0:0:0:
396,100,95474,2,0,L|336:124,1,42.5,8|8,0:0|0:0,0:0:0:0:
260,156,95644,2,0,L|220:140,1,42.5,8|8,0:0|0:0,0:0:0:0:
112,96,95815,2,0,L|72:111,1,42.5,8|8,0:0|0:0,0:0:0:0:
8,208,95985,6,0,P|-8:256|92:344,1,170,4|8,0:0|0:0,0:0:0:0:
188,252,96496,2,0,P|184:200|176:160,1,85
80,256,96837,1,0,0:0:0:0:
132,104,97008,1,8,0:0:0:0:
272,196,97178,6,0,P|324:192|364:184,1,85
224,344,97519,2,0,P|172:340|132:332,1,85,0|8,0:0|0:0,0:0:0:0:
320,292,97860,1,0,0:0:0:0:
320,292,97945,1,8,0:0:0:0:
320,292,98031,1,0,0:0:0:0:
156,216,98201,1,0,0:0:0:0:
282,111,98371,2,0,P|280:154|272:196,1,85,8|0,0:0|0:0,0:0:0:0:
188,36,98712,5,0,0:0:0:0:
156,216,98883,1,0,0:0:0:0:
28,96,99053,1,8,0:0:0:0:
200,136,99223,5,0,0:0:0:0:
52,236,99394,1,0,0:0:0:0:
216,280,99564,1,0,0:0:0:0:
112,348,99735,1,8,0:0:0:0:
156,216,99906,6,0,B|216:192|216:192|332:236,1,170
328,376,100417,1,8,0:0:0:0:
156,216,100587,1,0,0:0:0:0:
156,216,100673,1,8,0:0:0:0:
156,216,100758,1,0,0:0:0:0:
228,336,100928,1,0,0:0:0:0:
314,229,101099,2,0,P|308:176|296:112,1,85,8|0,0:0|0:0,0:0:0:0:
60,252,101439,5,0,0:0:0:0:
200,144,101610,1,0,0:0:0:0:
228,336,101780,1,8,0:0:0:0:
32,264,101951,2,0,P|25:222|23:179,1,85
208,59,102292,2,0,P|206:102|200:144,1,85,0|8,0:0|0:0,0:0:0:0:
180,256,102633,2,0,P|221:249|264:247,1,85
384,180,102973,5,0,0:0:0:0:
200,144,103144,1,8,0:0:0:0:
348,280,103314,1,0,0:0:0:0:
348,280,103400,1,8,0:0:0:0:
348,280,103485,1,0,0:0:0:0:
364,96,103655,1,0,0:0:0:0:
200,144,103826,2,0,P|204:96|212:52,1,85,8|0,0:0|0:0,0:0:0:0:
292,216,104167,6,0,P|256:248|120:232,1,170,4|8,0:0|0:0,0:0:0:0:
200,144,104678,1,0,0:0:0:0:
288,340,104849,2,0,P|328:324|396:332,1,85,8|0,0:0|0:0,0:0:0:0:
140,246,105189,1,8,0:0:0:0:
184,372,105360,6,0,P|172:304|156:168,1,170,4|8,0:0|0:3,0:0:0:0:
264,96,105871,1,4,0:3:0:0:
68,52,106042,1,4,0:0:0:0:
160,124,106212,5,8,0:3:0:0:
180,32,106383,1,4,0:3:0:0:
92,60,106553,1,8,0:3:0:0:
376,24,106894,6,0,L|384:168,1,127.500004863739,4|2,0:0|0:0,0:0:0:0:
264,96,107405,1,0,0:0:0:0:
292,240,107576,2,0,L|300:176,2,63.7500024318696,8|0|2,0:0|0:0|0:0,0:0:0:0:
212,328,108087,5,0,0:0:0:0:
212,328,108258,1,0,0:0:0:0:
184,208,108428,1,8,0:0:0:0:
296,324,108599,2,0,P|332:320|384:304,1,63.7500024318696,2|0,0:0|0:0,0:0:0:0:
432,244,108940,2,0,P|436:208|452:156,1,63.7500024318696,8|0,0:0|0:0,0:0:0:0:
464,76,109281,2,0,P|424:96|316:88,1,127.500004863739,2|4,0:0|0:0,0:0:0:0:
72,168,109962,5,2,0:0:0:0:
128,112,110133,1,0,0:0:0:0:
128,112,110303,2,0,L|116:248,1,127.500004863739,8|2,0:0|0:0,0:0:0:0:
224,120,110814,2,0,L|218:57,1,63.7500024318696
300,188,111155,2,0,L|295:252,1,63.7500024318696,8|2,0:0|0:0,0:0:0:0:
352,84,111496,1,0,0:0:0:0:
300,188,111667,2,0,L|427:176,1,127.500004863739,8|8,0:0|0:3,0:0:0:0:
151,287,112349,6,0,L|140:160,1,127.500004863739,4|2,0:0|0:0,0:0:0:0:
140,160,112860,1,0,0:0:0:0:
180,308,113031,2,0,L|174:371,1,63.7500024318696,8|0,0:0|0:0,0:0:0:0:
100,224,113371,1,2,0:0:0:0:
31,303,113542,6,0,P|58:320|89:326,1,63.7500024318696
204,228,113883,2,0,P|205:196|194:166,1,63.7500024318696,8|2,0:0|0:0,0:0:0:0:
100,224,114223,1,0,0:0:0:0:
200,328,114394,2,0,L|280:320,1,63.7500024318696,8|0,0:0|0:0,0:0:0:0:
360,264,114735,2,0,L|423:270,1,63.7500024318696,8|0,0:0|0:0,0:0:0:0:
472,364,115076,6,0,L|302:347,1,170,4|8,0:0|0:0,0:0:0:0:
204,228,115587,1,2,0:0:0:0:
308,128,115758,1,0,0:0:0:0:
360,264,115928,2,0,P|400:256|448:240,1,85,2|8,0:0|0:0,0:0:0:0:
308,128,116269,2,0,P|299:86|286:45,1,85,2|0,0:0|0:0,0:0:0:0:
204,228,116610,5,0,0:0:0:0:
392,164,116780,1,8,0:0:0:0:
220,140,116951,1,2,0:0:0:0:
220,140,117036,1,8,0:0:0:0:
220,140,117121,1,2,0:0:0:0:
280,292,117292,1,2,0:0:0:0:
156,220,117462,1,12,0:0:0:0:
128,364,117633,1,0,0:0:0:0:
60,180,117803,5,4,0:0:0:0:
248,312,117973,1,8,0:0:0:0:
208,96,118144,1,8,0:0:0:0:
72,280,118314,5,4,0:0:0:0:
288,184,118485,1,8,0:0:0:0:
80,84,118655,1,8,0:0:0:0:
268,300,118826,5,8,0:0:0:0:
72,324,118996,2,0,P|56:276|104:156,1,170,4|0,0:0|0:0,0:0:0:0:
288,184,119508,5,8,0:3:0:0:
184,252,119678,1,8,0:3:0:0:
352,312,119848,2,0,L|436:322,1,85,2|0,0:0|0:0,0:0:0:0:
184,356,120189,1,8,0:0:0:0:
184,356,120531,6,0,P|168:308|176:256,1,85,4|0,0:0|0:0,0:0:0:0:
288,184,120871,1,10,0:0:0:0:
268,300,121042,1,0,0:0:0:0:
188,176,121212,1,2,0:0:0:0:
256,276,121383,1,2,0:0:0:0:
356,80,121553,1,8,0:0:0:0:
124,156,121724,6,0,B|188:176|188:176|308:140,1,170,2|2,0:0|0:0,0:0:0:0:
388,64,122235,1,10,0:0:0:0:
188,88,122406,1,0,0:0:0:0:
188,88,122491,1,0,0:0:0:0:
188,88,122576,2,0,P|180:32|184:-16,1,85,2|0,0:0|0:0,0:0:0:0:
352,128,122917,1,8,0:0:0:0:
196,208,123087,1,2,0:0:0:0:
300,40,123258,6,0,P|314:123|313:208,1,170,4|10,0:0|0:0,0:0:0:0:
156,196,123769,1,0,0:0:0:0:
156,196,123854,1,0,0:0:0:0:
156,196,123939,1,2,0:0:0:0:
292,312,124110,2,0,P|336:304|388:288,1,85,2|8,0:0|0:0,0:0:0:0:
192,364,124451,6,0,P|180:316|252:212,1,170,2|2,0:0|0:0,0:0:0:0:
416,108,124962,1,8,0:0:0:0:
248,124,125133,2,0,P|270:127|296:136,1,42.5,2|8,0:0|0:0,0:0:0:0:
368,204,125303,1,0,0:0:0:0:
292,32,125474,1,2,0:0:0:0:
248,216,125644,1,8,0:0:0:0:
104,112,125815,1,0,0:0:0:0:
104,112,125900,1,0,0:0:0:0:
104,112,125985,6,0,P|72:144|88:280,1,170,4|8,0:0|0:0,0:0:0:0:
224,360,126496,1,2,0:0:0:0:
224,360,126582,1,0,0:0:0:0:
224,360,126667,2,0,P|268:352|308:348,1,85,2|0,0:0|0:0,0:0:0:0:
172,272,127008,1,8,0:0:0:0:
172,272,127178,6,0,P|79:288|-4:297,1,170,2|0,0:0|0:0,0:0:0:0:
200,180,127690,2,0,P|242:175|284:167,1,85,10|0,0:0|0:0,0:0:0:0:
284,167,127945,1,0,0:0:0:0:
284,167,128031,1,0,0:0:0:0:
172,272,128201,1,2,0:0:0:0:
128,96,128371,1,8,0:0:0:0:
180,296,128542,1,2,0:0:0:0:
356,216,128712,6,0,P|372:164|300:76,1,170,4|8,0:0|0:0,0:0:0:0:
208,32,129224,1,0,0:0:0:0:
208,32,129309,1,8,0:0:0:0:
208,32,129394,2,0,P|160:52|116:48,1,85,2|2,0:0|0:0,0:0:0:0:
32,28,129735,1,8,0:0:0:0:
0,264,129906,6,0,B|24:236|16:172|16:172|28:136|80:100,1,170,4|0,0:0|0:0,0:0:0:0:
216,176,130417,2,0,P|164:184|124:192,1,85,8|0,0:0|0:0,0:0:0:0:
184,336,130758,2,0,L|192:280,1,42.5,12|8,0:0|0:0,0:0:0:0:
84,116,130928,1,8,0:0:0:0:
61,140,131013,1,8,0:0:0:0:
49,172,131098,1,8,0:0:0:0:
49,206,131183,1,8,0:0:0:0:
62,237,131268,1,8,0:0:0:0:
86,261,131354,1,8,0:0:0:0:
117,274,131440,6,0,P|180:264|288:236,1,170,4|10,0:0|0:0,0:0:0:0:
384,184,131951,1,0,0:0:0:0:
296,120,132121,1,2,0:0:0:0:
360,300,132292,1,2,0:0:0:0:
296,120,132462,1,8,0:0:0:0:
131,188,132633,6,0,P|53:169|34:90,1,170,2|2,0:0|0:0,0:0:0:0:
236,32,133144,1,8,0:0:0:0:
272,172,133315,1,2,0:0:0:0:
272,172,133400,1,0,0:0:0:0:
272,172,133485,2,0,P|267:215|255:259,1,85
72,316,133826,1,8,0:0:0:0:
257,255,133996,1,0,0:0:0:0:
184,376,134167,6,0,P|173:334|169:292,1,85,6|0,0:0|0:0,0:0:0:0:
332,324,134508,2,0,P|373:334|415:338,1,85,10|0,0:0|0:0,0:0:0:0:
440,336,134764,1,0,0:0:0:0:
440,336,134849,1,2,0:0:0:0:
324,216,135019,1,2,0:0:0:0:
169,292,135190,1,8,0:0:0:0:
344,368,135360,6,0,P|352:304|360:184,1,170,2|2,0:0|0:0,0:0:0:0:
216,68,135871,1,8,0:0:0:0:
164,192,136042,1,2,0:0:0:0:
164,192,136127,1,0,0:0:0:0:
164,192,136212,2,0,P|208:184|256:180,1,85,0|2,0:0|0:0,0:0:0:0:
304,104,136553,1,10,0:0:0:0:
272,288,136724,1,0,0:0:0:0:
88,240,136894,6,0,P|72:184|156:104,1,170,4|8,0:0|0:0,0:0:0:0:
196,356,137406,1,0,0:0:0:0:
164,192,137576,1,2,0:0:0:0:
96,320,137746,1,2,0:0:0:0:
272,288,137917,1,8,0:0:0:0:
88,238,138087,6,0,P|171:243|248:208,1,170,2|2,0:0|0:0,0:0:0:0:
356,52,138599,1,10,0:0:0:0:
332,224,138769,1,2,0:0:0:0:
332,224,138854,1,0,0:0:0:0:
332,224,138940,1,2,0:0:0:0:
256,120,139110,1,0,0:0:0:0:
280,328,139281,1,8,0:0:0:0:
412,272,139451,1,0,0:0:0:0:
240,344,139621,6,0,B|188:364|188:364|60:336,1,170,4|8,0:0|0:0,0:0:0:0:
88,140,140133,1,0,0:0:0:0:
216,236,140303,1,4,0:3:0:0:
20,276,140474,1,10,0:3:0:0:
112,168,140644,1,8,0:3:0:0:
240,344,140815,5,4,0:0:0:0:
300,244,141156,1,0,0:0:0:0:
264,132,141496,1,0,0:0:0:0:
148,100,141837,5,0,0:0:0:0:
148,100,142008,2,0,P|108:116|64:120,1,85,8|0,0:0|0:0,0:0:0:0:
216,32,142349,5,4,0:0:0:0:
304,64,147803,6,0,P|356:48|456:124,1,170,4|8,0:0|0:0,0:0:0:0:
416,224,148315,2,0,P|364:240|264:164,1,170,4|8,0:0|0:0,0:0:0:0:
360,144,148826,1,2,0:0:0:0:
216,348,149167,5,2,0:0:0:0:
216,348,149337,2,0,L|208:276,1,68
252,176,149678,2,0,L|236:311,1,136,4|0,0:0|0:0,0:0:0:0:
80,288,150190,1,8,0:3:0:0:
80,288,150360,1,0,0:0:0:0:
40,176,150531,6,0,P|48:124|104:12,1,170,4|8,0:0|0:0,0:0:0:0:
252,176,151042,2,0,P|244:228|188:340,1,170,4|8,0:0|0:0,0:0:0:0:
144,184,151553,1,4,0:0:0:0:
356,220,151894,5,2,0:0:0:0:
356,220,152065,2,0,L|440:208,1,68
456,120,152406,1,8,0:0:0:0:
320,244,152576,2,0,P|286:241|252:234,1,68
356,120,152917,1,8,0:0:0:0:
72,360,153258,6,0,P|48:308|104:200,1,170,4|10,0:0|0:0,0:0:0:0:
172,296,153769,1,0,0:0:0:0:
172,296,153854,1,0,0:0:0:0:
172,296,153940,1,2,0:0:0:0:
284,164,154110,2,0,L|188:176,1,85,2|8,0:0|0:0,0:0:0:0:
280,356,154451,6,2,L|448:334,1,170
404,164,154962,2,0,P|376:212|384:268,1,85,8|2,0:0|0:0,0:0:0:0:
375,240,155218,1,8,0:0:0:0:
375,240,155303,1,0,0:0:0:0:
424,52,155474,1,2,0:0:0:0:
456,228,155644,1,8,0:0:0:0:
284,164,155815,1,2,0:0:0:0:
480,135,155985,6,0,P|445:159|404:164,1,85,4|0,0:0|0:0,0:0:0:0:
220,112,156326,2,0,P|259:130|284:164,1,85,10|0,0:0|0:0,0:0:0:0:
288,204,156582,1,0,0:0:0:0:
288,204,156667,2,0,L|272:304,1,85,2|0,0:0|0:0,0:0:0:0:
224,376,157008,1,8,0:0:0:0:
48,256,157178,6,0,P|96:280|200:204,1,170,2|2,0:0|0:0,0:0:0:0:
152,52,157690,1,8,0:0:0:0:
112,184,157860,1,2,0:0:0:0:
112,184,157945,1,8,0:0:0:0:
112,184,158031,2,0,P|68:180|4:160,1,85
220,132,158371,1,10,0:0:0:0:
164,296,158542,1,0,0:0:0:0:
164,296,158627,1,0,0:0:0:0:
164,296,158712,6,0,P|245:271|329:262,1,170,4|8,0:0|0:0,0:0:0:0:
456,168,159224,1,2,0:0:0:0:
404,344,159394,1,2,0:0:0:0:
288,284,159565,1,0,0:0:0:0:
488,252,159735,1,10,0:0:0:0:
400,80,159906,6,0,P|352:144|376:236,1,170,2|0,0:0|0:0,0:0:0:0:
237,350,160417,2,0,P|268:321|288:284,1,85,10|0,0:0|0:0,0:0:0:0:
368,227,160758,2,0,P|312:247|192:267,1,170,2|8,0:0|0:0,0:0:0:0:
16,216,161269,1,2,0:0:0:0:
88,356,161440,6,0,L|104:252,1,85,4|0,0:0|0:0,0:0:0:0:
120,128,161781,1,8,0:0:0:0:
296,276,161951,1,0,0:0:0:0:
264,48,162122,2,0,L|277:133,1,85,0|2,0:0|0:0,0:0:0:0:
96,112,162462,1,8,0:0:0:0:
321,107,162633,6,0,L|296:276,1,170,4|0,0:0|0:0,0:0:0:0:
88,356,163144,1,8,0:3:0:0:
60,240,163315,1,8,0:3:0:0:
152,164,163485,5,8,0:0:0:0:
296,276,163656,1,8,0:3:0:0:
412,136,163826,1,8,0:3:0:0:
412,136,164167,6,0,P|404:188|396:216,1,63.7500024318696,4|0,0:0|0:0,0:0:0:0:
296,276,164508,2,0,P|304:328|312:356,1,63.7500024318696,2|0,0:0|0:0,0:0:0:0:
312,188,164849,1,8,0:0:0:0:
208,296,165019,2,0,P|176:292|145:285,1,63.7500024318696,0|2,0:0|0:0,0:0:0:0:
80,340,165360,6,0,P|96:292|112:208,1,127.500004863739,0|8,0:0|0:0,0:0:0:0:
80,104,165871,1,2,0:0:0:0:
176,136,166042,2,0,L|256:128,2,63.7500024318696,0|8|0,0:0|0:0|0:0,0:0:0:0:
260,56,166553,2,0,P|279:116|291:179,1,127.500004863739,2|4,0:0|0:0,0:0:0:0:
352,340,167235,5,2,0:0:0:0:
476,264,167406,2,0,P|444:266|414:275,1,63.7500024318696,0|8,0:0|0:0,0:0:0:0:
252,360,167746,1,0,0:0:0:0:
312,252,167917,1,2,0:0:0:0:
240,372,168087,6,0,P|232:328|224:228,1,127.500004863739,0|8,0:0|0:0,0:0:0:0:
272,76,168599,1,0,0:0:0:0:
244,156,168769,1,0,0:0:0:0:
168,184,168940,2,0,P|116:180|28:168,2,127.500004863739,8|2|4,0:0|0:0|0:0,0:0:0:0:
432,80,169962,5,2,0:0:0:0:
344,156,170133,1,0,0:0:0:0:
432,80,170303,1,0,0:0:0:0:
400,252,170474,2,0,P|357:251|315:244,1,85,8|0,0:0|0:0,0:0:0:0:
144,184,170815,5,4,0:0:0:0:
116,316,170985,2,0,P|158:315|200:308,1,85
256,144,171326,1,2,0:0:0:0:
200,308,171496,1,8,0:0:0:0:
376,272,171667,1,0,0:0:0:0:
276,240,171837,1,8,0:3:0:0:
276,240,172008,1,8,0:3:0:0:
416,352,172178,2,0,L|400:296,1,42.5
360,184,172349,5,4,0:0:0:0:
296,336,172519,2,0,P|260:336|200:300,1,85,0|2,0:0|0:0,0:0:0:0:
152,136,172860,1,0,0:0:0:0:
136,248,173031,2,0,P|96:276|52:292,1,85,8|8,0:0|0:3,0:0:0:0:
56,176,173371,1,8,0:3:0:0:
232,284,173542,6,0,B|288:272|331:315|331:315|340:256|388:233|388:233|336:203|330:150|330:150|286:187|232:181|232:181|249:231|220:268,1,475.999985473633,4|2,0:0|0:0,0:0:0:0:
256,192,175076,12,2,177803,0:0:0:0:
198,249,183258,6,0,P|193:296|141:198,1,340,4|4,0:0|0:0,0:0:0:0:
198,249,185985,6,0,P|242:267|326:258,1,127.500004863739,4|8,0:0|0:0,0:0:0:0:
392,208,186496,1,8,0:0:0:0:
332,352,186667,1,8,0:0:0:0:
264,184,186837,1,8,0:0:0:0:
112,296,187008,1,8,0:0:0:0:
288,92,187178,1,2,0:0:0:0:
288,92,188201,5,0,0:0:0:0:
264,184,188371,2,0,B|216:208|216:208|72:180,1,152.999995330811,12|0,0:0|0:0,0:0:0:0:
80,108,188712,6,0,P|36:156|72:272,1,170,4|10,0:0|0:0,0:0:0:0:
224,308,189224,1,0,0:0:0:0:
224,308,189309,1,0,0:0:0:0:
224,308,189394,2,0,P|180:312|132:340,1,85,2|2,0:0|0:0,0:0:0:0:
320,356,189735,1,8,0:0:0:0:
216,208,189906,6,0,P|264:236|376:232,1,170,2|2,0:0|0:0,0:0:0:0:
464,104,190417,1,10,0:0:0:0:
304,136,190587,1,0,0:0:0:0:
304,136,190673,1,0,0:0:0:0:
304,136,190758,2,0,P|296:84|296:32,1,85,2|0,0:0|0:0,0:0:0:0:
408,224,191099,2,0,P|406:266|399:308,1,85,8|2,0:0|0:0,0:0:0:0:
184,300,191440,6,0,L|292:288,1,85,6|0,0:0|0:0,0:0:0:0:
68,160,191781,1,10,0:0:0:0:
244,188,191951,1,0,0:0:0:0:
244,188,192036,1,0,0:0:0:0:
244,188,192121,1,2,0:0:0:0:
76,260,192292,1,2,0:0:0:0:
176,120,192462,1,8,0:0:0:0:
184,300,192633,6,0,P|188:352|192:384,1,85,2|0,0:0|0:0,0:0:0:0:
352,224,192974,2,0,P|348:266|343:308,1,85,2|8,0:0|0:0,0:0:0:0:
244,188,193315,1,2,0:0:0:0:
248,208,193400,1,8,0:0:0:0:
252,228,193485,1,0,0:0:0:0:
440,300,193656,1,2,0:0:0:0:
408,136,193826,2,0,P|365:141|323:144,1,85,10|0,0:0|0:0,0:0:0:0:
86,193,194167,6,0,P|167:216|252:228,1,170,4|8,0:0|0:0,0:0:0:0:
188,116,194678,1,2,0:0:0:0:
128,304,194849,2,0,P|78:317|28:324,1,85,2|0,0:0|0:0,0:0:0:0:
86,193,195190,1,10,0:0:0:0:
228,376,195360,2,0,P|239:335|247:293,1,85,2|0,0:0|0:0,0:0:0:0:
188,116,195701,5,2,0:0:0:0:
247,293,195871,1,10,0:0:0:0:
368,168,196042,1,0,0:0:0:0:
368,168,196127,1,0,0:0:0:0:
368,168,196212,1,2,0:0:0:0:
248,204,196383,1,0,0:0:0:0:
404,284,196553,1,8,0:0:0:0:
216,188,196724,1,0,0:0:0:0:
396,132,196894,6,0,P|392:184|368:324,1,170,4|8,0:0|0:0,0:0:0:0:
156,264,197406,1,0,0:0:0:0:
324,160,197576,1,8,0:0:0:0:
116,284,197746,1,8,0:3:0:0:
284,324,197917,1,8,0:3:0:0:
156,120,198087,1,4,0:0:0:0:
156,120,198428,5,8,0:0:0:0:
240,252,198599,1,8,0:0:0:0:
224,52,198769,1,8,0:0:0:0:
104,192,198940,1,8,0:0:0:0:
296,128,199110,1,8,0:0:0:0:
329,132,199195,1,8,0:0:0:0:
363,136,199280,1,8,0:0:0:0:
397,140,199365,1,8,0:0:0:0:
430,144,199450,1,8,0:0:0:0:
464,148,199536,1,8,0:0:0:0:
496,152,199621,6,0,P|490:216|478:264,1,85,4|0,0:0|0:0,0:0:0:0:
340,292,199962,2,0,P|384:312|436:344,1,85,10|0,0:0|0:0,0:0:0:0:
316,208,200303,1,2,0:0:0:0:
172,308,200474,1,0,0:0:0:0:
216,120,200644,1,8,0:0:0:0:
344,216,200815,6,0,P|280:204|160:188,1,170,2|0,0:0|0:0,0:0:0:0:
28,192,201326,1,8,0:0:0:0:
172,308,201496,1,2,0:0:0:0:
172,308,201582,1,8,0:0:0:0:
172,308,201667,1,0,0:0:0:0:
32,348,201837,1,0,0:0:0:0:
120,216,202008,2,0,P|158:208|230:199,1,85,8|0,0:0|0:0,0:0:0:0:
408,264,202349,6,0,P|376:288|268:240,1,170,6|10,0:0|0:0,0:0:0:0:
320,48,202860,1,0,0:0:0:0:
320,48,202945,1,0,0:0:0:0:
320,48,203031,1,2,0:0:0:0:
344,216,203201,2,0,P|352:168|364:120,1,85,2|8,0:0|0:0,0:0:0:0:
224,32,203542,2,0,P|233:73|240:115,1,85,2|0,0:0|0:0,0:0:0:0:
216,220,203883,5,2,0:0:0:0:
48,160,204053,1,8,0:0:0:0:
240,115,204224,1,2,0:0:0:0:
240,115,204565,1,2,0:0:0:0:
128,200,204735,2,0,P|132:256|140:296,1,85,10|0,0:0|0:0,0:0:0:0:
152,320,204991,1,0,0:0:0:0:
152,320,205076,6,0,P|192:336|300:280,1,170,4|8,0:0|0:0,0:0:0:0:
348,152,205587,1,2,0:0:0:0:
348,152,205673,1,0,0:0:0:0:
348,152,205758,1,2,0:0:0:0:
212,248,205928,1,0,0:0:0:0:
404,300,206099,1,10,0:0:0:0:
256,152,206269,6,0,P|264:236|280:344,1,170,2|2,0:0|0:0,0:0:0:0:
164,116,206781,2,0,P|172:72|180:16,1,85,10|0,0:0|0:0,0:0:0:0:
0,100,207121,2,0,P|34:128|78:163,1,85,2|0,0:0|0:0,0:0:0:0:
188,212,207462,1,8,0:0:0:0:
12,264,207633,1,2,0:0:0:0:
216,196,207803,6,0,P|208:280|192:388,1,170,4|8,0:0|0:0,0:0:0:0:
100,256,208315,1,2,0:0:0:0:
312,324,208485,1,8,0:0:0:0:
104,224,208656,1,8,0:3:0:0:
328,180,208826,1,8,0:3:0:0:
148,92,208996,6,0,P|200:108|296:32,1,170,4|0,0:0|0:0,0:0:0:0:
444,156,209508,1,8,0:3:0:0:
264,128,209678,2,0,B|244:180|244:180|288:292,1,170,4|8,0:0|0:3,0:0:0:0:
320,372,210190,1,4,0:3:0:0:
16,208,210531,5,4,0:0:0:0:
256,192,210701,12,0,217349,0:0:0:0:
