osu file format v14

[General]
AudioFilename: CALENDAR GIRL12.mp3
AudioLeadIn: 0
PreviewTime: 57718
Countdown: 0
SampleSet: None
StackLeniency: 0.7
Mode: 0
LetterboxInBreaks: 1
WidescreenStoryboard: 1

[Editor]
DistanceSpacing: 2
BeatDivisor: 4
GridSize: 4
TimelineZoom: 1

[Metadata]
Title:Sakura no Door wo
TitleUnicode:桜のドアを
Artist:petit milady
ArtistUnicode:petit milady
Creator:Rizia
Version:awaken map cant upload with chinese diff name hahaha
Source:
Tags:CALENDAR GIRL kawaiwkyik wkyik
BeatmapID:1049651
BeatmapSetID:492742

[Difficulty]
HPDrainRate:7
CircleSize:4
OverallDifficulty:8
ApproachRate:9
SliderMultiplier:1.7
SliderTickRate:1

[Events]
//Background and Video events
0,0,"bg123.jpg",0,0
//Break Periods
2,23060,209931
//Storyboard Layer 0 (Background)
//Storyboard Layer 1 (Fail)
//Storyboard Layer 2 (Pass)
//Storyboard Layer 3 (Foreground)
//Storyboard Sound Samples

[TimingPoints]
531,340.909090909091,4,2,1,20,1,0
531,-133.333333333333,4,2,1,20,0,0
5985,-200,4,2,1,40,0,0
8712,-133.333333333333,4,2,1,40,0,0
9053,-133.333333333333,4,2,1,40,0,0
9394,-133.333333333333,4,2,1,50,0,0
9735,-133.333333333333,4,2,1,60,0,0
9906,-133.333333333333,4,2,1,70,0,0
11099,-100,4,2,1,70,0,0
11440,-100,4,2,1,70,0,0
44167,-133.333333333333,4,2,1,70,0,0
52349,-100,4,2,1,70,0,0
57803,-100,4,2,1,70,0,1
68031,-100,4,2,1,30,0,0
68201,-100,4,2,1,40,0,0
68371,-100,4,2,1,50,0,0
68542,-100,4,2,1,60,0,0
68712,-100,4,2,1,70,0,1
79621,-100,4,2,1,70,0,0
106894,-133.333333333333,4,2,1,70,0,0
115076,-100,4,2,1,70,0,0
120531,-100,4,2,1,70,0,1
130758,-100,4,2,1,30,0,0
130928,-100,4,2,1,40,0,0
131099,-100,4,2,1,50,0,0
131269,-100,4,2,1,60,0,0
131440,-100,4,2,1,70,0,1
140815,-100,4,2,1,70,0,0
149167,-125,4,2,1,70,0,0
150531,-100,4,2,1,70,0,0
151894,-125,4,2,1,70,0,0
153258,-100,4,2,1,70,0,0
164167,-133.333333333333,4,2,1,70,0,0
169621,-100,4,2,1,70,0,0
173542,-142.857142857143,4,2,1,70,0,0
175076,-142.857142857143,4,2,1,20,0,0
177803,-142.857142857143,4,3,99,30,0,0
183258,-200,4,2,1,70,0,0
185985,-133.333333333333,4,2,1,70,0,0
186326,-133.333333333333,4,2,1,50,0,0
186667,-133.333333333333,4,2,1,60,0,0
187008,-133.333333333333,4,2,1,70,0,0
188371,-83.3333333333333,4,2,1,70,0,0
188627,-83.3333333333333,4,2,1,5,0,0
188712,-100,4,2,1,70,0,1
199621,-100,4,2,1,70,0,0
211212,-100,4,2,1,50,0,0
211894,-100,4,2,1,45,0,0
212576,-100,4,2,1,40,0,0
213258,-100,4,2,1,35,0,0
213940,-100,4,2,1,30,0,0
214621,-100,4,2,1,25,0,0
215303,-100,4,2,1,20,0,0
215985,-100,4,2,1,15,0,0
216667,-100,4,2,1,10,0,0
217349,-100,4,2,1,5,0,0

[Colours]
Combo1 : 255,128,192
Combo2 : 255,128,128
Combo3 : 255,0,0
Combo4 : 255,255,0

[HitObjects]
136,134,531,6,0,P|158:160|194:176,1,63.7500024318696
356,223,871,2,0,P|325:240|288:248,1,63.7500024318696
132,351,1212,2,0,P|177:346|265:361,1,127.500004863739
352,355,1724,2,0,P|394:357|451:290,2,127.500004863739
161,185,2576,1,0,0:0:0:0:
161,185,2917,1,0,0:0:0:0:
334,118,3087,1,0,0:0:0:0:
206,53,3258,6,0,P|213:96|231:126,1,63.7500024318696
302,223,3599,2,0,P|298:260|284:291,1,63.7500024318696
166,348,3940,2,0,L|21:349,1,127.500004863739
0,219,4451,2,0,B|32:194|32:194|71:216|124:200,2,127.500004863739
210,260,5303,2,0,L|221:180,1,63.7500024318696
317,95,5644,2,0,L|325:203,1,95.6250036478044
311,239,5985,6,0,P|355:202|434:205,1,127.5
398,323,6667,2,0,P|354:360|275:357,1,127.5
134,367,7349,2,0,P|169:337|53:258,1,255
55,255,8712,6,0,B|107:265|107:265|136:256|136:256|200:268,1,127.500004863739
250,138,9224,1,0,0:0:0:0:
289,294,9394,1,0,0:0:0:0:
391,111,9565,1,0,0:0:0:0:
398,278,9735,1,0,0:0:0:0:
507,29,9906,1,0,0:0:0:0:
507,29,11099,2,0,L|455:21,1,42.5
391,111,11269,2,0,L|395:177,1,42.5
343,258,11440,6,0,P|291:274|213:235,1,127.5
192,360,11781,2,0,P|247:355|286:366,1,85
449,265,12121,1,0,0:0:0:0:
289,181,12292,1,0,0:0:0:0:
289,181,12377,1,0,0:0:0:0:
289,181,12462,1,0,0:0:0:0:
318,359,12633,1,0,0:0:0:0:
370,230,12803,6,0,P|377:188|374:132,1,85
195,57,13144,2,0,P|188:99|191:155,1,85
188,141,13400,1,0,0:0:0:0:
188,141,13485,1,0,0:0:0:0:
335,79,13656,1,0,0:0:0:0:
370,230,13826,1,0,0:0:0:0:
136,208,13996,1,0,0:0:0:0:
331,161,14167,6,0,P|399:155|447:217,1,127.5
499,273,14508,2,0,P|480:318|474:366,1,85
206,366,14849,1,0,0:0:0:0:
276,229,15019,1,0,0:0:0:0:
276,229,15104,1,0,0:0:0:0:
276,229,15190,1,0,0:0:0:0:
397,322,15360,1,0,0:0:0:0:
199,278,15531,6,0,P|191:233|199:194,1,85
218,56,15871,1,0,0:0:0:0:
69,181,16042,1,0,0:0:0:0:
69,181,16127,1,0,0:0:0:0:
69,181,16212,2,0,L|68:119,1,42.5
25,269,16383,2,0,L|21:323,1,42.5
10,78,16553,2,0,P|62:57|138:98,1,127.5
156,125,16894,6,0,L|331:109,1,170
354,23,17406,2,0,L|292:14,1,42.5
416,166,17576,2,0,P|431:116|422:69,1,85
277,223,17917,1,0,0:0:0:0:
444,293,18087,5,0,0:0:0:0:
444,293,18173,1,0,0:0:0:0:
444,293,18258,1,0,0:0:0:0:
316,360,18428,1,0,0:0:0:0:
197,263,18599,1,0,0:0:0:0:
331,156,18769,1,0,0:0:0:0:
236,338,18940,6,0,P|195:348|146:327,1,85
246,137,19281,1,0,0:0:0:0:
335,284,19451,5,0,0:0:0:0:
335,284,19536,1,0,0:0:0:0:
335,284,19621,1,0,0:0:0:0:
197,263,19792,1,0,0:0:0:0:
331,156,19962,1,0,0:0:0:0:
316,360,20133,1,0,0:0:0:0:
276,228,20303,1,0,0:0:0:0:
435,264,20474,1,0,0:0:0:0:
236,338,20644,1,0,0:0:0:0:
473,348,20815,6,0,L|489:177,1,170
480,155,21496,2,0,P|466:87|468:24,1,127.5
467,29,21837,1,0,0:0:0:0:
269,118,22008,1,0,0:0:0:0:
269,118,22349,6,0,L|354:109,1,85
447,288,22690,2,0,L|362:297,1,85
256,192,210531,12,0,217349,0:0:0:0:
