osu file format v13

[General]
AudioFilename: ED1.mp3
AudioLeadIn: 1000
PreviewTime: 49430
Countdown: 1
SampleSet: Soft
StackLeniency: 0.7
Mode: 0
LetterboxInBreaks: 0
WidescreenStoryboard: 0

[Editor]
Bookmarks: 2340,3815,5783,7750,9717,11192,12176,13160,14143,15127,16110,17094,18078,20045,23487,27422,31356,35291,49061,50537,51520,52504,53487,54471,55455,56438,57422,58405,59389,60373,61356,62340,63324,64307,65291,67750,68487,68733,69102,70209,71192,72176,73160,74143,75127,76110,77094,78078,79061,80045,81028,82012,82996,83979,84471,86438,86807,87176,87422
DistanceSpacing: 1.2
BeatDivisor: 4
GridSize: 8
TimelineZoom: 1

[Metadata]
Title:Koi wa Milk Tea (TV Size)
TitleUnicode:恋はみるくてぃ (TV Size)
Artist:petit milady
ArtistUnicode:petit milady
Creator:FastBoy
Version:Normal
Source:六畳間の侵略者!?
Tags:rokujouma no shinryakusha ending ed プチミレディ ZERO-A kotaro sanae yurika kiriha theiamillis gre fortorthe ruthkhania nye pardomshiha
BeatmapID:477889
BeatmapSetID:201880

[Difficulty]
HPDrainRate:3
CircleSize:3
OverallDifficulty:3
ApproachRate:4
SliderMultiplier:1.5
SliderTickRate:2

[Events]
//Background and Video events
Video,0,"koi wa milk tea.flv"
0,0,"kiriha.jpg",0,0
//Break Periods
//Storyboard Layer 0 (Background)
//Storyboard Layer 1 (Fail)
//Storyboard Layer 2 (Pass)
//Storyboard Layer 3 (Foreground)
//Storyboard Sound Samples
//Background Colour Transformations
3,100,163,162,255

[TimingPoints]
865,491.803278688525,4,2,1,80,1,0
10701,-100,4,2,1,90,0,0
11069,-100,4,2,2,90,0,0
11438,-100,4,2,1,90,0,0
13037,-100,4,2,2,90,0,0
13405,-100,4,2,1,90,0,0
15004,-100,4,2,2,90,0,0
15373,-100,4,2,1,90,0,0
16971,-100,4,2,2,90,0,0
17340,-100,4,2,1,90,0,0
17955,-100,4,2,2,90,0,0
18324,-100,4,2,1,90,0,0
19799,-100,4,2,1,50,0,0
20537,-100,4,2,1,60,0,0
35291,-100,4,2,1,70,0,0
36274,-100,4,2,1,80,0,0
39225,-100,4,2,1,70,0,0
40209,-100,4,2,1,80,0,0
43160,-100,4,2,1,85,0,0
43897,-100,4,2,1,70,0,0
44143,-100,4,2,1,80,0,0
46110,-100,4,2,1,90,0,0
50045,-100,4,2,1,100,0,1
50414,-100,4,2,2,100,0,1
50783,-100,4,2,1,100,0,1
54348,-100,4,2,2,100,0,1
54717,-100,4,2,1,100,0,1
55332,-100,4,2,2,100,0,1
55701,-100,4,2,1,100,0,1
58283,-100,4,2,2,100,0,1
58651,-100,4,2,1,100,0,1
60250,-100,4,2,2,100,0,1
60619,-100,4,2,1,100,0,1
62217,-100,4,2,2,100,0,1
62586,-100,4,2,1,100,0,1
63201,-100,4,2,2,100,0,1
63569,-100,4,2,1,100,0,1
64184,-100,4,2,2,100,0,1
64553,-100,4,2,1,100,0,1
65168,-100,4,2,2,100,0,1
65537,-100,4,2,1,100,0,1
69655,-100,4,2,1,100,0,0
69717,-100,4,2,1,100,0,1
70086,-100,4,2,2,100,0,1
70455,-100,4,2,1,100,0,1
71069,-100,4,2,2,100,0,1
71438,-100,4,2,1,100,0,1
74020,-100,4,2,2,100,0,1
74389,-100,4,2,1,100,0,1
75004,-100,4,2,2,100,0,1
75373,-100,4,2,1,100,0,1
79922,-100,4,2,2,100,0,1
80291,-100,4,2,1,100,0,1
81889,-100,4,2,2,100,0,1
82258,-100,4,2,1,100,0,1
82873,-100,4,2,2,100,0,1
83242,-100,4,2,1,100,0,1
84840,-100,4,2,1,80,0,1
85455,-100,4,2,1,100,0,1
87422,-100,4,2,1,100,0,0

[Colours]
Combo1 : 255,70,70
Combo2 : 154,53,255
Combo3 : 255,128,0
Combo4 : 53,53,255

[HitObjects]
256,192,865,12,0,2094,0:0:0:0:
344,256,2340,5,8,0:0:0:0:
168,280,2832,2,0,B|136:312|136:312|56:328,2,112.5,4|0|0,0:0|0:0|0:0,0:0:0:0:
168,192,3815,2,0,P|224:136|288:160,1,150,8|0,0:0|0:0,0:0:0:0:
432,256,4799,2,0,L|432:136,2,112.5,0|0|0,0:0|0:0|0:0,0:0:0:0:
344,272,5783,2,0,B|312:336|312:336|232:368,1,150,8|0,0:0|0:0,0:0:0:0:
120,232,6766,6,0,L|40:144,2,112.5,0|0|0,0:0|0:0|0:0,0:0:0:0:
192,176,7750,2,0,P|272:208|312:152,1,150,8|0,0:0|0:0,0:0:0:0:
488,208,8733,2,0,L|424:96,2,112.5,0|0|0,0:0|0:0|0:0,0:0:0:0:
496,296,9717,2,0,B|432:296|408:248|408:248|352:264,1,150,8|0,0:0|0:0,0:0:0:0:
192,200,10701,6,0,L|128:88,2,112.5,4|0|0,0:0|0:0|0:0,0:0:0:0:
112,240,11684,2,0,B|136:336|136:336|192:360,1,150,0|8,0:0|0:0,0:0:0:0:
336,264,12668,2,0,B|344:224|344:224|416:192,2,112.5,0|0|0,0:0|0:0|0:0,0:0:0:0:
312,352,13651,1,0,0:0:0:0:
200,208,14143,1,8,0:0:0:0:
88,64,14635,6,0,B|120:32|120:32|192:40,2,112.5,0|0|0,0:0|0:0|0:0,0:0:0:0:
32,136,15619,1,0,0:0:0:0:
128,288,16110,1,8,0:0:0:0:
264,176,16602,6,0,B|330:183|330:183|362:151,2,112.5,0|0|0,0:0|0:0|0:0,0:0:0:0:
256,264,17586,2,0,P|312:296|328:352,2,112.5,0|0|0,0:0|0:0|0:0,0:0:0:0:
184,208,18569,1,8,0:0:0:0:
131,102,19799,2,0,L|176:16,1,75,0|8,0:0|0:0,0:0:0:0:
336,104,20537,6,0,B|392:120|392:120|464:112,2,112.5,4|0|0,0:0|0:0|0:0,0:0:0:0:
280,176,21520,2,0,L|224:32,1,150,0|0,0:0|0:0,0:0:0:0:
96,160,22504,2,0,B|88:208|88:208|40:240|40:240|32:296,2,150,0|0|8,0:0|0:0|0:0,0:0:0:0:
440,264,24471,6,0,P|464:184|488:168,2,112.5,0|0|0,0:0|0:0|0:0,0:0:0:0:
416,352,25455,2,0,L|304:232,1,150
136,208,26438,2,0,B|104:232|104:272|104:272|64:288|64:288|40:320,2,150,0|0|8,0:0|0:0|0:0,0:0:0:0:
136,120,27668,1,0,0:0:0:0:
136,120,27914,2,0,L|208:88,1,75
264,152,28405,6,0,P|344:152|376:112,2,112.5,0|0|0,0:0|0:0|0:0,0:0:0:0:
296,72,29389,2,0,L|336:216,1,150
424,240,30127,2,0,L|400:160,1,75
288,304,30865,2,0,P|248:336|160:272,2,150,0|8|0,0:0|0:0|0:0,0:0:0:0:
344,240,32094,1,0,0:0:0:0:
344,240,32340,6,0,L|392:360,2,112.5,0|0|0,0:0|0:0|0:0,0:0:0:0:
360,152,33324,2,0,P|296:168|224:104,2,150,0|0|0,0:0|0:0|0:0,0:0:0:0:
312,72,34553,1,0,0:0:0:0:
312,72,34799,2,0,L|280:0,1,75
192,16,35291,2,0,B|160:72|160:72|104:48|64:80,1,150,8|0,0:0|0:0,0:0:0:0:
112,248,36274,6,0,P|40:280|16:264,2,112.5,4|0|4,0:0|0:0|0:0,0:0:0:0:
168,176,37258,2,0,L|200:264,1,75
280,264,37750,2,0,L|256:192,1,75
320,128,38242,2,0,B|376:112|376:112|440:128,2,112.5,0|0|0,0:0|0:0|0:0,0:0:0:0:
376,200,39225,6,0,B|376:248|376:248|408:272|408:272|392:312|416:352,2,150,0|0|4,0:0|0:0|0:0,0:0:0:0:
416,120,40455,1,0,0:0:0:0:
416,120,40701,2,0,L|384:48,1,75
320,120,41192,2,0,P|264:136|208:104,2,112.5,0|0|0,0:0|0:0|0:0,0:0:0:0:
272,43,42176,2,0,P|210:22|157:49,2,112.5,0|0|0,0:0|0:0|0:0,0:0:0:0:
217,114,43160,2,0,B|149:145|104:100|104:100|78:135,1,150
32,192,43897,5,0,0:0:0:0:
32,192,44143,2,0,L|56:288,1,75,4|0,0:0|0:0,0:0:0:0:
136,280,44635,2,0,L|112:192,1,75
208,224,45127,2,0,P|256:192|336:224,1,150
424,208,45865,1,0,0:0:0:0:
424,208,46110,6,0,L|408:296,1,75
480,336,46602,2,0,L|496:256,1,75
480,176,47094,2,0,P|392:152|360:96,1,150
320,24,47832,1,0,0:0:0:0:
232,32,48078,6,0,B|176:48|176:48|136:88,2,112.5,0|0|0,0:0|0:0|0:0,0:0:0:0:
288,104,49061,1,8,0:0:0:0:
24,304,50045,6,0,B|64:344|64:344|128:360,2,112.5,4|0|0,0:0|0:0|0:0,0:0:0:0:
96,248,51028,2,0,L|120:168|120:168,1,75
208,168,51520,2,0,L|184:256,1,75,8|0,0:0|0:0,0:0:0:0:
280,224,52012,6,0,B|296:168|296:168|328:120|384:144,1,150,0|8,0:0|0:0,0:0:0:0:
440,208,52750,2,0,L|416:288,1,75
328,304,53242,1,0,0:0:0:0:
248,352,53487,2,0,P|184:360|160:352,1,75,8|0,0:0|0:0,0:0:0:0:
176,264,53979,6,0,P|96:288|80:320,2,112.5,0|0|0,0:0|0:0|0:0,0:0:0:0:
216,184,54963,2,0,P|296:160|312:128,2,112.5,0|0|0,0:0|0:0|0:0,0:0:0:0:
144,128,55946,6,0,L|96:24,1,100,0|0,0:0|0:0,0:0:0:0:
40,32,56438,2,0,L|80:128,1,100,8|0,0:0|0:0,0:0:0:0:
48,176,56930,1,0,0:0:0:0:
184,56,57422,2,0,P|216:48|264:56,1,75,8|0,0:0|0:0,0:0:0:0:
336,8,57914,6,0,B|344:56|344:56|336:88|336:88|344:128,2,112.5,4|0|0,0:0|0:0|0:0,0:0:0:0:
424,32,58897,2,0,P|464:40|512:24,1,75
480,120,59389,2,0,P|472:168|488:208,1,75,8|0,0:0|0:0,0:0:0:0:
408,248,59881,2,0,B|352:256|352:256|288:248,2,112.5,0|0|0,0:0|0:0|0:0,0:0:0:0:
488,296,60865,2,0,L|448:376,1,75
368,360,61356,2,0,L|400:288,1,75,8|0,0:0|0:0,0:0:0:0:
312,272,61848,6,0,P|256:256|200:272,2,112.5,0|0|0,0:0|0:0|0:0,0:0:0:0:
256,344,62832,2,0,P|200:360|144:344,2,112.5,0|0|0,0:0|0:0|0:0,0:0:0:0:
205,269,63815,2,0,P|221:197|197:149,2,112.5,0|0|0,0:0|0:0|0:0,0:0:0:0:
128,216,64799,2,0,P|75:233|21:219,2,112.5,0|0|0,0:0|0:0|0:0,0:0:0:0:
73,144,65783,5,4,0:0:0:0:
176,58,66151,2,0,B|208:26|208:26|288:26,1,112.5
328,99,66766,1,4,0:0:0:0:
264,216,67135,2,0,B|331:216|331:216|363:184,1,112.5
392,272,67750,6,0,B|424:240|424:240|491:240,1,112.5,12|0,0:0|0:0,0:0:0:0:
416,128,68487,1,8,0:0:0:0:
408,40,68733,2,0,P|360:48|328:112,1,112.5,12|8,0:0|0:0,0:0:0:0:
192,96,69471,1,0,0:0:0:0:
104,120,69717,6,0,B|111:65|111:65|143:17,2,112.5,4|0|0,0:0|0:0|0:0,0:0:0:0:
168,184,70701,2,0,B|160:238|160:238|128:286,2,112.5,0|0|0,0:0|0:0|0:0,0:0:0:0:
192,96,71684,2,0,B|248:104|248:104|232:152|272:200,1,150,0|8,0:0|0:0,0:0:0:0:
344,240,72422,2,0,P|408:248|424:240,1,75
384,160,72914,1,0,0:0:0:0:
384,160,73160,6,0,L|384:80,1,75,8|0,0:0|0:0,0:0:0:0:
304,40,73651,2,0,B|248:24|248:24|176:32,2,112.5,0|0|0,0:0|0:0|0:0,0:0:0:0:
336,128,74635,2,0,B|392:144|392:144|445:138,2,112.5,0|0|0,0:0|0:0|0:0,0:0:0:0:
256,96,75619,6,0,L|272:194,1,100
216,224,76110,2,0,L|196:101,1,100,8|0,0:0|0:0,0:0:0:0:
144,112,76602,1,0,0:0:0:0:
72,280,77094,2,0,P|104:288|160:272,1,75,8|0,0:0|0:0,0:0:0:0:
224,328,77586,6,0,L|256:248,1,75,4|0,0:0|0:0,0:0:0:0:
344,240,78078,2,0,L|312:320,1,75,8|0,0:0|0:0,0:0:0:0:
400,344,78569,2,0,P|440:336|480:344,1,75
488,256,79061,2,0,L|488:160,1,75,8|0,0:0|0:0,0:0:0:0:
408,136,79553,2,0,B|352:128|352:128|296:136,2,112.5,0|0|0,0:0|0:0|0:0,0:0:0:0:
480,80,80537,2,0,L|440:16,1,75
352,48,81028,6,0,L|272:24,1,75,8|0,0:0|0:0,0:0:0:0:
232,104,81520,2,0,P|176:88|152:32,2,112.5,0|0|0,0:0|0:0|0:0,0:0:0:0:
227,194,82504,2,0,P|163:218|147:266,2,112.5,0|0|0,0:0|0:0|0:0,0:0:0:0:
234,283,83487,6,0,L|282:347,1,75
360,304,83979,2,0,L|304:232,1,75,8|0,0:0|0:0,0:0:0:0:
320,152,84471,2,0,P|339:78|312:32,2,112.5,8|0|0,0:0|0:0|0:0,0:0:0:0:
247,97,85455,6,0,P|207:137|140:126,2,112.5,4|0|0,0:0|0:0|0:0,0:0:0:0:
171,48,86438,2,0,P|107:48|74:94,2,112.5,12|8|8,0:0|0:0|0:0,0:0:0:0:
205,131,87422,1,12,0:0:0:0:
