osu file format v13

[General]
AudioFilename: ED1.mp3
AudioLeadIn: 1000
PreviewTime: 49430
Countdown: 1
SampleSet: Soft
StackLeniency: 0.7
Mode: 0
LetterboxInBreaks: 0
WidescreenStoryboard: 0

[Editor]
Bookmarks: 2340,3815,5783,7750,9717,11192,12176,13160,14143,15127,16110,17094,18078,20045,23487,27422,31356,35291,49061,50537,51520,52504,53487,54471,55455,56438,57422,58405,59389,60373,61356,62340,63324,64307,65291,67750,68487,68733,69102,70209,71192,72176,73160,74143,75127,76110,77094,78078,79061,80045,81028,82012,82996,83979,84471,86438,86807,87176,87422
DistanceSpacing: 1.1
BeatDivisor: 4
GridSize: 8
TimelineZoom: 1

[Metadata]
Title:Koi wa Milk Tea (TV Size)
TitleUnicode:恋はみるくてぃ (TV Size)
Artist:petit milady
ArtistUnicode:petit milady
Creator:FastBoy
Version:Insane
Source:六畳間の侵略者!?
Tags:rokujouma no shinryakusha ending ed プチミレディ ZERO-A kotaro sanae yurika kiriha theiamillis gre fortorthe ruthkhania nye pardomshiha
BeatmapID:477888
BeatmapSetID:201880

[Difficulty]
HPDrainRate:8
CircleSize:4
OverallDifficulty:7
ApproachRate:9
SliderMultiplier:2
SliderTickRate:2

[Events]
//Background and Video events
Video,0,"koi wa milk tea.flv"
0,0,"kiriha.jpg",0,0
//Break Periods
//Storyboard Layer 0 (Background)
//Storyboard Layer 1 (Fail)
//Storyboard Layer 2 (Pass)
//Storyboard Layer 3 (Foreground)
//Storyboard Sound Samples
//Background Colour Transformations
3,100,163,162,255

[TimingPoints]
865,491.803278688525,4,2,1,5,1,0
2094,-100,4,2,1,80,0,0
10701,-83.3333333333333,4,2,1,90,0,0
19799,-100,4,2,1,50,0,0
20537,-100,4,2,1,60,0,0
35291,-100,4,2,1,70,0,0
36274,-83.3333333333333,4,2,1,80,0,0
39225,-83.3333333333333,4,2,1,70,0,0
40209,-83.3333333333333,4,2,1,80,0,0
43160,-83.3333333333333,4,2,1,85,0,0
43897,-83.3333333333333,4,2,1,70,0,0
44143,-83.3333333333333,4,2,1,80,0,0
46110,-83.3333333333333,4,2,1,90,0,0
50045,-76.9230769230769,4,2,1,100,0,1
69655,-76.9230769230769,4,2,1,100,0,0
69717,-76.9230769230769,4,2,1,100,0,1
84840,-100,4,2,1,80,0,1
85455,-76.9230769230769,4,2,1,100,0,1
87422,-76.9230769230769,4,2,1,100,0,0

[Colours]
Combo1 : 255,70,70
Combo2 : 154,53,255
Combo3 : 255,128,0
Combo4 : 53,53,255

[HitObjects]
256,192,865,12,0,1848,0:0:0:0:
344,136,2094,5,0,0:0:0:0:
344,136,2217,1,0,0:0:0:0:
344,136,2340,1,8,0:0:0:0:
160,152,2832,5,0,0:0:0:0:
112,296,3078,2,0,L|128:240,1,50
235,264,3446,2,0,L|248:216,1,50
253,123,3815,1,8,0:0:0:0:
344,136,4061,1,0,0:0:0:0:
344,136,4184,1,0,0:0:0:0:
344,136,4307,2,0,P|288:112|248:128,1,100
160,152,4799,5,0,0:0:0:0:
200,304,5045,2,0,L|184:248,1,50
56,240,5413,2,0,L|72:184,1,50
112,72,5783,1,8,0:0:0:0:
240,48,6028,1,0,0:0:0:0:
240,48,6151,1,0,0:0:0:0:
240,48,6274,2,0,P|296:72|344:56,1,100
440,16,6766,5,0,0:0:0:0:
496,184,7012,2,0,L|472:120,1,50
392,256,7381,2,0,L|411:301,1,50
256,240,7750,1,8,0:0:0:0:
144,112,7996,1,0,0:0:0:0:
328,112,8242,1,0,0:0:0:0:
128,240,8487,1,0,0:0:0:0:
208,88,8733,5,0,0:0:0:0:
200,288,8979,1,0,0:0:0:0:
200,288,9102,1,0,0:0:0:0:
40,176,9348,1,0,0:0:0:0:
40,176,9471,1,0,0:0:0:0:
256,40,9717,6,0,L|272:112,1,66.6666666666667,8|0,0:0|0:0,0:0:0:0:
176,200,10045,2,0,L|158:129,1,66.6666666666667
344,96,10701,5,4,0:0:0:0:
416,232,10946,1,0,0:0:0:0:
416,232,11069,1,0,0:0:0:0:
416,232,11192,2,0,P|360:256|312:224,1,119.999996337891,8|0,0:0|0:0,0:0:0:0:
160,144,11684,1,0,0:0:0:0:
160,144,11807,2,0,L|144:272,1,119.999996337891
80,232,12176,2,0,P|152:192|200:216,1,119.999996337891,8|0,0:0|0:0,0:0:0:0:
312,336,12668,5,0,0:0:0:0:
416,232,12914,1,0,0:0:0:0:
416,232,13037,1,0,0:0:0:0:
416,232,13160,2,0,L|344:112,1,119.999996337891,8|0,0:0|0:0,0:0:0:0:
224,128,13651,1,0,0:0:0:0:
224,128,13774,2,0,L|288:240,1,119.999996337891
264,296,14143,2,0,P|336:272|352:216,1,119.999996337891,8|0,0:0|0:0,0:0:0:0:
256,184,14635,5,0,0:0:0:0:
232,48,14881,1,0,0:0:0:0:
232,48,15004,1,0,0:0:0:0:
232,48,15127,2,0,P|168:40|128:80,2,119.999996337891,8|0|0,0:0|0:0|0:0,0:0:0:0:
256,184,15865,5,0,0:0:0:0:
192,328,16110,2,0,L|192:208,2,119.999996337891,8|0|0,0:0|0:0|0:0,0:0:0:0:
376,344,16848,1,0,0:0:0:0:
376,240,16972,2,0,L|414:286,2,59.9999981689454,0|8|0,0:0|0:0|0:0,0:0:0:0:
480,264,17340,1,0,0:0:0:0:
392,120,17586,5,0,0:0:0:0:
232,136,17832,2,0,L|224:72,1,59.9999981689454
152,208,18078,2,0,L|144:136,1,59.9999981689454,8|0,0:0|0:0,0:0:0:0:
248,264,18324,2,0,L|240:200,1,59.9999981689454
168,336,18569,1,8,0:0:0:0:
256,192,19799,5,0,0:0:0:0:
256,192,19922,1,0,0:0:0:0:
256,192,20045,1,8,0:0:0:0:
112,248,20537,6,0,P|176:256|200:296,1,100
176,352,20905,2,0,L|264:304,1,100
328,264,21274,2,0,P|360:304|408:312,1,100
488,176,21766,1,0,0:0:0:0:
488,176,21889,1,0,0:0:0:0:
488,176,22012,6,0,L|488:240,1,50
368,208,22258,2,0,L|368:144,1,50
368,88,22504,1,0,0:0:0:0:
256,72,22873,1,0,0:0:0:0:
256,72,22996,2,0,P|208:104|152:96,1,100
120,48,23365,2,0,L|96:104,1,50,0|8,0:0|0:0,0:0:0:0:
96,248,23733,1,0,0:0:0:0:
192,32,23979,1,0,0:0:0:0:
32,88,24225,1,0,0:0:0:0:
96,248,24471,6,0,P|160:248|192:288,1,100
256,256,24840,2,0,L|192:360,1,100
272,328,25209,2,0,P|312:352|368:344,1,100
448,232,25701,1,0,0:0:0:0:
448,232,25824,1,0,0:0:0:0:
448,232,25946,6,0,L|448:182,1,50
320,160,26192,2,0,L|320:210,1,50
376,256,26438,1,0,0:0:0:0:
264,112,26807,1,0,0:0:0:0:
264,112,26930,6,0,L|224:208,1,100
160,224,27299,2,0,L|184:168,1,50,0|8,0:0|0:0,0:0:0:0:
232,48,27668,1,0,0:0:0:0:
360,32,27914,1,0,0:0:0:0:
272,176,28160,1,0,0:0:0:0:
272,176,28283,1,0,0:0:0:0:
272,176,28405,6,0,L|312:72,1,100
344,144,28774,2,0,P|384:176|432:168,1,100
488,128,29143,2,0,L|448:232,1,100
288,304,29635,2,0,L|312:256,1,50
400,176,29881,2,0,L|376:240,1,50
424,320,30127,2,0,L|368:288,1,50
320,184,30373,5,0,0:0:0:0:
216,72,30619,1,0,0:0:0:0:
184,256,30865,1,0,0:0:0:0:
304,96,31110,1,0,0:0:0:0:
128,128,31356,5,8,0:0:0:0:
280,272,31602,1,0,0:0:0:0:
216,72,31848,1,0,0:0:0:0:
184,256,32094,1,0,0:0:0:0:
184,256,32217,1,0,0:0:0:0:
184,256,32340,6,0,L|208:144,1,100
204,158,32709,1,0,0:0:0:0:
352,120,33078,1,0,0:0:0:0:
352,120,33201,1,0,0:0:0:0:
352,120,33324,2,0,B|336:184|280:208|280:208,1,100
184,256,33815,2,0,P|208:296|264:312,1,100
320,352,34184,1,0,0:0:0:0:
320,352,34307,6,0,P|328:304|296:248,1,100
256,104,34799,1,0,0:0:0:0:
184,256,35045,1,0,0:0:0:0:
376,160,35291,5,8,0:0:0:0:
288,232,35455,1,0,0:0:0:0:
256,104,35619,1,0,0:0:0:0:
184,256,35783,2,0,B|152:208|152:208|192:176|192:176|144:136|168:80,1,200,0|4,0:0|0:0,0:0:0:0:
288,232,36643,5,0,0:0:0:0:
288,232,36766,2,0,P|352:248|392:216,1,119.999996337891
424,152,37135,1,0,0:0:0:0:
424,152,37258,2,0,L|456:280,1,119.999996337891
504,176,37750,1,0,0:0:0:0:
464,64,37996,1,0,0:0:0:0:
464,64,38119,1,0,0:0:0:0:
464,64,38242,6,0,P|392:56|352:88,1,119.999996337891
296,40,38610,1,0,0:0:0:0:
296,40,38733,2,0,P|232:80|184:56,1,119.999996337891
136,24,39102,1,0,0:0:0:0:
136,24,39225,2,0,L|128:144,1,119.999996337891
200,288,39717,1,0,0:0:0:0:
328,160,39963,1,0,0:0:0:0:
328,304,40209,6,0,P|392:280|432:312,1,119.999996337891,4|0,0:0|0:0,0:0:0:0:
464,376,40578,1,0,0:0:0:0:
464,376,40701,2,0,L|472:248,1,119.999996337891
448,88,41192,1,0,0:0:0:0:
328,160,41438,1,0,0:0:0:0:
328,160,41561,1,0,0:0:0:0:
328,160,41684,2,0,P|256:176|216:128,1,119.999996337891
240,80,42053,1,0,0:0:0:0:
240,80,42176,6,0,P|168:104|152:160,1,119.999996337891
120,200,42545,1,0,0:0:0:0:
56,208,42668,1,0,0:0:0:0:
240,80,42914,1,0,0:0:0:0:
256,248,43160,5,0,0:0:0:0:
328,160,43405,1,0,0:0:0:0:
456,152,43651,2,0,L|448:288,1,119.999996337891
424,344,44020,1,0,0:0:0:0:
424,344,44143,6,0,P|360:360|312:336,1,119.999996337891,4|0,0:0|0:0,0:0:0:0:
200,240,44635,2,0,L|216:120,1,119.999996337891
168,64,45004,1,0,0:0:0:0:
168,64,45127,2,0,P|112:40|48:64,1,119.999996337891
96,224,45619,1,0,0:0:0:0:
192,320,45865,1,0,0:0:0:0:
192,320,45987,1,0,0:0:0:0:
192,320,46110,6,0,P|264:352|304:336,1,119.999996337891
432,248,46602,2,0,L|445:189,1,59.9999981689454
336,208,46848,2,0,L|321:266,1,59.9999981689454
304,336,47094,1,0,0:0:0:0:
400,200,47340,2,0,L|416:136,1,59.9999981689454
432,72,47586,1,0,0:0:0:0:
256,8,47832,1,0,0:0:0:0:
224,208,48078,5,0,0:0:0:0:
176,56,48324,2,0,L|232:104,1,59.9999981689454
280,144,48569,1,0,0:0:0:0:
176,156,48815,1,0,0:0:0:0:
112,176,49061,1,8,0:0:0:0:
256,192,50045,5,4,0:0:0:0:
136,256,50291,1,0,0:0:0:0:
136,256,50414,1,0,0:0:0:0:
136,256,50537,2,0,P|144:200|104:136,1,129.999994049073,8|0,0:0|0:0,0:0:0:0:
48,24,51028,2,0,B|104:56|176:80|176:80,1,129.999994049073
166,76,51397,1,0,0:0:0:0:
166,76,51520,1,8,0:0:0:0:
328,72,51766,1,0,0:0:0:0:
398,211,52012,6,0,P|358:261|296:264,1,129.999994049073
272,192,52381,1,0,0:0:0:0:
272,192,52504,2,0,L|232:320,1,129.999994049073,8|0,0:0|0:0,0:0:0:0:
233,316,52873,1,0,0:0:0:0:
233,316,52996,1,0,0:0:0:0:
104,336,53242,1,0,0:0:0:0:
128,280,53365,1,0,0:0:0:0:
152,224,53487,1,8,0:0:0:0:
176,168,53610,1,0,0:0:0:0:
200,112,53733,1,0,0:0:0:0:
240,160,53856,1,0,0:0:0:0:
240,160,53979,6,0,P|312:160|336:112,1,129.999994049073
304,48,54348,1,0,0:0:0:0:
304,48,54471,2,0,L|384:160,1,129.999994049073,8|0,0:0|0:0,0:0:0:0:
304,240,54963,1,0,0:0:0:0:
368,272,55086,1,0,0:0:0:0:
432,248,55209,1,0,0:0:0:0:
456,184,55332,2,0,L|408:112,1,64.9999970245363,0|8,0:0|0:0,0:0:0:0:
256,24,55701,1,0,0:0:0:0:
128,200,55946,5,0,0:0:0:0:
80,72,56110,1,0,0:0:0:0:
184,176,56274,1,0,0:0:0:0:
184,32,56438,1,8,0:0:0:0:
240,192,56602,1,0,0:0:0:0:
304,64,56766,1,0,0:0:0:0:
272,240,56930,1,0,0:0:0:0:
376,160,57094,1,0,0:0:0:0:
184,304,57258,1,0,0:0:0:0:
408,216,57422,5,8,0:0:0:0:
408,216,57545,1,0,0:0:0:0:
408,216,57668,1,0,0:0:0:0:
408,216,57791,1,0,0:0:0:0:
408,216,57914,6,0,P|352:152|280:184,1,173.333325398763,4|0,0:0|0:0,0:0:0:0:
256,272,58405,2,0,L|224:145,1,129.999994049073,8|0,0:0|0:0,0:0:0:0:
224,145,58774,1,0,0:0:0:0:
224,145,58897,1,0,0:0:0:0:
312,56,59143,1,0,0:0:0:0:
368,24,59266,1,0,0:0:0:0:
432,32,59389,1,8,0:0:0:0:
480,80,59512,1,0,0:0:0:0:
488,144,59635,1,0,0:0:0:0:
464,200,59758,1,0,0:0:0:0:
408,224,59881,6,0,P|336:208|312:144,1,129.999994049073
256,120,60250,2,0,L|296:48,2,64.9999970245363,0|8|0,0:0|0:0|0:0,0:0:0:0:
96,144,60742,1,0,0:0:0:0:
96,144,60865,2,0,L|168:16,1,129.999994049073
256,120,61356,1,8,0:0:0:0:
368,64,61602,1,0,0:0:0:0:
408,216,61848,6,0,L|352:344,1,129.999994049073
312,272,62217,1,0,0:0:0:0:
312,272,62340,2,0,P|256:288|176:248,1,129.999994049073,8|0,0:0|0:0,0:0:0:0:
80,152,62832,1,0,0:0:0:0:
144,128,62955,1,0,0:0:0:0:
208,152,63078,1,0,0:0:0:0:
240,208,63201,2,0,L|200:272,1,64.9999970245363,0|8,0:0|0:0,0:0:0:0:
80,152,63569,1,0,0:0:0:0:
344,112,63815,6,0,L|280:225,1,129.999994049073
328,280,64184,1,0,0:0:0:0:
328,280,64307,2,0,P|256:296|216:256,1,129.999994049073,8|0,0:0|0:0,0:0:0:0:
218,261,64676,1,0,0:0:0:0:
218,261,64799,1,0,0:0:0:0:
80,152,65045,1,0,0:0:0:0:
144,128,65168,1,0,0:0:0:0:
168,64,65291,1,8,0:0:0:0:
208,8,65414,1,0,0:0:0:0:
272,8,65537,1,0,0:0:0:0:
312,64,65660,1,0,0:0:0:0:
288,120,65783,5,4,0:0:0:0:
264,336,66151,1,0,0:0:0:0:
376,136,66520,1,0,0:0:0:0:
208,184,66766,5,4,0:0:0:0:
400,304,67135,1,0,0:0:0:0:
296,88,67504,1,0,0:0:0:0:
240,240,67750,5,12,0:0:0:0:
464,208,68119,1,0,0:0:0:0:
296,88,68487,1,8,0:0:0:0:
304,240,68733,5,12,0:0:0:0:
384,40,69102,1,8,0:0:0:0:
208,176,69471,1,0,0:0:0:0:
344,184,69717,5,4,0:0:0:0:
384,320,69963,1,0,0:0:0:0:
384,320,70086,1,0,0:0:0:0:
384,320,70209,2,0,P|304:344|264:312,1,129.999994049073,8|0,0:0|0:0,0:0:0:0:
216,288,70578,1,0,0:0:0:0:
152,304,70701,1,0,0:0:0:0:
8,360,70946,1,0,0:0:0:0:
16,296,71069,1,0,0:0:0:0:
24,232,71192,1,8,0:0:0:0:
32,168,71315,1,0,0:0:0:0:
40,104,71438,1,0,0:0:0:0:
88,144,71561,1,0,0:0:0:0:
88,144,71684,6,0,P|136:96|192:120,1,129.999994049073
232,56,72053,2,0,L|264:136,1,64.9999970245363,0|8,0:0|0:0,0:0:0:0:
344,224,72422,1,0,0:0:0:0:
344,224,72545,1,0,0:0:0:0:
344,224,72668,2,0,P|400:240|432:184,1,129.999994049073
448,112,73037,1,0,0:0:0:0:
448,112,73160,2,0,L|464:256,1,129.999994049073,8|0,0:0|0:0,0:0:0:0:
344,224,73651,5,0,0:0:0:0:
216,272,73897,1,0,0:0:0:0:
216,272,74020,1,0,0:0:0:0:
216,272,74143,2,0,B|232:208|232:208|216:128,1,129.999994049073,8|0,0:0|0:0,0:0:0:0:
136,56,74635,1,0,0:0:0:0:
200,32,74758,1,0,0:0:0:0:
264,56,74881,1,0,0:0:0:0:
400,136,75127,2,0,L|432:264,1,129.999994049073,8|0,0:0|0:0,0:0:0:0:
312,152,75619,5,0,0:0:0:0:
200,32,75783,1,0,0:0:0:0:
152,200,75946,1,0,0:0:0:0:
304,80,76110,1,8,0:0:0:0:
136,88,76274,1,0,0:0:0:0:
280,232,76438,1,0,0:0:0:0:
136,88,76602,1,0,0:0:0:0:
200,280,76766,5,0,0:0:0:0:
312,152,76930,1,0,0:0:0:0:
336,296,77094,1,8,0:0:0:0:
336,296,77217,1,0,0:0:0:0:
336,296,77340,1,0,0:0:0:0:
336,296,77463,1,0,0:0:0:0:
336,296,77586,6,0,P|392:264|456:288,1,129.999994049073,4|0,0:0|0:0,0:0:0:0:
480,352,77955,1,0,0:0:0:0:
480,352,78078,2,0,L|448:224,1,129.999994049073,8|0,0:0|0:0,0:0:0:0:
432,160,78446,1,0,0:0:0:0:
416,96,78569,1,0,0:0:0:0:
256,64,78815,1,0,0:0:0:0:
272,128,78938,1,0,0:0:0:0:
288,192,79061,1,8,0:0:0:0:
304,256,79184,1,0,0:0:0:0:
320,320,79307,1,0,0:0:0:0:
254,305,79430,1,0,0:0:0:0:
254,305,79553,6,0,P|192:308|160:256,1,129.999994049073
112,200,79922,2,0,L|88:272,2,64.9999970245363,0|8|0,0:0|0:0|0:0,0:0:0:0:
216,96,80414,1,0,0:0:0:0:
216,96,80537,1,0,0:0:0:0:
328,192,80783,1,0,0:0:0:0:
464,144,81028,2,0,P|424:104|352:120,1,129.999994049073,8|0,0:0|0:0,0:0:0:0:
376,312,81520,6,0,L|326:188,1,129.999994049073
256,216,81889,1,0,0:0:0:0:
256,216,82012,2,0,P|304:264|376:232,1,129.999994049073,8|0,0:0|0:0,0:0:0:0:
424,112,82504,2,0,P|384:64|320:72,1,129.999994049073,0|0,0:0|0:0,0:0:0:0:
264,24,82873,1,0,0:0:0:0:
264,24,82996,2,0,L|240:152,1,129.999994049073,8|0,0:0|0:0,0:0:0:0:
254,273,83487,5,0,0:0:0:0:
368,264,83733,1,0,0:0:0:0:
368,264,83856,1,0,0:0:0:0:
368,264,83979,2,0,P|408:320|464:320,1,129.999994049073,8|0,0:0|0:0,0:0:0:0:
496,192,84471,1,8,0:0:0:0:
496,192,84594,1,0,0:0:0:0:
360,144,84840,2,0,B|409:178|409:178|424:120|480:112,1,150,0|0,0:0|0:0,0:0:0:0:
400,24,85455,5,4,0:0:0:0:
184,112,85824,1,0,0:0:0:0:
368,264,86192,1,0,0:0:0:0:
312,120,86438,5,12,0:0:0:0:
456,240,86807,1,8,0:0:0:0:
400,24,87176,1,8,0:0:0:0:
312,120,87422,5,12,0:0:0:0:
