osu file format v13

[General]
AudioFilename: ED1.mp3
AudioLeadIn: 1000
PreviewTime: 49430
Countdown: 1
SampleSet: Soft
StackLeniency: 0.7
Mode: 0
LetterboxInBreaks: 0
WidescreenStoryboard: 0

[Editor]
Bookmarks: 2340,3815,5783,7750,9717,11192,12176,13160,14143,15127,16110,17094,18078,18569,20045,23487,27422,31356,35291,49061,50537,51520,52504,53487,54471,55455,56438,57422,58405,59389,60373,61356,62340,63324,64307,65291,67750,68487,68733,69102,70209,71192,72176,73160,74143,75127,76110,77094,78078,79061,80045,81028,82012,82996,83979,84471,86438,86807,87176,87422
DistanceSpacing: 1.2
BeatDivisor: 4
GridSize: 8
TimelineZoom: 1

[Metadata]
Title:Koi wa Milk Tea (TV Size)
TitleUnicode:恋はみるくてぃ (TV Size)
Artist:petit milady
ArtistUnicode:petit milady
Creator:FastBoy
Version:Easy
Source:六畳間の侵略者!?
Tags:rokujouma no shinryakusha ending ed プチミレディ ZERO-A kotaro sanae yurika kiriha theiamillis gre fortorthe ruthkhania nye pardomshiha
BeatmapID:477886
BeatmapSetID:201880

[Difficulty]
HPDrainRate:3
CircleSize:3
OverallDifficulty:2
ApproachRate:3
SliderMultiplier:1.2
SliderTickRate:2

[Events]
//Background and Video events
Video,0,"koi wa milk tea.flv"
0,0,"kiriha.jpg",0,0
//Break Periods
//Storyboard Layer 0 (Background)
//Storyboard Layer 1 (Fail)
//Storyboard Layer 2 (Pass)
//Storyboard Layer 3 (Foreground)
//Storyboard Sound Samples
//Background Colour Transformations
3,100,163,162,255

[TimingPoints]
865,491.803278688525,4,2,1,80,1,0
10701,-100,4,2,1,90,0,0
11069,-100,4,2,2,90,0,0
11438,-100,4,2,1,90,0,0
13037,-100,4,2,2,90,0,0
13405,-100,4,2,1,90,0,0
15004,-100,4,2,2,90,0,0
15373,-100,4,2,1,90,0,0
16971,-100,4,2,2,90,0,0
17586,-100,4,2,1,90,0,0
17955,-100,4,2,2,90,0,0
19799,-100,4,2,1,50,0,0
20537,-100,4,2,1,60,0,0
35291,-100,4,2,1,70,0,0
36274,-100,4,2,1,80,0,0
39225,-100,4,2,1,70,0,0
40209,-100,4,2,1,80,0,0
43160,-100,4,2,1,85,0,0
43897,-100,4,2,1,70,0,0
44143,-100,4,2,1,80,0,0
46110,-100,4,2,1,85,0,0
47094,-100,4,2,1,90,0,0
50045,-100,4,2,1,100,0,1
52381,-100,4,2,2,100,0,1
52750,-100,4,2,1,100,0,1
65168,-100,4,2,2,90,0,1
65537,-100,4,2,1,90,0,1
65783,-100,4,2,1,100,0,1
69655,-100,4,2,1,100,0,0
69717,-100,4,2,1,100,0,1
84840,-100,4,2,1,80,0,1
85455,-100,4,2,1,100,0,1
87422,-100,4,2,1,100,0,0

[Colours]
Combo1 : 255,70,70
Combo2 : 154,53,255
Combo3 : 255,128,0
Combo4 : 53,53,255

[HitObjects]
256,192,865,12,4,2832,0:0:0:0:
104,160,3324,5,0,0:0:0:0:
176,280,3815,2,0,P|240:296|296:272,1,120,8|0,0:0|0:0,0:0:0:0:
328,136,4799,2,0,B|384:120|384:120|448:136,1,120
488,272,5783,2,0,P|424:288|368:272,1,120,8|0,0:0|0:0,0:0:0:0:
248,352,6766,6,0,L|200:232,1,120
136,368,7750,2,0,L|88:248,1,120
64,112,8733,2,0,B|40:72|40:72|48:16,2,90,0|0|0,0:0|0:0|0:0,0:0:0:0:
128,80,9717,2,0,P|192:56|248:88,1,120,8|0,0:0|0:0,0:0:0:0:
320,192,10701,6,0,L|336:104,2,90,4|0|0,0:0|0:0|0:0,0:0:0:0:
256,232,11684,2,0,P|200:256|136:224,1,120,0|8,0:0|0:0,0:0:0:0:
112,96,12668,2,0,B|152:80|152:80|200:96,2,90,0|0|0,0:0|0:0|0:0,0:0:0:0:
40,72,13651,2,0,L|16:192,1,120,0|8,0:0|0:0,0:0:0:0:
120,288,14635,2,0,L|136:200,2,90,0|0|0,0:0|0:0|0:0,0:0:0:0:
192,288,15619,2,0,B|248:312|248:312|320:288,1,120,0|8,0:0|0:0,0:0:0:0:
384,176,16602,6,0,P|432:168|480:176,2,90,0|0|0,0:0|0:0|0:0,0:0:0:0:
320,208,17586,2,0,P|272:216|224:208,2,90,0|0|0,0:0|0:0|0:0,0:0:0:0:
320,136,18569,1,8,0:0:0:0:
40,80,20045,5,8,0:0:0:0:
112,208,20537,6,0,B|96:248|96:248|104:312,2,90,4|0|0,0:0|0:0|0:0,0:0:0:0:
184,232,21520,2,0,P|240:216|304:240,1,120
440,272,22504,1,0,0:0:0:0:
488,136,22996,2,0,L|464:16|464:16,1,120,0|8,0:0|0:0,0:0:0:0:
360,112,23979,1,0,0:0:0:0:
224,72,24471,6,0,P|176:56|120:72,2,90,0|0|0,0:0|0:0|0:0,0:0:0:0:
256,136,25455,2,0,B|272:192|272:192|320:240,1,120
288,376,26438,1,0,0:0:0:0:
144,368,26930,2,0,B|100:324|100:324|44:308,1,120
64,168,27914,1,0,0:0:0:0:
208,152,28405,6,0,B|200:104|200:104|216:56,2,90,0|0|0,0:0|0:0|0:0,0:0:0:0:
280,136,29389,2,0,P|336:160|392:136,1,120
472,256,30373,1,0,0:0:0:0:
392,376,30865,2,0,P|328:360|272:384,1,120,0|8,0:0|0:0,0:0:0:0:
232,320,31602,2,0,L|184:392,2,60,0|0|0,0:0|0:0|0:0,0:0:0:0:
176,272,32340,6,0,B|144:240|144:240|136:176,2,90,0|0|0,0:0|0:0|0:0,0:0:0:0:
216,208,33324,2,0,P|296:224|344:200,1,120
392,80,34307,1,0,0:0:0:0:
464,80,34553,2,0,L|496:16,2,60,0|0|0,0:0|0:0|0:0,0:0:0:0:
424,144,35291,6,0,B|440:200|440:200|480:248,2,120,8|0|4,0:0|0:0|0:0,0:0:0:0:
336,256,36766,2,0,P|278:267|224:242,1,120
256,104,37750,2,0,L|200:144,1,60
160,200,38242,2,0,B|112:208|112:208|56:200,2,90,0|0|0,0:0|0:0|0:0,0:0:0:0:
224,243,39225,6,0,L|224:363,2,120,0|0|4,0:0|0:0|0:0,0:0:0:0:
312,128,40701,2,0,P|240:104|200:128,1,120
96,32,41684,2,0,L|72:104,1,60
136,128,42176,2,0,L|152:200,2,60,0|0|0,0:0|0:0|0:0,0:0:0:0:
48,248,43160,2,0,B|32:312|32:312|40:376,1,120
176,328,44143,6,0,P|240:312|288:344,1,120,4|0,0:0|0:0,0:0:0:0:
424,296,45127,2,0,L|440:176,1,120
352,64,46110,2,0,P|288:32|240:40,1,120
168,24,46848,1,0,0:0:0:0:
112,72,47094,6,0,L|96:200,1,120
184,304,48078,2,0,B|224:320|224:320|280:320,2,90,0|0|0,0:0|0:0|0:0,0:0:0:0:
112,296,49061,1,8,0:0:0:0:
368,168,50045,6,0,L|328:296,1,120,4|8,0:0|0:0,0:0:0:0:
232,176,51028,2,0,L|272:56,1,120,0|8,0:0|0:0,0:0:0:0:
144,136,52012,2,0,B|88:120|88:120|48:128,2,90,0|0|0,0:0|0:0|0:0,0:0:0:0:
200,88,52996,2,0,P|256:128|320:112,1,120,0|8,0:0|0:0,0:0:0:0:
432,64,53979,6,0,L|448:184,1,120,0|8,0:0|0:0,0:0:0:0:
384,312,54963,2,0,P|328:328|272:304,1,120,0|8,0:0|0:0,0:0:0:0:
280,160,55946,6,0,B|240:144|232:104|232:104|184:72,2,120,0|8|0,0:0|0:0|0:0,0:0:0:0:
368,48,57422,1,8,0:0:0:0:
488,128,57914,6,0,L|472:256,1,120,4|8,0:0|0:0,0:0:0:0:
344,304,58897,2,0,P|272:352|240:336,1,120,0|8,0:0|0:0,0:0:0:0:
176,352,59635,1,0,0:0:0:0:
112,320,59881,2,0,L|72:200,1,120,0|8,0:0|0:0,0:0:0:0:
184,120,60865,2,0,L|224:240,1,120,0|8,0:0|0:0,0:0:0:0:
368,216,61848,6,0,B|432:216|432:216|488:192,1,120,0|8,0:0|0:0,0:0:0:0:
488,120,62586,1,0,0:0:0:0:
448,56,62832,2,0,P|376:48|336:88,1,120,0|8,0:0|0:0,0:0:0:0:
208,24,63815,6,0,L|224:152,1,120,0|8,0:0|0:0,0:0:0:0:
96,216,64799,2,0,L|80:120,2,90,0|0|0,0:0|0:0|0:0,0:0:0:0:
160,240,65783,6,0,B|208:248|208:248|272:248,2,90,4|0|0,0:0|0:0|0:0,0:0:0:0:
104,280,66766,1,4,0:0:0:0:
40,368,67135,2,0,B|24:328|24:328|24:280,1,90,0|0,0:0|0:0,0:0:0:0:
24,208,67750,5,12,0:0:0:0:
96,128,68119,2,0,B|144:112|144:112|200:112,1,90,0|8,0:0|0:0,0:0:0:0:
256,112,68733,1,12,0:0:0:0:
320,200,69102,2,0,B|272:216|272:216|216:216,1,90,8|0,0:0|0:0,0:0:0:0:
160,216,69717,6,0,L|176:336,1,120,4|8,0:0|0:0,0:0:0:0:
320,368,70701,2,0,L|304:240,1,120,0|8,0:0|0:0,0:0:0:0:
440,296,71684,2,0,P|488:264|480:192,1,120,0|8,0:0|0:0,0:0:0:0:
480,136,72422,1,0,0:0:0:0:
424,88,72668,2,0,L|304:64,1,120,0|8,0:0|0:0,0:0:0:0:
160,64,73651,6,0,P|104:40|48:64,1,120,0|8,0:0|0:0,0:0:0:0:
24,128,74389,1,0,0:0:0:0:
48,192,74635,2,0,P|104:216|168:184,1,120,0|8,0:0|0:0,0:0:0:0:
280,120,75619,6,0,B|272:160|288:200|288:200|256:232,2,120,0|8|0,0:0|0:0|0:0,0:0:0:0:
424,144,77094,1,8,0:0:0:0:
496,264,77586,6,0,P|440:304|392:288,1,120,4|8,0:0|0:0,0:0:0:0:
256,312,78569,2,0,P|200:296|152:336,1,120,0|8,0:0|0:0,0:0:0:0:
64,216,79553,2,0,L|32:88,1,120,0|8,0:0|0:0,0:0:0:0:
80,40,80291,1,0,0:0:0:0:
136,88,80537,2,0,P|200:112|248:80,1,120,0|8,0:0|0:0,0:0:0:0:
256,232,81520,6,0,P|308:207|361:232,1,120,0|8,0:0|0:0,0:0:0:0:
416,280,82257,1,0,0:0:0:0:
464,224,82504,2,0,L|434:107,1,120,0|8,0:0|0:0,0:0:0:0:
288,88,83487,6,0,B|232:64|232:64|160:80,1,120,0|8,0:0|0:0,0:0:0:0:
32,104,84471,2,0,L|53:16,2,90,8|0|0,0:0|0:0|0:0,0:0:0:0:
80,152,85455,6,0,P|104:192|144:207,2,90,4|0|0,0:0|0:0|0:0,0:0:0:0:
152,136,86438,2,0,P|200:160|216:200,2,90,12|8|8,0:0|0:0|0:0,0:0:0:0:
104,192,87422,1,12,0:0:0:0:
