osu file format v14

[General]
AudioFilename: ED1.mp3
AudioLeadIn: 0
PreviewTime: 49274
Countdown: 0
SampleSet: Normal
StackLeniency: 0.7
Mode: 2
LetterboxInBreaks: 0
WidescreenStoryboard: 0

[Editor]
DistanceSpacing: 1.5
BeatDivisor: 4
GridSize: 4
TimelineZoom: 1.6

[Metadata]
Title:Koi wa Milk Tea
TitleUnicode:恋はみるくてぃー
Artist:petit milady
ArtistUnicode:petit milady
Creator:-[ Asuna ]-
Version:Salad
Source:六畳間の侵略者!?
Tags:rokujouma no shinryakusha!? プチミレディ Zero-A ed ending
BeatmapID:816497
BeatmapSetID:361498

[Difficulty]
HPDrainRate:4
CircleSize:3
OverallDifficulty:7
ApproachRate:7
SliderMultiplier:1.2
SliderTickRate:1

[Events]
//Background and Video events
0,0,"BG.jpg",0,0
//Break Periods
//Storyboard Layer 0 (Background)
//Storyboard Layer 1 (Fail)
//Storyboard Layer 2 (Pass)
//Storyboard Layer 3 (Foreground)
//Storyboard Sound Samples

[TimingPoints]
586,491.803278688525,4,1,1,60,1,0
2675,-100,4,1,2,65,0,0
10421,-100,4,1,1,60,0,0
10544,-100,4,1,2,60,0,0
16323,-100,4,1,2,65,0,0
18290,-100,4,1,1,70,0,0
19520,-100,4,1,1,60,0,0
20257,-100,4,1,1,50,0,0
20380,-100,4,1,3,50,0,0
22716,-100,4,1,4,50,0,0
23208,-100,4,1,3,50,0,0
26651,-100,4,1,4,50,0,0
27143,-100,4,1,3,50,0,0
30339,-100,4,1,4,50,0,0
31077,-100,4,1,3,50,0,0
35503,-100,4,1,3,65,0,0
35995,-100,4,1,1,60,0,0
36118,-100,4,1,2,60,0,0
37716,-100,4,1,4,60,0,0
37962,-100,4,1,2,60,0,0
43864,-100,4,1,1,60,0,0
43987,-100,4,1,2,60,0,0
45831,-100,4,1,2,70,0,0
49766,-100,4,1,1,70,0,1
49889,-100,4,1,2,70,0,1
57634,-100,4,1,1,70,0,1
57757,-100,4,1,2,70,0,1
65504,-100,4,1,1,60,0,0
69438,-100,4,1,1,70,0,1
69561,-100,4,1,2,70,0,1
77306,-100,4,1,1,70,0,1
77429,-100,4,1,2,70,0,1
83208,-100,4,1,1,70,0,1
84192,-100,4,2,0,70,0,1
85176,-100,4,1,1,60,0,0

[Colours]
Combo1 : 255,206,205
Combo2 : 94,242,192
Combo3 : 236,163,253
Combo4 : 147,186,253

[HitObjects]
256,192,586,12,0,2061,0:0:0:0:
148,280,2553,6,0,L|52:264,2,90,0|10|10,0:0|0:2|0:2,0:0:0:0:
240,280,3536,1,14,0:0:0:0:
60,268,4028,1,2,1:0:0:0:
364,280,4520,6,0,L|460:264,2,90,10|10|10,0:0|0:0|0:0,0:0:0:0:
272,280,5504,1,14,0:0:0:0:
456,268,5995,1,2,0:2:0:0:
300,180,6487,6,0,L|208:156,2,90,10|10|10,0:2|0:2|0:2,0:0:0:0:
452,192,7471,2,0,L|352:272,1,120,14|2,0:0|0:2,0:0:0:0:
176,184,8454,6,0,L|268:208,2,90,10|10|10,0:0|0:0|0:0,0:0:0:0:
24,172,9438,2,0,L|124:92,1,120,14|10,0:0|0:2,0:0:0:0:
448,128,10422,6,0,L|364:176,1,90,6|10,0:2|0:2,0:0:0:0:
342,185,10913,1,4,0:0:0:0:
492,192,11159,2,0,L|504:252,1,60,10|10,0:2|0:0,0:0:0:0:
324,264,11897,1,14,0:0:0:0:
88,288,12389,6,0,L|168:208,1,90,10|10,0:0|0:0,0:0:0:0:
171,201,12881,1,4,0:0:0:0:
20,192,13126,2,0,L|8:132,1,60,10|10,0:0|0:0,0:0:0:0:
188,120,13864,1,6,0:2:0:0:
364,160,14356,6,0,P|396:212|380:244,1,90,10|8,0:2|0:2,0:0:0:0:
365,253,14848,1,6,0:2:0:0:
272,156,15094,1,10,0:2:0:0:
180,156,15340,1,10,0:0:0:0:
360,156,15831,1,6,0:2:0:0:
88,160,16323,6,0,P|60:212|76:248,1,90,10|10,0:0|0:0,0:0:0:0:
88,260,16815,1,4,0:0:0:0:
180,156,17061,1,10,0:0:0:0:
392,156,17307,2,0,L|472:152,2,60,10|8|6,0:0|0:0|0:2,0:0:0:0:
300,156,18045,1,10,0:0:0:0:
92,164,18290,5,14,0:0:0:0:
256,192,18782,12,8,19766,0:0:0:0:
184,292,20258,6,0,L|280:284,2,90,6|10|10,0:2|0:2|0:2,0:0:0:0:
8,288,21241,2,0,L|124:256,1,120,14|10,0:2|0:2,0:0:0:0:
388,256,22225,5,10,0:2:0:0:
224,184,22717,2,0,L|160:184,2,60,2|2|4,0:3|0:3|0:2,0:0:0:0:
336,292,24192,6,0,L|240:284,2,90,10|10|10,0:2|0:2|0:2,0:0:0:0:
512,288,25176,2,0,L|396:256,1,120,14|10,0:2|0:2,0:0:0:0:
132,256,26159,5,10,0:2:0:0:
296,184,26651,2,0,L|360:168,2,60,2|2|4,0:3|0:3|0:2,0:0:0:0:
116,192,27635,1,4,0:2:0:0:
416,192,28126,6,0,L|512:200,2,90,10|10|10,0:2|0:2|0:2,0:0:0:0:
232,184,29110,2,0,L|308:88,1,120,14|10,0:2|0:2,0:0:0:0:
40,88,30094,6,0,L|16:232,1,120,10|2,0:2|0:3,0:0:0:0:
108,216,30831,2,0,L|128:276,1,60,2|4,0:3|0:2,0:0:0:0:
300,272,31569,1,4,0:2:0:0:
120,300,32061,6,0,L|33:279,2,90,10|10|10,0:2|0:2|0:2,0:0:0:0:
300,288,33045,2,0,L|432:244,1,120,14|10,0:2|0:2,0:0:0:0:
256,192,34028,12,14,35504,0:2:0:0:
128,232,35995,6,0,L|56:164,1,90,6|8,0:0|0:0,0:0:0:0:
62,170,36487,1,4,0:0:0:0:
212,160,36733,2,0,L|224:96,1,60,10|8,0:0|0:0,0:0:0:0:
40,188,37471,2,0,L|28:248,1,60,4|2,0:2|0:3,0:0:0:0:
240,244,37963,6,0,L|180:176,1,90,10|10,0:2|0:2,0:0:0:0:
180,176,38454,1,4,0:2:0:0:
272,172,38700,1,10,0:2:0:0:
444,176,38946,2,0,P|500:136|496:84,1,120,10|6,0:2|0:2,0:0:0:0:
416,112,39684,1,0,0:0:0:0:
176,48,39930,6,0,L|144:148,1,90,10|8,0:0|0:0,0:0:0:0:
151,139,40422,1,4,0:0:0:0:
304,144,40667,2,0,L|312:208,1,60,10|8,0:0|0:0,0:0:0:0:
132,220,41405,2,0,L|124:160,1,60,6|2,0:2|0:3,0:0:0:0:
336,172,41897,6,0,L|428:168,1,90,2|8,0:2|0:0,0:0:0:0:
425,168,42389,1,6,0:2:0:0:
336,172,42635,1,0,0:0:0:0:
184,176,42881,2,0,L|88:168,1,90,10|0,0:2|0:0,0:0:0:0:
94,168,43372,2,0,L|160:172,1,60,14|10,0:2|0:3,0:0:0:0:
396,236,43864,6,0,L|452:156,1,90,6|10,0:0|0:2,0:0:0:0:
437,158,44356,1,4,0:0:0:0:
284,160,44602,2,0,L|264:96,1,60,10|10,0:0|0:2,0:0:0:0:
80,180,45340,2,0,L|106:233,1,60,4|2,0:0|0:2,0:0:0:0:
332,220,45831,6,0,L|424:220,1,90,10|0,0:0|0:0,0:0:0:0:
360,220,46323,2,0,L|260:192,1,90,4|0,0:0|0:0,0:0:0:0:
228,196,46815,5,14,0:0:0:0:
411,201,47184,1,6,0:0:0:0:
187,197,47553,1,14,0:0:0:0:
276,196,47799,6,0,L|368:196,2,90,10|0|0,0:0|0:0|0:0,0:0:0:0:
187,197,48782,1,4,0:0:0:0:
132,240,49766,5,6,0:2:0:0:
224,240,50012,2,0,L|224:204,2,30,0|8|6,0:0|0:0|0:2,0:0:0:0:
312,244,50504,1,8,0:0:0:0:
464,248,50749,2,0,L|344:248,1,120,10|6,0:2|0:2,0:0:0:0:
252,248,51487,1,2,0:3:0:0:
40,244,51733,6,0,L|132:244,1,90,10|10,0:2|0:2,0:0:0:0:
128,244,52225,1,4,0:0:0:0:
220,244,52471,1,8,0:0:0:0:
444,208,52717,2,0,L|356:124,1,120,8|6,0:0|0:2,0:0:0:0:
264,124,53454,1,2,0:2:0:0:
84,128,53700,6,0,L|160:184,1,90,10|10,0:2|0:2,0:0:0:0:
184,200,54192,1,4,0:0:0:0:
276,192,54438,1,10,0:2:0:0:
96,280,54684,2,0,B|12:280|12:280|24:280,1,90,2|10,0:2|0:2,0:0:0:0:
20,282,55176,1,4,0:0:0:0:
108,300,55422,1,2,0:3:0:0:
320,264,55667,6,0,L|368:268,2,40,10|10|10,0:2|0:2|0:2,0:0:0:0:
236,256,56159,2,0,L|192:256,2,40,14|10|10,0:2|0:2|0:2,0:0:0:0:
156,256,56651,1,10,0:2:0:0:
80,304,56815,1,8,0:3:0:0:
160,304,56979,1,8,0:3:0:0:
240,308,57143,1,6,0:2:0:0:
240,308,57389,1,2,0:2:0:0:
420,288,57635,6,0,P|432:244|420:200,1,90,6|8,0:2|0:0,0:0:0:0:
376,196,58126,2,0,L|248:192,1,120,6|10,0:2|0:2,0:0:0:0:
152,188,58864,1,0,0:0:0:0:
332,188,59110,2,0,L|348:128,1,60,6|2,0:2|0:2,0:0:0:0:
136,124,59602,6,0,L|56:176,1,90,10|10,0:2|0:2,0:0:0:0:
105,208,60094,1,4,0:0:0:0:
196,212,60340,1,8,0:0:0:0:
408,208,60586,2,0,L|360:292,1,90,10|8,0:2|0:0,0:0:0:0:
320,284,61077,1,6,0:2:0:0:
228,284,61323,1,2,0:2:0:0:
440,296,61569,6,0,L|504:228,1,90,10|10,0:2|0:2,0:0:0:0:
456,224,62061,2,0,L|392:220,1,60,4|10,0:0|0:2,0:0:0:0:
212,212,62553,2,0,L|152:136,1,90,10|10,0:2|0:2,0:0:0:0:
200,140,63045,2,0,L|268:144,1,60,4|2,0:0|0:3,0:0:0:0:
440,144,63536,6,0,L|192:144,1,240,10|10,0:2|0:2,0:0:0:0:
320,144,64766,2,0,L|388:144,1,60,0|4,0:0|0:0,0:0:0:0:
256,192,65504,12,6,68454,0:0:0:0:
408,240,69438,5,6,0:2:0:0:
316,240,69684,2,0,L|280:240,2,30,0|8|6,0:0|0:0|0:2,0:0:0:0:
408,240,70176,1,8,0:0:0:0:
256,240,70422,2,0,L|136:240,1,120,10|6,0:2|0:2,0:0:0:0:
44,240,71159,1,2,0:3:0:0:
256,244,71405,6,0,L|344:220,1,90,10|10,0:2|0:2,0:0:0:0:
342,220,71897,1,4,0:0:0:0:
248,216,72143,1,8,0:0:0:0:
40,224,72389,2,0,L|32:124,1,90,8|8,0:0|0:0,0:0:0:0:
36,133,72881,1,6,0:2:0:0:
156,132,73126,1,2,0:2:0:0:
368,136,73372,6,0,L|292:192,1,90,10|10,0:2|0:2,0:0:0:0:
295,189,73864,1,4,0:0:0:0:
204,192,74110,1,10,0:2:0:0:
384,188,74356,2,0,P|404:232|376:272,1,90,2|10,0:2|0:2,0:0:0:0:
384,188,74848,1,4,0:0:0:0:
292,184,75094,1,2,0:3:0:0:
84,184,75340,6,0,L|48:224,2,40,10|10|0,0:2|0:2|0:0,0:0:0:0:
164,184,75831,2,0,L|184:224,2,40,14|10|0,0:2|0:2|0:0,0:0:0:0:
248,188,76323,2,0,L|266:229,2,40,10|8|0,0:2|0:3|0:0,0:0:0:0:
164,184,76815,1,6,0:2:0:0:
80,152,77061,1,2,0:2:0:0:
292,144,77307,6,0,L|384:120,1,90,6|8,0:2|0:0,0:0:0:0:
379,121,77799,1,6,0:2:0:0:
288,116,78045,1,8,0:0:0:0:
76,88,78290,2,0,L|16:192,1,120,10|6,0:2|0:2,0:0:0:0:
108,196,79028,1,2,0:2:0:0:
320,196,79274,6,0,P|392:196|420:204,1,90,10|10,0:2|0:2,0:0:0:0:
408,200,79766,1,4,0:0:0:0:
320,208,80012,1,8,0:0:0:0:
108,240,80258,2,0,L|24:152,1,120,10|6,0:2|0:2,0:0:0:0:
116,144,80995,1,2,0:2:0:0:
328,144,81241,6,0,L|424:176,1,90,10|10,0:2|0:2,0:0:0:0:
456,188,81733,1,4,0:0:0:0:
364,188,81979,1,10,0:2:0:0:
180,192,82225,2,0,L|88:248,1,90,10|10,0:2|0:2,0:0:0:0:
64,264,82717,1,4,0:0:0:0:
152,272,82963,1,2,0:3:0:0:
368,272,83208,6,0,L|128:272,1,240,10|10,0:2|0:0,0:0:0:0:
256,192,85176,12,6,87143,0:0:0:0:
