osu file format v14

[General]
AudioFilename: ED1.mp3
AudioLeadIn: 0
PreviewTime: 49274
Countdown: 0
SampleSet: Normal
StackLeniency: 0.7
Mode: 2
LetterboxInBreaks: 0
WidescreenStoryboard: 1

[Editor]
DistanceSpacing: 1
BeatDivisor: 4
GridSize: 4
TimelineZoom: 1.7

[Metadata]
Title:Koi wa Milk Tea
TitleUnicode:恋はみるくてぃー
Artist:petit milady
ArtistUnicode:petit milady
Creator:-[ Asuna ]-
Version:Platter
Source:六畳間の侵略者!?
Tags:rokujouma no shinryakusha!? プチミレディ Zero-A ed ending
BeatmapID:1277123
BeatmapSetID:361498

[Difficulty]
HPDrainRate:5
CircleSize:3.5
OverallDifficulty:8
ApproachRate:8
SliderMultiplier:1.5
SliderTickRate:2

[Events]
//Background and Video events
0,0,"BG.jpg",0,0
//Break Periods
//Storyboard Layer 0 (Background)
//Storyboard Layer 1 (Fail)
//Storyboard Layer 2 (Pass)
//Storyboard Layer 3 (Foreground)
//Storyboard Sound Samples

[TimingPoints]
586,491.803278688525,4,1,1,60,1,0
2675,-100,4,1,2,65,0,0
10421,-100,4,1,1,60,0,0
10544,-100,4,1,2,60,0,0
14110,-100,4,1,1,60,0,0
14356,-100,4,1,2,60,0,0
16323,-100,4,1,2,65,0,0
18290,-100,4,1,1,70,0,0
19520,-100,4,1,1,60,0,0
20257,-100,4,1,1,50,0,0
20380,-100,4,1,3,50,0,0
22716,-100,4,1,4,50,0,0
23208,-100,4,1,3,50,0,0
26651,-100,4,1,4,50,0,0
27143,-100,4,1,3,50,0,0
30339,-100,4,1,4,50,0,0
31077,-100,4,1,3,50,0,0
35503,-100,4,1,3,65,0,0
35995,-100,4,1,1,60,0,0
36118,-100,4,1,2,60,0,0
37716,-100,4,1,4,60,0,0
37962,-100,4,1,2,60,0,0
43864,-100,4,1,1,60,0,0
43987,-100,4,1,2,60,0,0
45831,-100,4,1,2,70,0,0
49274,-100,4,1,2,60,0,0
49766,-100,4,1,1,70,0,1
49889,-100,4,1,2,70,0,1
57634,-100,4,1,1,70,0,1
57757,-100,4,1,2,70,0,1
63413,-100,4,1,4,70,0,1
63536,-100,4,1,2,70,0,1
65504,-100,4,1,1,60,0,0
69438,-100,4,1,1,70,0,1
69561,-100,4,1,2,70,0,1
77306,-100,4,1,1,70,0,1
77429,-100,4,1,2,70,0,1
83208,-100,4,1,1,70,0,1
84192,-100,4,2,0,70,0,1
85176,-100,4,1,1,60,0,0

[Colours]
Combo1 : 255,206,205
Combo2 : 94,242,192
Combo3 : 236,163,253
Combo4 : 147,186,253

[HitObjects]
256,192,586,12,0,2061,0:0:0:0:
168,208,2553,6,0,L|52:208,2,112.5,0|10|10,0:0|0:2|0:2,0:0:0:0:
356,212,3536,2,0,P|396:152|364:88,1,150,14|2,0:0|1:0,0:0:0:0:
248,64,4274,1,2,0:2:0:0:
60,64,4520,6,0,L|176:68,2,112.5,10|10|10,0:0|0:0|0:0,0:0:0:0:
248,64,5504,2,0,P|288:136|256:196,1,150,14|2,0:0|0:2,0:0:0:0:
32,228,6487,6,0,L|8:152,1,75,10|0,0:2|0:0,0:0:0:0:
84,148,6856,2,0,L|104:72,1,75,10|0,0:2|0:0,0:0:0:0:
200,76,7225,2,0,L|180:4,1,75,10|14,0:2|0:0,0:0:0:0:
476,52,7963,1,2,0:2:0:0:
252,116,8454,6,0,L|280:192,1,75,10|0,0:0|0:0,0:0:0:0:
184,188,8823,2,0,L|168:268,1,75,10|0,0:0|0:0,0:0:0:0:
264,268,9192,2,0,L|336:288,1,75,10|14,0:0|0:0,0:0:0:0:
200,288,9684,1,0,0:0:0:0:
68,268,9930,2,0,L|20:264,2,37.5,10|2|2,0:2|0:2|0:2,0:0:0:0:
392,168,10422,6,0,P|444:108|440:68,1,112.5,6|10,0:2|0:2,0:0:0:0:
400,44,10913,2,0,L|320:44,1,75,4|10,0:0|0:2,0:0:0:0:
380,44,11282,1,0,0:0:0:0:
436,44,11405,1,10,0:0:0:0:
268,96,11651,2,0,L|224:96,2,37.5,0|8|14,0:0|0:0|0:0,0:0:0:0:
152,152,12143,1,2,0:3:0:0:
344,156,12389,6,0,P|396:216|392:252,1,112.5,10|10,0:0|0:0,0:0:0:0:
356,288,12881,2,4,L|280:280,1,75,4|10,0:0|0:0,0:0:0:0:
336,272,13249,1,0,0:0:0:0:
392,260,13372,1,10,0:0:0:0:
224,164,13618,2,0,L|176:164,2,37.5,0|10|6,0:0|0:2|0:2,0:0:0:0:
108,164,14110,2,0,L|100:204,1,37.5,10|8,0:3|0:3,0:0:0:0:
244,204,14356,6,0,L|356:200,2,112.5,10|8|10,0:2|0:2|0:2,0:0:0:0:
432,204,15340,2,0,L|440:124,1,75,10|2,0:0|0:2,0:0:0:0:
364,128,15708,2,0,L|356:84,1,37.5,0|6,0:0|0:2,0:0:0:0:
208,80,16077,1,2,0:3:0:0:
364,84,16323,6,0,L|248:84,2,112.5,10|10|10,0:0|0:0|0:0,0:0:0:0:
140,84,17307,2,0,L|256:84,2,112.5,10|10|10,0:0|0:0|0:0,0:0:0:0:
460,88,18290,5,14,0:0:0:0:
256,192,18536,12,8,19766,0:0:0:0:
152,192,20258,5,6,0:2:0:0:
376,196,20626,1,10,0:2:0:0:
156,244,20995,2,0,L|100:188,1,75,10|14,0:2|0:2,0:0:0:0:
216,172,21487,1,0,0:0:0:0:
368,168,21733,2,0,L|376:88,1,75,10|10,0:2|0:3,0:0:0:0:
184,88,22225,5,10,0:2:0:0:
444,116,22717,2,0,L|368:120,2,75,2|2|4,0:3|0:3|0:2,0:0:0:0:
4,208,24192,2,0,L|120:208,2,112.5,10|10|10,0:2|0:2|0:2,0:0:0:0:
120,204,25176,2,0,P|156:172|112:136,1,112.5,14|0,0:2|0:0,0:0:0:0:
44,132,25667,1,10,0:2:0:0:
156,132,25913,1,10,0:3:0:0:
464,28,26159,5,10,0:2:0:0:
364,52,26405,2,0,L|336:76,1,37.5,0|0,2:0|2:0,0:0:0:0:
304,100,26651,1,2,0:3:0:0:
172,52,26897,2,0,L|216:52,1,37.5,2|2,0:3|0:3,0:0:0:0:
248,52,27143,1,4,0:2:0:0:
100,64,27389,5,8,0:2:0:0:
288,68,27635,2,0,L|288:144,1,75,4|10,0:2|0:3,0:0:0:0:
100,64,28126,6,0,L|208:112,2,112.5,10|10|10,0:2|0:2|0:2,0:0:0:0:
288,64,29110,2,0,P|324:120|312:172,1,112.5,14|0,0:2|2:0,0:0:0:0:
296,192,29602,1,10,0:2:0:0:
180,256,29848,1,2,0:3:0:0:
496,260,30094,5,10,0:2:0:0:
384,264,30340,1,0,2:3:0:0:
272,260,30586,2,0,L|272:220,2,37.5,2|0|2,0:3|0:3|0:3,0:0:0:0:
84,228,31077,2,0,L|136:160,1,75,4|8,0:2|0:2,0:0:0:0:
140,108,31446,1,0,3:0:0:0:
100,108,31569,1,4,0:2:0:0:
268,104,31815,1,10,0:3:0:0:
80,108,32061,6,0,L|192:108,2,112.5,10|10|10,0:2|0:2|0:2,0:0:0:0:
268,104,33045,2,0,L|288:252,1,150,14|10,0:2|0:2,0:0:0:0:
136,248,33782,1,10,0:3:0:0:
360,248,34028,5,10,2:0:0:0:
256,192,34274,12,14,35504,0:2:0:0:
24,200,35995,5,6,0:0:0:0:
148,200,36241,2,0,L|148:152,2,37.5,0|8|4,0:0|0:0|0:0,0:0:0:0:
356,196,36733,2,0,L|280:196,1,75,10|8,0:0|0:0,0:0:0:0:
168,152,37225,1,2,0:2:0:0:
140,152,37348,1,2,0:3:0:0:
168,152,37471,1,4,0:2:0:0:
283,150,37717,1,2,0:3:0:0:
95,150,37963,6,0,L|19:150,1,75,10|0,0:2|0:0,0:0:0:0:
19,150,38331,1,10,0:2:0:0:
19,150,38454,1,4,0:2:0:0:
172,152,38700,2,0,L|220:152,2,37.5,10|2|10,0:2|0:3|0:2,0:0:0:0:
320,152,39192,2,0,L|372:152,1,37.5,8|2,0:0|0:3,0:0:0:0:
436,152,39438,2,0,L|476:152,2,37.5,6|0|0,0:2|0:0|0:0,0:0:0:0:
116,172,39930,6,0,L|52:216,1,75,10|0,0:0|0:0,0:0:0:0:
56,164,40299,2,0,L|56:124,1,37.5,8|4,0:0|0:0,0:0:0:0:
196,112,40667,2,0,L|236:112,2,37.5,10|0|8,0:0|0:0|0:0,0:0:0:0:
44,40,41159,1,2,0:2:0:0:
8,40,41282,1,2,0:3:0:0:
44,40,41405,1,6,0:2:0:0:
156,36,41651,1,2,0:3:0:0:
344,36,41897,6,0,L|420:64,1,75,2|0,0:2|0:0,0:0:0:0:
414,61,42266,1,8,0:0:0:0:
414,61,42389,1,6,0:2:0:0:
264,68,42635,1,0,0:0:0:0:
452,108,42881,6,0,L|472:188,1,75,10|0,0:2|0:0,0:0:0:0:
400,184,43249,2,0,L|380:224,1,37.5,0|14,0:0|0:2,0:0:0:0:
476,248,43618,1,10,0:3:0:0:
160,236,43864,6,0,L|84:208,1,75,6|0,0:0|0:2,0:0:0:0:
52,192,44233,1,10,0:2:0:0:
52,192,44356,1,4,0:0:0:0:
204,184,44602,2,0,L|280:184,1,75,10|10,0:0|0:2,0:0:0:0:
279,184,45094,1,0,0:0:0:0:
72,131,45340,2,0,L|72:56,1,75,4|2,0:0|0:2,0:0:0:0:
260,131,45831,6,0,L|336:119,1,75,10|0,0:0|0:0,0:0:0:0:
276,120,46200,1,0,0:0:0:0:
276,120,46323,1,4,0:0:0:0:
124,112,46569,1,10,0:0:0:0:
468,112,46815,6,0,L|476:189,1,75,14|8,0:0|0:0,0:0:0:0:
380,196,47184,2,0,L|328:256,1,75,6|0,0:0|0:0,0:0:0:0:
424,256,47553,1,14,0:0:0:0:
220,252,47799,5,10,0:0:0:0:
256,192,48045,12,4,48782,0:0:0:0:
428,252,49274,6,0,L|428:176,1,75,2|2,0:2|0:2,0:0:0:0:
108,216,49766,6,0,L|28:220,1,75,6|0,0:2|0:0,0:0:0:0:
80,216,50135,1,8,0:0:0:0:
128,216,50258,1,6,0:2:0:0:
280,196,50504,2,0,L|320:196,2,37.5,8|0|10,0:0|0:0|0:2,0:0:0:0:
132,196,50995,2,0,L|84:196,2,37.5,0|8|6,0:0|0:0|0:2,0:0:0:0:
284,200,51487,1,2,0:3:0:0:
92,200,51733,6,0,L|176:200,1,75,10|0,0:2|0:0,0:0:0:0:
244,196,52102,2,0,L|200:188,1,37.5,10|4,0:2|0:0,0:0:0:0:
92,184,52471,1,8,0:0:0:0:
411,176,52717,6,0,P|432:248|396:312,1,150,8|6,0:0|0:2,0:0:0:0:
284,256,53454,1,2,0:2:0:0:
96,252,53700,6,0,L|28:212,1,75,10|0,0:2|0:2,0:0:0:0:
31,213,54069,1,10,0:2:0:0:
31,213,54192,1,4,0:0:0:0:
184,208,54438,1,10,0:2:0:0:
372,204,54684,6,0,L|448:184,1,75,2|0,0:2|0:0,0:0:0:0:
444,184,55053,1,10,0:2:0:0:
444,184,55176,1,4,0:0:0:0:
292,184,55422,1,2,0:3:0:0:
384,288,55667,5,10,0:2:0:0:
296,244,55831,1,10,0:2:0:0:
208,200,55995,1,10,0:2:0:0:
296,244,56159,1,14,0:2:0:0:
384,200,56323,1,10,0:2:0:0:
296,244,56487,1,10,0:2:0:0:
208,200,56651,5,10,0:2:0:0:
120,244,56815,1,8,0:3:0:0:
208,200,56979,1,8,0:3:0:0:
308,196,57143,1,6,0:2:0:0:
156,196,57389,1,2,0:2:0:0:
464,196,57635,6,0,L|384:196,1,75,6|0,0:2|0:0,0:0:0:0:
389,196,58004,1,8,0:0:0:0:
389,196,58126,1,6,0:2:0:0:
276,192,58372,2,0,L|236:192,2,37.5,8|0|10,0:0|0:0|0:2,0:0:0:0:
164,192,58864,2,0,L|124:192,2,37.5,0|8|6,0:0|0:0|0:2,0:0:0:0:
316,188,59356,1,2,0:2:0:0:
125,192,59602,6,0,L|48:192,1,75,10|0,0:2|0:0,0:0:0:0:
28,192,59971,1,10,0:2:0:0:
50,192,60094,1,4,0:0:0:0:
164,192,60340,1,8,0:0:0:0:
472,196,60586,6,0,L|356:304,1,150,10|6,0:2|0:2,0:0:0:0:
248,252,61323,1,2,0:2:0:0:
60,256,61569,6,0,L|140:248,1,75,10|0,0:2|0:0,0:0:0:0:
76,224,61938,2,0,L|72:184,1,37.5,10|4,0:2|0:0,0:0:0:0:
224,176,62307,2,0,L|268:176,2,37.5,10|0|10,0:2|0:0|0:2,0:0:0:0:
376,176,62799,1,0,0:0:0:0:
488,176,63045,2,0,L|420:136,1,75,4|2,0:0|0:3,0:0:0:0:
108,224,63536,6,0,B|80:192|80:192|188:192,1,150,10|4,0:2|0:0,0:0:0:0:
304,232,64274,2,0,L|308:192,1,37.5,10|0,0:2|0:0,0:0:0:0:
176,184,64520,6,0,L|100:168,1,75,10|0,0:2|0:0,0:0:0:0:
24,172,64889,2,0,L|36:128,1,37.5,10|4,0:2|0:0,0:0:0:0:
108,124,65135,2,0,L|136:88,1,37.5,0|10,0:0|0:2,0:0:0:0:
324,104,65504,6,0,L|208:104,2,112.5,6|2|2,0:0|0:0|0:0,0:0:0:0:
96,112,66487,2,0,L|212:112,2,112.5,6|2|2,0:0|0:0|0:0,0:0:0:0:
324,116,67471,2,0,L|212:116,2,112.5,6|2|2,0:0|0:0|0:0,0:0:0:0:
96,236,68454,1,6,0:0:0:0:
212,240,68700,2,0,L|256:240,2,37.5,0|0|2,0:0|0:0|0:2,0:0:0:0:
96,236,69192,1,2,0:2:0:0:
436,252,69438,6,0,L|496:192,1,75,6|0,0:2|0:0,0:0:0:0:
452,244,69807,1,8,0:0:0:0:
416,244,69930,1,6,0:2:0:0:
260,224,70176,1,8,0:0:0:0:
308,192,70299,1,0,0:0:0:0:
356,160,70422,1,10,0:2:0:0:
204,144,70667,2,0,L|204:104,2,37.5,0|8|6,0:0|0:0|0:2,0:0:0:0:
52,144,71159,1,2,0:3:0:0:
240,144,71405,6,0,L|324:128,1,75,10|0,0:2|0:0,0:0:0:0:
248,92,71774,1,10,0:2:0:0:
248,92,71897,1,4,0:0:0:0:
400,96,72143,1,8,0:0:0:0:
84,152,72389,6,0,L|44:216,1,75,8|0,0:0|0:0,0:0:0:0:
120,228,72758,2,0,L|157:228,1,37.5,8|6,0:0|0:2,0:0:0:0:
43,228,73126,1,2,0:2:0:0:
384,284,73372,6,0,L|464:268,1,75,10|0,0:2|0:2,0:0:0:0:
457,269,73741,1,10,0:2:0:0:
457,269,73864,1,4,0:0:0:0:
308,264,74110,1,10,0:2:0:0:
120,260,74356,6,0,L|44:244,1,75,2|0,0:2|0:0,0:0:0:0:
46,244,74725,1,10,0:2:0:0:
46,244,74848,1,4,0:0:0:0:
160,236,75094,1,2,0:3:0:0:
348,236,75340,6,0,L|404:236,2,50,10|10|0,0:2|0:2|0:0,0:0:0:0:
172,240,75831,2,0,L|112:236,2,50,14|10|0,0:2|0:2|0:0,0:0:0:0:
348,236,76323,2,0,L|404:236,2,50,10|8|0,0:2|0:3|0:0,0:0:0:0:
224,240,76815,1,6,0:2:0:0:
352,236,77061,1,2,0:2:0:0:
40,240,77307,6,0,L|16:168,1,75,6|0,0:2|0:0,0:0:0:0:
60,160,77676,1,8,0:0:0:0:
104,152,77799,1,6,0:2:0:0:
296,160,78045,1,8,0:0:0:0:
350,160,78167,1,0,0:0:0:0:
404,160,78290,6,0,L|328:160,1,75,10|0,0:2|0:0,0:0:0:0:
176,160,78782,1,6,0:2:0:0:
288,160,79028,1,2,0:2:0:0:
100,160,79274,6,0,L|32:200,1,75,10|0,0:2|0:0,0:0:0:0:
35,198,79643,1,10,0:2:0:0:
35,198,79766,1,4,0:0:0:0:
148,212,80012,1,8,0:0:0:0:
464,208,80258,2,0,L|312:204,1,150,10|6,0:2|0:2,0:0:0:0:
420,212,80995,1,2,0:2:0:0:
228,212,81241,6,0,L|152:212,1,75,10|0,0:2|0:0,0:0:0:0:
153,212,81610,1,10,0:2:0:0:
153,212,81733,1,4,0:0:0:0:
268,212,81979,1,10,0:2:0:0:
420,212,82225,6,0,L|512:212,1,75,10|0,0:2|0:0,0:0:0:0:
495,212,82594,1,10,0:2:0:0:
495,212,82717,1,4,0:0:0:0:
384,216,82963,1,2,0:3:0:0:
196,216,83208,6,0,B|128:132|128:132|128:80,1,150,10|4,0:2|0:0,0:0:0:0:
240,88,83946,1,10,0:2:0:0:
468,88,84192,2,0,L|468:172,1,75,10|0,0:0|0:0,0:0:0:0:
244,164,84930,1,2,0:0:0:0:
256,192,85176,12,6,87143,0:0:0:0:
