osu file format v14

[General]
AudioFilename: ED1.mp3
AudioLeadIn: 0
PreviewTime: 49274
Countdown: 0
SampleSet: Normal
StackLeniency: 0.7
Mode: 2
LetterboxInBreaks: 0
WidescreenStoryboard: 1

[Editor]
DistanceSpacing: 1.5
BeatDivisor: 4
GridSize: 4
TimelineZoom: 2.2

[Metadata]
Title:Koi wa Milk Tea
TitleUnicode:恋はみるくてぃー
Artist:petit milady
ArtistUnicode:petit milady
Creator:-[ Asuna ]-
Version:Milk Tea
Source:六畳間の侵略者!?
Tags:rokujouma no shinryakusha!? プチミレディ Zero-A ed ending
BeatmapID:1277122
BeatmapSetID:361498

[Difficulty]
HPDrainRate:6
CircleSize:4
OverallDifficulty:9
ApproachRate:9
SliderMultiplier:1.8
SliderTickRate:2

[Events]
//Background and Video events
0,0,"BG.jpg",0,0
//Break Periods
//Storyboard Layer 0 (Background)
//Storyboard Layer 1 (Fail)
//Storyboard Layer 2 (Pass)
//Storyboard Layer 3 (Foreground)
//Storyboard Sound Samples

[TimingPoints]
586,491.803278688525,4,1,1,60,1,0
2675,-100,4,1,2,65,0,0
4520,-100,4,1,2,65,0,0
6241,-100,4,1,1,45,0,0
6487,-100,4,1,2,65,0,0
10421,-100,4,1,1,60,0,0
10544,-100,4,1,2,60,0,0
14110,-100,4,1,1,60,0,0
14356,-100,4,1,2,60,0,0
16323,-100,4,1,2,65,0,0
18290,-100,4,1,1,70,0,0
19520,-100,4,1,1,60,0,0
20257,-100,4,1,1,50,0,0
20380,-100,4,1,3,50,0,0
22716,-100,4,1,4,50,0,0
23208,-100,4,1,3,50,0,0
26651,-100,4,1,4,50,0,0
27143,-100,4,1,3,50,0,0
30339,-100,4,1,4,50,0,0
31077,-100,4,1,3,50,0,0
35503,-100,4,1,3,65,0,0
35995,-100,4,1,1,60,0,0
36118,-100,4,1,2,60,0,0
37716,-100,4,1,4,60,0,0
37962,-100,4,1,2,60,0,0
43864,-100,4,1,1,60,0,0
43987,-100,4,1,2,60,0,0
45831,-100,4,1,2,70,0,0
49274,-100,4,1,2,60,0,0
49766,-100,4,1,1,70,0,1
49889,-100,4,1,2,70,0,1
51610,-100,4,1,4,70,0,1
51733,-100,4,1,2,70,0,1
53577,-100,4,1,4,70,0,1
53700,-100,4,1,2,70,0,1
57634,-100,4,1,1,70,0,1
57757,-100,4,1,2,70,0,1
59479,-100,4,1,4,70,0,1
59602,-100,4,1,2,70,0,1
61446,-100,4,1,4,70,0,1
61569,-100,4,1,2,70,0,1
63413,-100,4,1,4,70,0,1
63536,-100,4,1,2,70,0,1
65504,-100,4,1,1,60,0,0
69438,-100,4,1,1,70,0,1
69561,-100,4,1,2,70,0,1
71282,-100,4,1,4,70,0,1
71405,-100,4,1,2,70,0,1
73249,-100,4,1,4,70,0,1
73372,-100,4,1,2,70,0,1
77306,-100,4,1,1,70,0,1
77429,-100,4,1,2,70,0,1
79151,-100,4,1,4,70,0,1
79274,-100,4,1,2,70,0,1
81118,-100,4,1,4,70,0,1
81241,-100,4,1,2,70,0,1
83085,-100,4,1,4,70,0,1
83208,-100,4,1,2,70,0,1
84192,-100,4,2,2,70,0,1
85176,-100,4,1,1,60,0,0
87389,-100,4,1,1,40,0,0
87635,-100,4,1,1,20,0,0
87881,-100,4,1,1,5,0,0

[Colours]
Combo1 : 255,206,205
Combo2 : 94,242,192
Combo3 : 236,163,253
Combo4 : 147,186,253

[HitObjects]
256,192,586,12,0,2061,0:0:0:0:
236,336,2553,6,0,B|236:244,1,90,0|0,0:0|0:0,0:0:0:0:
372,268,2922,2,0,B|372:176,1,90,10|0,0:2|0:0,0:0:0:0:
256,160,3290,1,10,0:2:0:0:
492,160,3536,1,14,0:0:0:0:
308,164,3782,1,0,0:0:0:0:
288,156,3905,1,0,0:0:0:0:
268,148,4028,1,2,1:0:0:0:
404,128,4274,1,2,0:2:0:0:
224,128,4520,6,0,B|224:220,1,90,10|0,0:0|0:0,0:0:0:0:
360,196,4889,2,0,B|392:284,1,90,10|0,0:0|0:0,0:0:0:0:
256,288,5258,2,0,L|240:240,1,45,10|0,0:0|0:0,0:0:0:0:
460,236,5504,1,14,0:0:0:0:
280,232,5749,2,0,L|240:208,1,45,0|0,0:0|0:0,0:0:0:0:
172,204,5995,2,0,L|156:160,1,45,2|0,0:2|0:0,0:0:0:0:
88,152,6241,2,0,L|100:108,1,45,8|8,1:3|1:3,0:0:0:0:
260,100,6487,6,0,L|120:96,2,135,10|10|10,0:2|0:2|0:2,0:0:0:0:
12,100,7471,1,14,0:0:0:0:
192,104,7717,1,0,0:0:0:0:
248,104,7840,1,0,0:0:0:0:
292,136,7963,1,2,0:2:0:0:
304,188,8086,1,0,0:0:0:0:
288,240,8208,1,2,0:2:0:0:
240,264,8331,1,0,0:0:0:0:
80,140,8454,6,0,P|148:156|208:136,2,135,10|10|10,0:0|0:0|0:0,0:0:0:0:
308,160,9438,1,14,0:0:0:0:
308,160,9602,1,8,0:3:0:0:
460,168,9766,1,8,0:3:0:0:
296,268,9930,5,10,0:2:0:0:
264,268,9991,1,0,0:0:0:0:
232,260,10053,1,2,0:2:0:0:
212,232,10114,1,0,0:0:0:0:
204,200,10176,1,2,0:2:0:0:
208,168,10237,1,0,0:0:0:0:
228,140,10299,1,2,0:2:0:0:
488,164,10422,6,0,L|472:72,1,90,6|0,0:2|0:0,0:0:0:0:
384,76,10790,1,10,0:2:0:0:
292,124,10913,2,0,L|247:124,1,45,4|0,0:0|0:0,0:0:0:0:
339,76,11159,2,0,L|384:76,1,45,10|0,0:2|0:0,0:0:0:0:
152,84,11405,6,0,P|108:97|79:137,1,90,10|0,0:0|0:0,0:0:0:0:
196,164,11774,1,8,0:0:0:0:
264,164,11897,2,0,L|312:164,2,45,14|0|2,0:0|0:0|0:3,0:0:0:0:
196,164,12266,1,0,0:0:0:0:
400,240,12389,6,0,L|492:240,1,90,10|0,0:0|0:0,0:0:0:0:
400,240,12758,1,10,0:0:0:0:
308,240,12881,2,0,L|324:192,1,45,4|0,0:0|0:0,0:0:0:0:
416,176,13126,2,0,L|404:132,1,45,10|0,0:0|0:0,0:0:0:0:
196,164,13372,6,0,L|104:136,1,90,10|0,0:0|0:0,0:0:0:0:
176,76,13741,1,10,0:2:0:0:
264,100,13864,2,0,L|284:148,1,45,6|0,0:2|0:0,0:0:0:0:
191,118,14110,2,0,L|175:74,1,45,10|8,0:3|0:3,0:0:0:0:
380,64,14356,6,0,L|400:104,1,45,10|0,0:2|0:0,0:0:0:0:
308,108,14602,2,0,L|256:100,1,45,2|8,0:2|0:2,0:0:0:0:
348,132,14848,2,0,L|396:140,2,45,6|0|10,0:2|0:0|0:2,0:0:0:0:
256,132,15217,1,0,0:0:0:0:
44,184,15340,6,0,L|144:192,1,90,10|2,0:0|0:2,0:0:0:0:
268,196,15708,1,0,0:0:0:0:
292,196,15831,2,0,L|192:188,1,90,6|2,0:2|0:3,0:0:0:0:
156,188,16200,1,0,0:0:0:0:
404,196,16323,6,0,L|468:128,1,90,10|0,0:0|0:0,0:0:0:0:
376,112,16692,1,10,0:0:0:0:
288,108,16815,2,0,L|260:68,1,45,4|0,0:0|0:0,0:0:0:0:
355,71,17061,2,0,L|375:111,1,45,10|0,0:0|0:0,0:0:0:0:
168,112,17307,6,0,P|128:144|116:180,1,90,10|8,0:0|0:0,0:0:0:0:
252,208,17676,1,10,0:0:0:0:
344,208,17799,2,0,L|380:164,1,45,6|2,0:2|0:2,0:0:0:0:
284,152,18045,2,0,L|264:100,1,45,10|2,0:0|0:2,0:0:0:0:
496,116,18290,5,14,0:0:0:0:
256,192,18536,12,8,19766,0:0:0:0:
84,192,20258,5,6,0:2:0:0:
352,204,20626,1,10,0:2:0:0:
120,220,20995,2,0,L|104:160,1,45,10|0,0:2|2:0,0:0:0:0:
224,168,21241,6,0,L|272:180,2,45,14|0|0,0:2|0:0|0:0,0:0:0:0:
364,124,21733,2,0,L|408:140,2,45,10|0|10,0:2|2:0|0:3,0:0:0:0:
152,288,22225,5,10,0:2:0:0:
336,292,22717,1,2,0:3:0:0:
216,292,22963,1,2,0:3:0:0:
460,292,23208,1,4,0:2:0:0:
184,288,24192,6,0,L|180:192,1,90,10|0,0:2|2:0,0:0:0:0:
316,192,24561,2,0,L|316:288,1,90,10|0,0:2|2:0,0:0:0:0:
196,148,24930,1,10,0:2:0:0:
420,200,25176,6,0,L|324:200,1,90,14|0,0:2|2:0,0:0:0:0:
484,160,25667,1,10,0:2:0:0:
376,180,25913,2,0,L|344:216,1,45,10|2,0:3|0:3,0:0:0:0:
148,148,26159,5,10,0:2:0:0:
320,92,26405,1,0,2:0:0:0:
340,84,26528,1,0,2:0:0:0:
360,76,26651,1,2,0:3:0:0:
160,92,26897,1,2,0:3:0:0:
140,84,27020,1,2,0:3:0:0:
120,76,27143,1,4,0:2:0:0:
308,56,27389,5,8,0:2:0:0:
104,64,27635,2,0,L|60:64,2,45,4|0|10,0:2|0:0|0:3,0:0:0:0:
420,60,28126,6,0,P|372:88|356:128,1,90,10|0,0:2|2:0,0:0:0:0:
220,132,28495,2,0,P|257:154|274:195,1,90,10|0,0:2|2:0,0:0:0:0:
148,208,28864,1,10,0:2:0:0:
352,204,29110,5,14,0:2:0:0:
184,208,29356,2,0,L|176:164,1,45,0|0,0:0|2:0,0:0:0:0:
268,156,29602,2,0,L|272:112,1,45,10|0,0:2|2:0,0:0:0:0:
184,96,29848,2,0,L|176:52,1,45,2|2,0:3|0:3,0:0:0:0:
404,88,30094,5,10,0:2:0:0:
264,132,30340,1,0,2:3:0:0:
444,156,30586,1,2,0:3:0:0:
452,208,30708,1,0,0:3:0:0:
432,260,30831,1,2,0:3:0:0:
388,292,30954,1,2,0:3:0:0:
252,192,31077,1,4,0:2:0:0:
96,196,31323,5,8,0:2:0:0:
104,196,31446,1,0,3:0:0:0:
144,196,31569,1,4,0:2:0:0:
324,196,31815,1,10,0:3:0:0:
360,196,31938,1,10,0:3:0:0:
180,196,32061,6,0,L|136:116,1,90,10|0,0:2|2:0,0:0:0:0:
320,112,32430,2,0,B|392:112|392:112|400:96,1,90,10|0,0:2|2:0,0:0:0:0:
308,56,32799,2,0,L|268:24,1,45,10|0,0:2|2:0,0:0:0:0:
476,64,33045,5,14,0:2:0:0:
300,100,33290,1,0,0:0:0:0:
268,116,33413,1,0,2:0:0:0:
152,116,33536,1,10,0:2:0:0:
152,116,33659,1,0,2:0:0:0:
268,140,33782,2,0,L|272:188,1,45,10|2,0:3|0:3,0:0:0:0:
68,68,34028,5,10,2:0:0:0:
152,100,34151,1,0,2:0:0:0:
204,172,34274,1,8,2:0:0:0:
200,260,34397,1,0,2:0:0:0:
136,320,34520,1,10,2:0:0:0:
52,288,34643,1,0,2:0:0:0:
24,204,34766,1,8,2:0:0:0:
72,128,34889,1,0,2:0:0:0:
376,320,35012,5,8,0:3:0:0:
448,320,35165,1,8,0:3:0:0:
356,320,35350,1,8,0:3:0:0:
116,320,35504,2,0,P|112:272|120:228,1,90,14|0,0:2|0:0,0:0:0:0:
339,319,35995,5,6,0:0:0:0:
160,268,36241,1,0,0:0:0:0:
172,268,36364,1,8,0:0:0:0:
284,260,36487,2,0,L|192:264,1,90,4|10,0:0|0:0,0:0:0:0:
284,260,36856,6,0,L|336:256,1,45,0|8,0:0|0:0,0:0:0:0:
396,248,37102,1,0,0:0:0:0:
460,224,37225,2,0,L|472:172,1,45,2|2,0:2|0:3,0:0:0:0:
364,140,37471,2,0,L|352:184,1,45,4|0,0:2|0:0,0:0:0:0:
460,224,37717,2,0,L|464:180,1,45,2|2,0:3|0:3,0:0:0:0:
272,180,37963,6,0,P|224:192|184:176,1,90,10|0,0:2|0:0,0:0:0:0:
228,180,38331,1,10,0:2:0:0:
372,180,38454,2,0,B|412:132|412:132|408:100,1,90,4|10,0:2|0:2,0:0:0:0:
316,100,38823,1,2,0:3:0:0:
180,104,38946,6,0,L|220:128,1,45,10|0,0:2|0:0,0:0:0:0:
308,148,39192,2,0,L|276:180,1,45,8|2,0:0|0:3,0:0:0:0:
140,180,39438,2,0,L|84:176,2,45,6|0|0,0:2|0:0|0:0,0:0:0:0:
232,184,39807,1,2,0:3:0:0:
432,188,39930,6,0,P|464:152|460:108,1,90,10|0,0:0|0:0,0:0:0:0:
400,44,40299,1,8,0:0:0:0:
264,48,40422,2,0,L|348:96,1,90,4|10,0:0|0:0,0:0:0:0:
264,136,40790,1,0,0:0:0:0:
136,120,40913,6,0,L|180:116,1,45,8|0,0:0|0:0,0:0:0:0:
272,108,41159,2,0,L|328:104,1,45,2|2,0:2|0:3,0:0:0:0:
180,108,41405,2,0,L|128:102,2,45,6|0|2,0:2|0:0|0:3,0:0:0:0:
272,108,41774,1,2,0:3:0:0:
456,112,41897,6,0,B|492:148|492:148|508:192,1,90,2|0,0:2|0:0,0:0:0:0:
460,264,42266,1,8,0:0:0:0:
308,260,42389,2,0,L|228:216,1,90,6|0,0:2|0:0,0:0:0:0:
228,216,42758,1,2,0:3:0:0:
360,160,42881,6,0,L|264:136,1,90,10|0,0:2|0:0,0:0:0:0:
360,112,43249,1,0,0:0:0:0:
448,120,43372,2,0,L|476:156,1,45,14|0,0:2|0:0,0:0:0:0:
360,160,43618,2,0,L|324:192,1,45,10|0,0:3|0:0,0:0:0:0:
128,180,43864,6,0,B|80:216|80:216|64:256,1,90,6|0,0:0|0:2,0:0:0:0:
160,256,44233,1,10,0:2:0:0:
272,260,44356,2,0,P|296:308|280:348,1,90,4|10,0:0|0:0,0:0:0:0:
196,340,44725,1,0,0:2:0:0:
308,324,44848,6,0,L|328:280,1,45,10|0,0:2|0:0,0:0:0:0:
244,248,45094,2,0,L|224:208,1,45,0|0,0:0|0:0,0:0:0:0:
360,216,45340,2,0,L|436:160,1,90,4|2,0:0|0:2,0:0:0:0:
340,120,45708,1,2,0:3:0:0:
40,148,45831,6,0,L|32:100,1,45,10|0,0:0|0:0,0:0:0:0:
132,88,46077,2,0,L|156:44,1,45,0|0,0:0|0:0,0:0:0:0:
256,68,46323,2,0,L|312:56,1,45,4|0,0:0|0:0,0:0:0:0:
116,88,46569,2,0,L|72:88,1,45,10|0,0:0|0:0,0:0:0:0:
318,122,46815,6,0,P|350:162|342:202,1,90,14|8,0:0|0:0,0:0:0:0:
192,224,47184,2,0,P|168:264|176:316,1,90,6|0,0:0|0:0,0:0:0:0:
308,308,47553,1,14,0:0:0:0:
96,308,47799,5,10,0:0:0:0:
256,192,48045,12,4,48782,0:0:0:0:
228,232,49274,5,2,0:2:0:0:
48,228,49520,1,2,0:2:0:0:
368,224,49766,6,0,B|408:192|408:192|432:148,1,90,6|0,0:2|0:0,0:0:0:0:
340,132,50135,2,0,L|296:116,1,45,8|6,0:0|0:2,0:0:0:0:
88,120,50504,1,8,0:0:0:0:
120,112,50626,1,0,0:0:0:0:
152,104,50749,1,10,0:2:0:0:
336,92,50995,2,0,L|316:140,1,45,0|8,0:0|0:0,0:0:0:0:
172,144,51241,2,0,L|264:144,1,90,6|2,0:2|0:3,0:0:0:0:
262,144,51610,1,2,0:3:0:0:
60,192,51733,6,0,P|16:160|8:124,1,90,10|0,0:2|0:0,0:0:0:0:
88,120,52102,1,10,0:2:0:0:
284,132,52225,2,0,L|292:84,1,45,4|2,0:0|0:2,0:0:0:0:
200,80,52471,2,0,L|192:36,1,45,8|2,0:0|0:2,0:0:0:0:
440,76,52717,6,0,P|480:112|492:148,1,90,8|0,0:0|0:0,0:0:0:0:
400,156,53086,1,8,0:0:0:0:
312,156,53208,2,0,L|256:160,2,45,6|0|2,0:2|0:0|0:2,0:0:0:0:
396,188,53577,1,2,0:3:0:0:
172,200,53700,6,0,L|80:192,1,90,10|0,0:2|0:2,0:0:0:0:
160,148,54069,2,0,L|184:100,1,45,10|4,0:2|0:0,0:0:0:0:
88,104,54315,2,0,L|64:64,1,45,0|10,0:0|0:2,0:0:0:0:
156,56,54561,1,2,0:3:0:0:
340,68,54684,6,0,L|428:44,1,90,2|0,0:2|0:0,0:0:0:0:
426,44,55053,1,10,0:2:0:0:
336,44,55176,2,0,L|296:68,1,45,4|0,0:0|0:0,0:0:0:0:
384,96,55422,2,0,L|408:140,1,45,2|0,0:3|0:0,0:0:0:0:
132,144,55667,6,0,L|64:156,2,60,10|10|10,0:2|0:2|0:2,0:0:0:0:
388,144,56159,2,0,L|456:156,2,60,14|10|10,0:2|0:2|0:2,0:0:0:0:
144,144,56651,2,0,L|100:192,2,60,10|8|8,0:2|0:3|0:3,0:0:0:0:
324,140,57143,1,6,0:2:0:0:
144,144,57389,1,2,0:2:0:0:
464,140,57635,6,0,L|512:224,1,90,6|0,0:2|0:0,0:0:0:0:
420,212,58004,2,0,L|400:256,1,45,8|6,0:0|0:2,0:0:0:0:
220,260,58372,2,0,L|168:248,2,45,8|0|10,0:0|0:0|0:2,0:0:0:0:
401,252,58864,2,0,L|420:212,1,45,0|8,0:0|0:0,0:0:0:0:
236,212,59110,2,0,B|192:192|192:192|164:152,1,90,6|2,0:2|0:2,0:0:0:0:
168,157,59479,1,2,0:3:0:0:
352,156,59602,6,0,L|328:104,1,45,10|0,0:2|0:0,0:0:0:0:
148,112,59848,2,0,L|156:68,1,45,0|10,0:0|0:2,0:0:0:0:
248,72,60094,2,0,L|260:24,1,45,4|2,0:0|0:2,0:0:0:0:
76,32,60340,2,0,L|64:84,1,45,8|2,0:0|0:3,0:0:0:0:
248,72,60586,6,0,L|168:112,1,90,10|0,0:2|0:0,0:0:0:0:
176,112,60954,1,8,0:0:0:0:
320,120,61077,2,0,L|408:152,1,90,6|2,0:2|0:2,0:0:0:0:
312,156,61446,1,2,0:3:0:0:
88,164,61569,6,0,B|48:184|48:184|24:228,1,90,10|0,0:2|0:0,0:0:0:0:
116,244,61938,1,10,0:2:0:0:
204,252,62061,2,0,L|232:212,1,45,4|0,0:0|0:0,0:0:0:0:
140,200,62307,2,0,L|104:164,1,45,10|0,0:2|0:0,0:0:0:0:
291,155,62553,6,0,L|384:136,1,90,10|0,0:2|0:0,0:0:0:0:
380,136,62922,1,10,0:2:0:0:
244,136,63045,2,0,L|152:136,1,90,4|2,0:0|0:3,0:0:0:0:
116,168,63413,1,2,0:3:0:0:
296,204,63536,6,0,L|344:216,1,45,10|0,0:2|0:0,0:0:0:0:
444,232,63782,2,0,L|408:264,1,45,0|8,0:0|0:0,0:0:0:0:
312,268,64028,2,0,L|260:268,1,45,4|0,0:0|0:0,0:0:0:0:
132,252,64274,2,0,L|164:220,1,45,10|0,0:2|0:0,0:0:0:0:
348,216,64520,6,0,L|428:160,1,90,10|0,0:2|0:0,0:0:0:0:
324,148,64889,2,0,L|276:128,1,45,10|4,0:2|0:0,0:0:0:0:
396,116,65135,2,0,L|448:116,1,45,0|10,0:0|0:2,0:0:0:0:
324,116,65381,1,2,0:2:0:0:
120,124,65504,6,0,P|88:176|92:204,1,90,6|0,0:0|0:0,0:0:0:0:
228,204,65872,2,0,P|227:248|199:282,1,90,2|2,0:0|0:2,0:0:0:0:
84,284,66241,1,2,0:0:0:0:
400,124,66487,6,0,P|432:176|428:204,1,90,6|0,0:0|0:0,0:0:0:0:
292,204,66855,2,0,P|292:248|320:282,1,90,2|2,0:0|0:2,0:0:0:0:
436,284,67224,1,2,0:0:0:0:
116,304,67471,6,0,P|88:268|88:220,1,90,6|0,0:0|0:0,0:0:0:0:
224,212,67840,1,2,0:0:0:0:
290,195,67963,1,0,0:0:0:0:
327,138,68086,1,2,0:2:0:0:
319,71,68208,1,2,0:0:0:0:
269,25,68331,1,0,0:0:0:0:
44,104,68454,6,0,L|168:168,1,135,6|0,0:0|0:0,0:0:0:0:
276,104,68946,1,2,0:2:0:0:
116,104,69192,1,2,0:2:0:0:
432,224,69438,6,0,B|472:192|472:192|496:148,1,90,6|0,0:2|0:0,0:0:0:0:
404,128,69807,2,0,L|360:100,1,45,8|6,0:0|0:2,0:0:0:0:
180,100,70176,1,8,0:0:0:0:
160,92,70299,1,0,0:0:0:0:
140,84,70422,1,10,0:2:0:0:
336,292,70667,2,0,L|316:244,1,45,0|8,0:0|0:0,0:0:0:0:
187,238,70913,2,0,L|271:194,1,90,6|2,0:2|0:3,0:0:0:0:
266,197,71282,1,2,0:3:0:0:
63,194,71405,6,0,P|19:162|11:126,1,90,10|0,0:2|0:0,0:0:0:0:
92,120,71774,1,10,0:2:0:0:
288,136,71897,2,0,L|320:96,1,45,4|2,0:0|0:2,0:0:0:0:
408,80,72143,2,0,L|396:32,1,45,8|2,0:0|0:2,0:0:0:0:
168,36,72389,6,0,P|128:72|116:108,1,90,8|0,0:0|0:0,0:0:0:0:
324,128,72758,1,8,0:0:0:0:
412,136,72881,2,0,L|468:140,2,45,6|0|2,0:2|0:0|0:2,0:0:0:0:
320,140,73249,1,2,0:3:0:0:
128,200,73372,6,0,L|36:192,1,90,10|0,0:2|0:2,0:0:0:0:
132,152,73741,2,0,L|176:124,1,45,10|4,0:2|0:0,0:0:0:0:
68,100,73987,2,0,L|44:60,1,45,0|10,0:0|0:2,0:0:0:0:
136,56,74233,1,2,0:3:0:0:
340,68,74356,6,0,L|428:44,1,90,2|0,0:2|0:0,0:0:0:0:
392,44,74725,1,10,0:2:0:0:
324,44,74848,2,0,L|284:68,1,45,4|0,0:0|0:0,0:0:0:0:
172,80,75094,2,0,L|196:124,1,45,2|0,0:3|0:0,0:0:0:0:
444,140,75340,6,0,L|488:184,1,60,10|10,0:2|0:2,0:0:0:0:
368,188,75678,1,0,0:0:0:0:
128,188,75831,2,0,L|76:232,1,60,14|10,0:2|0:2,0:0:0:0:
204,236,76170,1,0,0:0:0:0:
444,212,76323,2,0,L|456:280,1,60,10|8,0:2|0:3,0:0:0:0:
332,272,76661,1,0,0:0:0:0:
212,252,76815,2,0,L|192:212,1,45,6|0,0:2|0:0,0:0:0:0:
296,192,77061,2,0,L|320:148,1,45,2|0,0:2|0:0,0:0:0:0:
108,156,77307,5,6,0:2:0:0:
288,136,77553,1,0,0:0:0:0:
336,136,77676,2,0,L|292:136,1,45,8|6,0:0|0:2,0:0:0:0:
108,212,78045,2,0,L|56:212,2,45,8|0|10,0:0|0:0|0:2,0:0:0:0:
288,232,78536,2,0,L|307:192,1,45,0|8,0:0|0:0,0:0:0:0:
123,192,78782,2,0,B|79:172|79:172|51:132,1,90,6|2,0:2|0:2,0:0:0:0:
148,144,79151,1,2,0:3:0:0:
352,156,79274,6,0,L|384:120,1,45,10|0,0:2|0:0,0:0:0:0:
176,116,79520,2,0,L|168:72,1,45,0|10,0:0|0:2,0:0:0:0:
264,72,79766,2,0,L|276:24,1,45,4|2,0:0|0:2,0:0:0:0:
92,32,80012,2,0,L|80:84,1,45,8|2,0:0|0:3,0:0:0:0:
284,72,80258,6,0,L|364:112,1,90,10|0,0:2|0:0,0:0:0:0:
364,112,80626,1,8,0:0:0:0:
228,124,80749,2,0,L|192:208,1,90,6|2,0:2|0:2,0:0:0:0:
284,208,81118,1,2,0:3:0:0:
88,164,81241,6,0,B|48:184|48:184|24:228,1,90,10|0,0:2|0:0,0:0:0:0:
116,244,81610,1,10,0:2:0:0:
204,248,81733,2,0,L|232:208,1,45,4|0,0:0|0:0,0:0:0:0:
128,200,81979,2,0,L|92:164,1,45,10|0,0:2|0:0,0:0:0:0:
291,155,82225,6,0,L|384:136,1,90,10|0,0:2|0:0,0:0:0:0:
388,136,82594,1,10,0:2:0:0:
256,136,82717,2,0,L|164:136,1,90,4|2,0:0|0:3,0:0:0:0:
116,168,83086,1,2,0:3:0:0:
296,204,83208,6,0,L|388:208,2,90,10|0|4,0:2|0:0|0:0,0:0:0:0:
116,196,83946,2,0,L|80:224,1,45,10|0,0:2|0:0,0:0:0:0:
264,244,84192,6,0,L|344:188,1,90,10|0,0:0|0:0,0:0:0:0:
428,176,84561,2,0,L|476:156,1,45,2|0,0:0|0:0,0:0:0:0:
428,140,84807,2,0,L|383:140,1,45,0|2,0:0|0:0,0:0:0:0:
292,140,85053,1,0,0:0:0:0:
64,296,85176,6,0,B|16:288|16:288|20:240,1,90,6|0,0:0|0:0,0:0:0:0:
148,216,85545,2,0,L|212:152,1,90,2|2,0:0|0:2,0:0:0:0:
96,108,85913,1,2,0:0:0:0:
412,112,86159,6,0,L|448:204,1,90,6|0,0:0|0:0,0:0:0:0:
316,212,86528,2,0,L|260:284,1,90,2|2,0:0|0:2,0:0:0:0:
376,296,86897,1,6,0:0:0:0:
60,304,87143,5,6,0:0:0:0:
