osu file format v14

[General]
AudioFilename: perfume - Ijiwaru na Hello.mp3
AudioLeadIn: 0
PreviewTime: 34525
Countdown: 0
SampleSet: None
StackLeniency: 0.7
Mode: 0
LetterboxInBreaks: 0
WidescreenStoryboard: 0

[Editor]
DistanceSpacing: 1.4
BeatDivisor: 4
GridSize: 8
TimelineZoom: 1.4

[Metadata]
Title:Ijiwaru na Hello
TitleUnicode:Ijiwaru na Hello
Artist:perfume
ArtistUnicode:perfume
Creator:higansakura
Version:Normal
Source:
Tags:perfume
BeatmapID:726045
BeatmapSetID:327094

[Difficulty]
HPDrainRate:3
CircleSize:3
OverallDifficulty:3
ApproachRate:5
SliderMultiplier:1
SliderTickRate:1

[Events]
//Background and Video events
0,0,"Bg.jpg",0,0
//Break Periods
2,66337,80166
2,140177,154006
//Storyboard Layer 0 (Background)
//Storyboard Layer 1 (Fail)
//Storyboard Layer 2 (Pass)
//Storyboard Layer 3 (Foreground)
//Storyboard Sound Samples

[TimingPoints]
143,461.497122969837,4,1,0,100,1,0
37062,-100,4,1,0,100,0,1
66598,-100,4,1,0,100,0,0
110902,-100,4,1,0,100,0,1
140438,-100,4,1,0,100,0,0
192125,-100,4,1,0,100,0,1
221661,-100,4,1,0,100,0,0

[HitObjects]
80,80,143,5,4,0:0:0:0:
128,208,604,1,4,0:0:0:0:
240,128,1066,1,4,0:0:0:0:
312,248,1527,1,4,0:0:0:0:
416,152,1989,1,4,0:0:0:0:
320,48,2450,1,4,0:0:0:0:
216,144,2912,1,4,0:0:0:0:
304,256,3373,1,4,0:0:0:0:
168,288,3835,1,4,0:0:0:0:
104,168,4296,1,4,0:0:0:0:
200,72,4758,1,4,0:0:0:0:
320,144,5219,1,4,0:0:0:0:
272,272,5681,1,4,0:0:0:0:
136,280,6142,1,4,0:0:0:0:
120,144,6604,1,4,0:0:0:0:
120,144,7065,1,4,0:0:0:0:
256,176,7527,6,0,P|200:184|176:240,1,100
200,288,8219,2,0,P|256:296|280:264,1,100
360,152,9142,1,0,0:0:0:0:
240,80,9604,1,0,0:0:0:0:
104,56,10065,2,0,P|56:56|32:112,1,100
216,200,11219,6,0,P|240:256|288:272,1,100
344,272,11911,2,0,P|392:256|416:192,1,100
312,128,12834,1,0,0:0:0:0:
176,104,13296,1,0,0:0:0:0:
240,224,13757,2,0,P|264:288|304:296,2,100
208,160,14911,6,0,P|168:192|152:248,1,100
128,304,15603,1,0,0:0:0:0:
56,184,16065,1,0,0:0:0:0:
144,72,16526,1,0,0:0:0:0:
280,104,16988,2,0,P|312:96|328:64,2,50
144,136,17911,2,0,P|112:120|96:96,2,50
192,184,18603,2,0,P|128:248|64:168,1,200
120,56,19987,5,0,0:0:0:0:
192,56,20218,1,0,0:0:0:0:
328,96,20680,1,0,0:0:0:0:
384,136,20910,2,0,P|416:144|444:172,2,50
312,144,21603,2,0,P|280:152|280:184,1,50
184,272,22295,5,0,0:0:0:0:
64,192,22756,2,0,P|64:152|80:128,1,50
176,56,23449,1,0,0:0:0:0:
296,128,23910,2,0,P|272:184|304:216,1,100
360,232,24602,1,0,0:0:0:0:
424,264,24833,2,0,P|424:336|352:344,1,150
224,296,25987,6,0,P|168:272|168:216,1,100
184,168,26679,1,0,0:0:0:0:
288,72,27141,1,0,0:0:0:0:
400,160,27602,1,0,0:0:0:0:
392,296,28064,2,0,P|384:320|360:352,2,50
176,80,29679,6,0,P|216:120|272:128,1,100
328,136,30371,1,0,0:0:0:0:
384,264,30833,1,0,0:0:0:0:
248,288,31294,1,0,0:0:0:0:
112,256,31756,2,0,L|40:256,2,50
248,224,32679,2,0,P|288:176|256:136,1,100
144,112,33602,1,0,0:0:0:0:
264,32,34063,1,0,0:0:0:0:
448,136,34755,6,0,P|472:160|456:184,1,50
344,232,35447,2,0,L|288:264,4,50
360,160,36601,1,0,0:0:0:0:
232,104,37062,6,0,P|200:88|168:96,3,50
240,216,38216,2,4,P|192:280|120:280,1,150
72,152,39370,2,8,L|112:104,2,50
208,120,40293,2,8,L|248:168,2,50
344,160,41216,2,8,L|376:121,2,50
464,232,42139,6,0,L|424:280,1,50
368,304,42601,2,0,P|328:336|280:312,1,100
240,264,43293,2,0,P|184:216|112:256,1,150
48,128,44447,6,0,L|88:88,1,50
136,48,44908,2,0,L|176:8,1,50
256,128,45600,1,0,0:0:0:0:
304,184,45831,2,4,P|336:224|384:208,1,100
368,72,46754,2,4,P|384:112|440:88,1,100
328,200,47677,2,4,P|304:224|248:192,1,100
112,216,48600,2,4,P|88:240|40:200,1,100
72,144,49292,6,0,P|96:104|152:104,1,100
208,136,49985,2,0,P|256:168|296:128,1,100
352,176,50677,2,0,P|384:216|344:256,1,100
304,288,51369,1,0,0:0:0:0:
224,176,51831,6,0,P|256:160|288:168,3,50
216,288,52984,2,8,P|264:352|336:352,1,150
432,264,54138,2,8,L|392:216,2,50
328,168,55061,2,8,L|288:216,2,50
192,208,55984,2,8,L|160:169,2,50
288,104,56907,6,0,L|328:152,1,50
322,210,57369,2,0,P|306:258|258:250,1,100
208,208,58061,2,0,P|160:184|112:208,1,100
328,200,59215,6,0,L|288:160,1,50
248,112,59676,2,0,L|208:72,1,50
136,192,60368,1,0,0:0:0:0:
176,248,60599,2,0,P|144:288|96:272,1,100
144,144,61522,2,0,P|128:184|72:160,1,100
192,256,62445,2,0,P|216:280|272:248,1,100
408,280,63368,2,0,P|432:304|480:264,1,100
448,208,64060,6,0,P|424:168|368:168,1,100
304,184,64753,2,0,P|256:216|216:176,1,100
152,208,65445,2,0,P|120:248|160:288,1,100
192,336,66137,1,8,0:0:0:0:
120,192,81366,6,0,L|160:152,1,50
208,104,81828,2,0,L|256:56,1,50
320,184,82520,1,0,0:0:0:0:
240,296,82982,1,0,0:0:0:0:
136,208,83443,2,0,L|96:152,2,50
432,208,85058,5,0,0:0:0:0:
352,96,85520,1,0,0:0:0:0:
288,72,85751,2,0,P|224:80|200:128,1,100
240,240,86674,1,0,0:0:0:0:
104,256,87135,1,0,0:0:0:0:
80,120,87597,1,0,0:0:0:0:
432,48,88750,5,0,0:0:0:0:
488,176,89212,1,0,0:0:0:0:
440,224,89443,2,0,P|392:256|352:216,1,100
224,200,90366,1,0,0:0:0:0:
168,160,90596,2,0,L|112:112,3,50
192,248,91750,2,0,P|256:224|256:184,1,100
424,256,93827,6,0,P|408:280|368:288,1,50
248,288,94519,2,0,P|192:264|168:216,1,100
152,168,95211,2,0,B|120:120|120:120|152:72,1,100
280,48,96134,5,0,0:0:0:0:
408,112,96596,2,0,P|440:136|440:160,1,50
384,272,97288,1,0,0:0:0:0:
248,264,97750,1,0,0:0:0:0:
120,200,98211,2,0,P|104:200|64:168,2,50
440,56,99826,6,0,P|392:96|384:144,1,100
368,200,100519,1,0,0:0:0:0:
280,304,100980,1,0,0:0:0:0:
176,216,101442,1,0,0:0:0:0:
160,80,101903,1,0,0:0:0:0:
296,104,102365,1,0,0:0:0:0:
480,176,103518,6,0,P|464:224|416:256,1,100
360,280,104211,2,0,P|304:304|256:280,1,100
160,200,105134,1,0,0:0:0:0:
32,144,105595,2,0,P|8:104|32:48,1,100
160,64,106518,1,0,0:0:0:0:
296,96,106980,1,0,0:0:0:0:
360,280,108595,5,0,0:0:0:0:
288,280,108826,1,0,0:0:0:0:
152,240,109287,1,0,0:0:0:0:
112,176,109518,2,0,L|80:120,4,50
216,88,110902,6,0,P|248:72|280:80,3,50
208,200,112055,2,4,P|256:264|328:264,1,150
440,192,113209,2,8,L|400:144,2,50
312,248,114132,2,8,L|272:296,2,50
192,176,115055,2,8,L|160:137,2,50
328,144,115978,6,0,L|288:192,1,50
288,256,116440,2,0,P|296:296|352:296,1,100
408,264,117132,2,0,P|432:216|408:168,1,100
208,192,118286,6,0,L|168:152,1,50
120,112,118747,2,0,L|80:72,1,50
216,16,119439,1,0,0:0:0:0:
264,72,119670,2,8,P|280:120|256:160,1,100
296,296,120593,2,8,P|344:336|392:328,1,100
312,208,121516,2,8,P|336:232|392:200,1,100
304,96,122439,2,8,P|328:120|376:80,1,100
408,152,123131,6,0,P|384:192|328:192,1,100
272,232,123824,2,0,P|224:264|184:224,1,100
136,208,124516,2,0,P|104:168|144:120,1,100
176,88,125208,1,0,0:0:0:0:
256,200,125670,6,0,P|264:168|280:152,1,50
328,104,126132,2,0,P|352:80|376:72,1,50
432,200,126824,1,0,0:0:0:0:
400,264,127055,2,8,P|392:288|360:304,2,50
264,248,127978,2,8,P|240:240|216:208,2,50
128,296,128901,2,8,P|104:304|96:344,2,50
128,152,129824,2,8,P|112:136|104:104,2,50
160,216,130516,6,0,P|200:208|216:184,1,50
264,168,130977,2,0,P|264:136|232:128,1,50
144,32,131670,1,0,0:0:0:0:
88,72,131900,2,0,P|72:144|136:184,1,150
208,296,133054,6,0,P|240:326|256:326,1,50
304,288,133516,1,0,0:0:0:0:
360,240,133746,2,0,L|392:200,1,50
336,152,134208,1,0,0:0:0:0:
272,128,134439,2,4,L|160:160,1,100
256,272,135362,2,4,L|144:304,1,100
175,155,136285,2,4,L|288:128,1,100
256,272,137208,2,4,L|360:248,1,100
376,184,137900,6,0,L|416:128,3,50
264,168,139054,2,0,L|200:136,1,50
104,72,139746,1,8,0:0:0:0:
104,72,139977,1,8,0:0:0:0:
272,96,155206,6,0,P|304:112|320:136,1,50
344,184,155667,1,0,0:0:0:0:
256,296,156129,1,0,0:0:0:0:
136,224,156590,1,0,0:0:0:0:
64,104,157052,1,0,0:0:0:0:
80,40,157283,2,0,P|96:24|128:24,1,50
256,48,157975,1,0,0:0:0:0:
376,128,158436,1,0,0:0:0:0:
328,256,158898,6,0,P|304:272|272:272,2,50
184,256,159821,1,0,0:0:0:0:
80,160,160282,1,0,0:0:0:0:
168,48,160744,2,0,P|224:24|272:56,1,100
376,104,161667,1,0,0:0:0:0:
416,240,162128,1,0,0:0:0:0:
304,320,162590,5,0,0:0:0:0:
240,288,162821,2,0,L|208:272,2,25
120,216,163513,1,0,0:0:0:0:
168,88,163974,1,0,0:0:0:0:
304,112,164436,2,0,L|328:144,4,25
272,248,165359,1,0,0:0:0:0:
136,240,165820,1,0,0:0:0:0:
264,184,166282,5,0,0:0:0:0:
320,224,166513,1,0,0:0:0:0:
304,288,166743,1,0,0:0:0:0:
160,288,167205,1,0,0:0:0:0:
144,152,167666,1,0,0:0:0:0:
248,56,168128,1,0,0:0:0:0:
320,56,168359,1,0,0:0:0:0:
352,120,168589,1,0,0:0:0:0:
248,176,169051,1,0,0:0:0:0:
248,176,169512,1,0,0:0:0:0:
368,248,169974,5,0,0:0:0:0:
368,248,170205,1,0,0:0:0:0:
368,248,170435,1,0,0:0:0:0:
240,304,170897,1,0,0:0:0:0:
240,304,171358,1,0,0:0:0:0:
144,208,171820,1,0,0:0:0:0:
144,208,172051,1,0,0:0:0:0:
144,208,172281,1,0,0:0:0:0:
192,80,172743,1,0,0:0:0:0:
192,80,173204,1,0,0:0:0:0:
328,112,173666,5,0,0:0:0:0:
384,152,173897,1,0,0:0:0:0:
408,216,174127,1,0,0:0:0:0:
352,256,174358,2,0,L|312:280,4,25
48,216,175512,2,0,L|48:176,4,25
56,144,176204,2,0,L|88:112,4,25
264,112,177358,6,0,L|280:144,4,25
288,176,178050,2,0,L|272:208,4,25
88,232,179204,2,0,L|88:200,4,25
96,160,179896,2,0,L|112:120,4,25
296,96,181050,6,0,L|304:120,4,25
296,168,181742,2,0,L|272:192,4,25
144,312,182896,1,0,0:0:0:0:
104,256,183127,1,0,0:0:0:0:
88,192,183357,1,0,0:0:0:0:
104,120,183588,1,0,0:0:0:0:
152,64,183819,1,0,0:0:0:0:
216,40,184050,1,0,0:0:0:0:
256,192,188434,5,8,0:0:0:0:
256,192,188895,1,8,0:0:0:0:
256,192,189357,1,8,0:0:0:0:
256,192,189818,1,8,0:0:0:0:
256,192,190280,1,8,0:0:0:0:
256,192,190741,1,8,0:0:0:0:
256,192,191203,1,4,0:0:0:0:
256,192,191664,1,4,0:0:0:0:
120,168,192126,6,0,P|128:136|144:120,1,50
192,80,192588,2,0,P|216:56|240:48,1,50
360,104,193280,1,0,0:0:0:0:
400,160,193511,2,8,P|392:184|360:200,2,50
296,256,194434,2,8,P|272:248|248:216,2,50
160,288,195357,2,8,P|136:296|128:336,2,50
136,152,196280,2,8,P|120:136|112:104,2,50
160,216,196972,6,0,P|200:208|216:184,1,50
264,160,197433,2,0,P|264:128|232:120,1,50
152,24,198126,1,0,0:0:0:0:
96,64,198356,2,0,P|80:136|144:176,1,150
208,296,199510,6,0,P|240:326|256:326,1,50
312,312,199972,1,0,0:0:0:0:
368,264,200202,2,0,L|400:224,1,50
376,160,200664,1,0,0:0:0:0:
312,128,200895,2,4,L|200:160,1,100
336,224,201818,2,4,L|224:256,1,100
128,168,202741,2,4,L|241:141,1,100
344,224,203664,2,4,L|232:256,1,100
192,216,204356,6,0,L|144:160,3,50
296,136,205510,2,0,L|360:104,1,50
464,56,206202,1,0,0:0:0:0:
464,56,206433,1,0,0:0:0:0:
232,56,206894,6,0,P|200:64|184:80,1,50
144,128,207356,2,0,P|120:152|112:176,1,50
168,296,208048,1,0,0:0:0:0:
224,336,208279,2,8,P|248:328|264:296,2,50
320,232,209202,2,8,P|312:208|280:184,2,50
352,96,210125,2,8,P|360:72|400:64,2,50
216,72,211048,2,8,P|200:56|168:48,2,50
280,96,211740,6,0,P|272:136|248:152,1,50
224,200,212201,2,0,P|192:200|184:168,1,50
88,88,212894,1,0,0:0:0:0:
128,32,213124,2,0,P|200:16|240:80,1,150
360,144,214278,6,0,P|390:176|390:192,1,50
376,248,214740,1,0,0:0:0:0:
328,304,214970,2,0,L|288:336,1,50
224,312,215432,1,0,0:0:0:0:
192,248,215663,2,4,L|224:136,1,100
288,272,216586,2,4,L|320:160,1,100
232,64,217509,2,4,L|205:177,1,100
288,280,218432,2,4,L|320:168,1,100
280,128,219124,6,0,L|224:80,3,50
200,232,220278,2,0,L|168:296,1,50
120,384,220970,1,8,0:0:0:0:
120,384,221201,1,8,0:0:0:0:
184,256,221662,5,0,0:0:0:0:
144,120,222123,1,0,0:0:0:0:
264,56,222585,1,0,0:0:0:0:
376,136,223046,1,0,0:0:0:0:
336,272,223508,1,0,0:0:0:0:
208,216,223969,1,8,0:0:0:0:
152,168,224200,1,8,0:0:0:0:
344,80,224892,1,0,0:0:0:0:
408,112,225123,1,0,0:0:0:0:
96,152,226507,2,0,L|136:104,3,50
264,88,227661,1,8,0:0:0:0:
336,96,227892,1,8,0:0:0:0:
64,320,229046,5,0,0:0:0:0:
216,336,229507,1,0,0:0:0:0:
344,280,229969,1,0,0:0:0:0:
400,152,230430,1,0,0:0:0:0:
280,56,230892,1,0,0:0:0:0:
160,120,231353,1,8,0:0:0:0:
144,184,231584,1,8,0:0:0:0:
480,280,232738,1,0,0:0:0:0:
400,160,233199,1,8,0:0:0:0:
352,112,233430,1,8,0:0:0:0:
96,352,234584,1,0,0:0:0:0:
80,216,235045,1,8,0:0:0:0:
104,152,235276,1,8,0:0:0:0:
256,184,235737,1,8,0:0:0:0:
256,184,235968,1,4,0:0:0:0:
