osu file format v14

[General]
AudioFilename: Sreved.mp3
AudioLeadIn: 0
PreviewTime: 82448
Countdown: 1
SampleSet: Soft
StackLeniency: 0.7
Mode: 0
LetterboxInBreaks: 1
WidescreenStoryboard: 0

[Editor]
Bookmarks: 11446,48494,92812
DistanceSpacing: 0.8
BeatDivisor: 4
GridSize: 8
TimelineZoom: 1.4

[Metadata]
Title:Preserved Valkyria
TitleUnicode:Preserved Valkyria
Artist:penoreri
ArtistUnicode:penoreri
Creator:Necroluttah
Version:Necroh
Source:SOUND VOLTEX III GRAVITY WARS
Tags:sdvx iii gravity wars necroh lahphnya bakamap
BeatmapID:828243
BeatmapSetID:378400

[Difficulty]
HPDrainRate:5
CircleSize:4
OverallDifficulty:8
ApproachRate:9.8
SliderMultiplier:2.2
SliderTickRate:1

[Events]
//Background and Video events
0,0,"52151511_p0.jpg",0,0
//Break Periods
//Storyboard Layer 0 (Background)
//Storyboard Layer 1 (Fail)
//Storyboard Layer 2 (Pass)
//Storyboard Layer 3 (Foreground)
//Storyboard Sound Samples

[TimingPoints]
-166,387.096774193548,4,2,0,55,1,0
33898,-133.333333333333,4,2,0,55,0,0
35446,-181.818181818182,4,2,0,55,0,0
39317,-100,4,2,0,55,0,0
40866,-133.333333333333,4,2,0,55,0,0
47059,500,4,2,0,55,1,0
48085,272.727272727273,4,2,0,55,1,0
56812,-80,4,2,0,55,0,0
77812,-133.333333333333,4,2,0,55,0,0
80812,-100,4,2,0,55,0,0
82994,-80,4,2,0,55,0,1
91721,-100,4,2,0,55,0,1
100448,-80,4,2,0,55,0,0

[HitObjects]
452,56,1382,6,0,P|377:78|244:56,1,165
224,56,1769,2,0,P|142:32|75:156,1,220
184,240,2446,2,0,L|375:225,1,165
412,40,3124,1,0,0:0:0:0:
424,216,3511,1,0,0:0:0:0:
328,196,3704,1,0,0:0:0:0:
176,240,3898,1,0,0:0:0:0:
173,234,3995,1,0,0:0:0:0:
252,64,4285,1,0,0:0:0:0:
56,172,4672,5,0,0:0:0:0:
89,189,4768,1,0,0:0:0:0:
127,198,4865,1,0,0:0:0:0:
165,197,4962,1,0,0:0:0:0:
202,187,5059,2,0,P|259:166|399:241,1,220
284,248,5640,5,0,0:0:0:0:
480,176,5833,1,0,0:0:0:0:
432,288,6027,1,0,0:0:0:0:
406,266,6123,1,0,0:0:0:0:
387,239,6220,1,0,0:0:0:0:
375,209,6317,1,0,0:0:0:0:
371,176,6414,1,0,0:0:0:0:
375,143,6510,1,0,0:0:0:0:
387,113,6607,1,0,0:0:0:0:
406,86,6704,1,0,0:0:0:0:
431,65,6801,1,0,0:0:0:0:
260,132,7188,6,0,P|194:147|80:108,1,165
40,92,7575,2,0,L|-16:102,1,55
80,224,7769,2,0,L|134:214,1,55
224,312,7963,1,0,0:0:0:0:
384,236,8156,5,0,0:0:0:0:
384,236,8253,1,0,0:0:0:0:
384,236,8350,2,0,L|374:94,1,110
472,136,8640,5,0,0:0:0:0:
472,136,8737,2,0,L|462:-6,1,110
368,128,9027,5,0,0:0:0:0:
368,128,9124,2,0,L|358:-14,1,110
232,24,9414,5,0,0:0:0:0:
232,24,9511,2,0,L|224:133,1,110
96,120,9801,5,0,0:0:0:0:
96,120,9898,2,0,L|103:229,1,110
336,220,10285,1,0,0:0:0:0:
200,328,10479,1,0,0:0:0:0:
436,324,10672,6,0,L|327:329,2,73.3333333333333
240,224,11059,2,0,L|349:229,2,73.3333333333333
464,128,11446,2,0,L|355:133,2,73.3333333333333
224,56,11833,2,0,L|298:60,2,73.3333333333333
390,131,12221,5,0,0:0:0:0:
300,264,12414,1,0,0:0:0:0:
286,240,12510,1,0,0:0:0:0:
266,221,12607,1,0,0:0:0:0:
241,209,12704,1,0,0:0:0:0:
214,205,12801,1,0,0:0:0:0:
187,210,12897,1,0,0:0:0:0:
163,222,12995,2,0,P|93:238|130:124,1,220
380,96,13769,5,0,0:0:0:0:
248,120,13963,1,0,0:0:0:0:
464,192,14156,1,0,0:0:0:0:
376,84,14350,1,0,0:0:0:0:
392,296,14543,1,0,0:0:0:0:
156,240,14737,5,0,0:0:0:0:
205,259,14833,1,0,0:0:0:0:
254,237,14930,1,0,0:0:0:0:
272,184,15027,1,0,0:0:0:0:
245,139,15124,1,0,0:0:0:0:
193,125,15220,1,0,0:0:0:0:
148,153,15317,2,0,B|133:130|133:130|131:98,1,55
80,248,15511,5,0,0:0:0:0:
50,223,15607,1,0,0:0:0:0:
32,189,15704,1,0,0:0:0:0:
25,152,15801,1,0,0:0:0:0:
32,114,15898,1,0,0:0:0:0:
52,81,15994,1,0,0:0:0:0:
82,57,16091,1,0,0:0:0:0:
119,50,16188,1,0,0:0:0:0:
158,51,16285,1,0,0:0:0:0:
195,59,16382,1,0,0:0:0:0:
231,74,16479,1,0,0:0:0:0:
267,86,16575,1,0,0:0:0:0:
305,92,16672,1,0,0:0:0:0:
344,91,16769,1,0,0:0:0:0:
382,85,16866,5,0,0:0:0:0:
417,70,16962,1,0,0:0:0:0:
455,75,17059,1,0,0:0:0:0:
485,97,17156,1,0,0:0:0:0:
501,132,17253,1,0,0:0:0:0:
498,170,17349,1,0,0:0:0:0:
477,202,17446,1,0,0:0:0:0:
443,219,17543,1,0,0:0:0:0:
405,218,17640,5,0,0:0:0:0:
372,198,17736,1,0,0:0:0:0:
336,186,17833,1,0,0:0:0:0:
298,181,17930,1,0,0:0:0:0:
260,185,18027,1,0,0:0:0:0:
223,194,18123,1,0,0:0:0:0:
196,221,18220,1,0,0:0:0:0:
187,258,18317,1,0,0:0:0:0:
199,294,18414,5,0,0:0:0:0:
224,323,18510,1,0,0:0:0:0:
260,334,18607,1,0,0:0:0:0:
297,326,18704,1,0,0:0:0:0:
328,296,18801,1,0,0:0:0:0:
336,258,18897,1,0,0:0:0:0:
327,221,18994,1,0,0:0:0:0:
302,192,19091,1,0,0:0:0:0:
267,178,19188,5,0,0:0:0:0:
96,200,19382,1,0,0:0:0:0:
256,16,19575,1,0,0:0:0:0:
264,160,19769,1,0,0:0:0:0:
48,112,19963,5,0,0:0:0:0:
80,95,20027,1,0,0:0:0:0:
115,84,20092,1,0,0:0:0:0:
152,80,20156,1,0,0:0:0:0:
188,83,20221,1,0,0:0:0:0:
224,92,20285,1,0,0:0:0:0:
257,107,20350,2,0,L|315:98,5,36.6666666666667
344,144,20737,5,0,0:0:0:0:
168,232,20930,1,0,0:0:0:0:
448,200,21124,1,0,0:0:0:0:
272,304,21317,1,0,0:0:0:0:
448,192,21511,6,0,L|457:294,1,55
352,64,21801,5,0,0:0:0:0:
352,64,21898,2,0,L|343:132,1,55
168,232,22188,5,0,0:0:0:0:
168,232,22285,2,0,L|163:171,1,55
288,200,22479,5,0,0:0:0:0:
64,288,22769,1,0,0:0:0:0:
384,296,23059,5,0,0:0:0:0:
384,296,23156,1,0,0:0:0:0:
384,296,23253,1,0,0:0:0:0:
384,296,23350,1,0,0:0:0:0:
464,144,23543,1,0,0:0:0:0:
232,200,23737,2,0,L|216:272,1,55
512,248,24027,2,0,L|504:176,1,55
336,88,24317,1,0,0:0:0:0:
400,360,24511,1,0,0:0:0:0:
128,216,24704,5,0,0:0:0:0:
128,216,24801,1,0,0:0:0:0:
128,216,24898,1,0,0:0:0:0:
408,168,25092,1,0,0:0:0:0:
160,360,25285,2,0,L|145:295,1,55
216,72,25575,2,0,L|231:154,1,55
328,272,25866,1,0,0:0:0:0:
32,184,26059,5,0,0:0:0:0:
32,184,26156,1,0,0:0:0:0:
32,184,26253,1,0,0:0:0:0:
32,184,26350,1,0,0:0:0:0:
32,184,26446,1,0,0:0:0:0:
376,104,26640,1,0,0:0:0:0:
200,352,26833,2,0,L|221:275,1,55
16,104,27124,2,0,L|-1:175,1,55
344,264,27414,1,0,0:0:0:0:
8,360,27608,5,0,0:0:0:0:
8,360,27704,1,0,0:0:0:0:
8,360,27801,1,0,0:0:0:0:
8,360,27898,1,0,0:0:0:0:
8,360,27995,1,0,0:0:0:0:
256,120,28188,1,0,0:0:0:0:
464,352,28382,5,0,0:0:0:0:
464,352,28479,1,0,0:0:0:0:
409,314,28608,1,0,0:0:0:0:
347,292,28737,1,0,0:0:0:0:
282,285,28866,1,0,0:0:0:0:
217,295,28995,1,0,0:0:0:0:
156,321,29124,1,0,0:0:0:0:
256,192,29253,12,0,32350,0:0:0:0:
192,304,33124,6,0,P|71:282|204:174,1,385
248,208,33898,2,0,P|338:252|230:117,1,577.500022029878
0,206,35446,6,0,B|79:156|209:216|209:216|357:304|445:216|468:110|436:22|333:-25|246:-6|171:60|209:161,1,847.00002584839
192,336,38543,5,0,0:0:0:0:
192,336,38608,1,0,0:0:0:0:
205,321,38672,1,0,0:0:0:0:
220,308,38737,1,0,0:0:0:0:
238,297,38801,1,0,0:0:0:0:
256,289,38866,1,0,0:0:0:0:
275,283,38930,1,0,0:0:0:0:
295,280,38995,1,0,0:0:0:0:
315,280,39059,1,0,0:0:0:0:
335,283,39124,1,0,0:0:0:0:
355,288,39188,1,0,0:0:0:0:
373,296,39253,1,0,0:0:0:0:
390,307,39317,6,0,P|439:295|330:174,1,330
320,176,39963,1,0,0:0:0:0:
320,176,40027,1,0,0:0:0:0:
320,176,40092,2,0,P|247:206|165:99,1,220
40,272,40866,2,0,L|179:262,2,123.750004720688
416,288,41640,6,0,L|315:302,1,82.5000031471254
216,320,42027,2,0,L|144:312,1,41.2500015735627
304,136,42317,2,0,L|376:144,1,41.2500015735627
184,216,42608,2,0,L|143:211,1,41.2500015735627
392,160,42898,1,0,0:0:0:0:
176,112,43092,5,0,0:0:0:0:
176,112,43188,1,0,0:0:0:0:
176,112,43285,1,0,0:0:0:0:
296,240,43479,1,0,0:0:0:0:
104,344,43672,1,0,0:0:0:0:
104,344,43769,1,0,0:0:0:0:
104,344,43866,1,0,0:0:0:0:
272,144,44059,1,0,0:0:0:0:
416,360,44350,5,0,0:0:0:0:
416,360,44446,1,0,0:0:0:0:
416,360,44543,1,0,0:0:0:0:
416,360,44640,1,0,0:0:0:0:
72,208,45511,5,0,0:0:0:0:
160,184,45704,1,0,0:0:0:0:
248,200,45898,1,0,0:0:0:0:
328,168,46092,1,0,0:0:0:0:
328,168,46156,1,0,0:0:0:0:
328,168,46221,1,0,0:0:0:0:
328,168,46285,2,0,L|496:168,1,165.000006294251
392,320,47059,6,0,B|279:338|279:338|164:324,1,220
424,104,48085,6,0,B|367:94|367:94|300:101,1,110
168,200,48357,1,0,0:0:0:0:
432,112,48494,2,0,L|439:241,1,110
272,312,48766,1,0,0:0:0:0:
320,112,48903,2,0,B|264:108|264:108|198:119,1,110
72,272,49175,5,0,0:0:0:0:
112,128,49312,1,0,0:0:0:0:
304,256,49448,1,0,0:0:0:0:
160,320,49585,1,0,0:0:0:0:
280,144,49721,2,0,L|298:276,1,110
448,152,49994,1,0,0:0:0:0:
416,352,50130,1,0,0:0:0:0:
160,320,50266,6,0,P|234:325|295:306,1,110
464,264,50539,1,0,0:0:0:0:
272,144,50675,2,0,L|281:261,1,110
64,184,50948,1,0,0:0:0:0:
280,136,51085,2,0,P|183:129|145:151,1,110
408,192,51357,5,0,0:0:0:0:
296,248,51494,1,0,0:0:0:0:
400,32,51630,1,0,0:0:0:0:
408,184,51766,1,0,0:0:0:0:
176,184,51903,1,0,0:0:0:0:
408,176,52039,1,0,0:0:0:0:
176,192,52175,1,0,0:0:0:0:
320,312,52312,1,0,0:0:0:0:
288,48,52448,6,0,L|269:179,1,110
144,256,52721,1,0,0:0:0:0:
320,312,52857,2,0,L|304:203,1,110
496,240,53130,1,0,0:0:0:0:
320,312,53266,2,0,B|268:316|268:316|211:304,1,110
40,328,53539,5,0,0:0:0:0:
144,96,53675,1,0,0:0:0:0:
24,208,53812,1,0,0:0:0:0:
240,272,53948,1,0,0:0:0:0:
168,160,54085,1,0,0:0:0:0:
152,360,54221,1,0,0:0:0:0:
368,264,54357,1,0,0:0:0:0:
168,280,54494,1,0,0:0:0:0:
136,104,54630,5,0,0:0:0:0:
376,136,54766,1,0,0:0:0:0:
264,32,54903,1,0,0:0:0:0:
384,216,55039,5,0,0:0:0:0:
408,56,55175,1,0,0:0:0:0:
248,104,55312,1,0,0:0:0:0:
488,216,55448,5,0,0:0:0:0:
312,120,55585,1,0,0:0:0:0:
168,288,55721,5,0,0:0:0:0:
352,200,55857,1,0,0:0:0:0:
304,368,55994,1,0,0:0:0:0:
120,176,56130,1,0,0:0:0:0:
120,176,56198,1,0,0:0:0:0:
120,176,56266,1,0,0:0:0:0:
153,157,56334,1,0,0:0:0:0:
191,154,56402,1,0,0:0:0:0:
228,166,56470,1,0,0:0:0:0:
256,191,56538,1,0,0:0:0:0:
273,226,56606,1,0,0:0:0:0:
274,264,56675,1,0,0:0:0:0:
260,300,56743,1,0,0:0:0:0:
234,327,56812,6,0,B|171:347|171:347|73:322,1,137.5
440,216,57085,1,0,0:0:0:0:
296,40,57221,2,0,L|304:206,1,137.5
440,304,57494,1,0,0:0:0:0:
128,272,57630,2,0,L|320:255,1,137.5
432,96,57903,5,0,0:0:0:0:
368,288,58039,1,0,0:0:0:0:
192,144,58175,1,0,0:0:0:0:
496,232,58312,1,0,0:0:0:0:
272,344,58448,2,0,L|275:169,1,137.5
128,32,58721,2,0,L|125:207,1,137.5
496,232,58994,6,0,P|428:244|363:226,1,137.5
256,48,59266,1,0,0:0:0:0:
96,248,59403,2,0,L|76:95,1,137.5
360,176,59675,1,0,0:0:0:0:
160,24,59812,2,0,L|142:160,1,137.5
312,304,60085,5,0,0:0:0:0:
88,288,60221,1,0,0:0:0:0:
296,112,60357,1,0,0:0:0:0:
304,344,60494,1,0,0:0:0:0:
512,184,60630,2,0,L|349:186,1,137.5
88,288,60903,2,0,L|251:286,1,137.5
152,40,61175,5,0,0:0:0:0:
216,200,61312,1,0,0:0:0:0:
272,40,61448,1,0,0:0:0:0:
120,136,61585,1,0,0:0:0:0:
120,136,61721,1,0,0:0:0:0:
304,136,61857,1,0,0:0:0:0:
152,40,61994,5,0,0:0:0:0:
216,200,62130,1,0,0:0:0:0:
272,40,62266,1,0,0:0:0:0:
272,40,62403,1,0,0:0:0:0:
120,136,62539,1,0,0:0:0:0:
304,136,62675,1,0,0:0:0:0:
136,312,62812,2,0,L|117:146,1,137.5
408,64,63085,2,0,L|392:200,1,137.5
496,320,63357,5,0,0:0:0:0:
473,345,63425,1,0,0:0:0:0:
442,361,63493,1,0,0:0:0:0:
408,364,63561,1,0,0:0:0:0:
376,354,63629,1,0,0:0:0:0:
349,333,63697,1,0,0:0:0:0:
332,303,63766,1,0,0:0:0:0:
326,270,63834,1,0,0:0:0:0:
334,236,63903,1,0,0:0:0:0:
348,205,63971,1,0,0:0:0:0:
350,171,64039,1,0,0:0:0:0:
339,139,64107,1,0,0:0:0:0:
318,112,64175,1,0,0:0:0:0:
288,96,64243,1,0,0:0:0:0:
254,92,64312,1,0,0:0:0:0:
221,100,64380,1,0,0:0:0:0:
193,120,64448,5,0,0:0:0:0:
175,149,64516,1,0,0:0:0:0:
168,183,64584,1,0,0:0:0:0:
174,216,64652,1,0,0:0:0:0:
192,245,64721,1,0,0:0:0:0:
227,278,64789,1,0,0:0:0:0:
272,295,64857,1,0,0:0:0:0:
320,295,64925,1,0,0:0:0:0:
364,276,64993,1,0,0:0:0:0:
397,242,65061,1,0,0:0:0:0:
416,198,65130,1,0,0:0:0:0:
416,150,65198,1,0,0:0:0:0:
399,105,65266,1,0,0:0:0:0:
88,240,65539,5,0,0:0:0:0:
464,280,65948,1,0,0:0:0:0:
32,320,66357,1,0,0:0:0:0:
320,96,66903,5,0,0:0:0:0:
256,344,67175,1,0,0:0:0:0:
48,176,67448,1,0,0:0:0:0:
448,304,67721,1,0,0:0:0:0:
224,96,68539,5,0,0:0:0:0:
224,328,68675,1,0,0:0:0:0:
496,192,69494,5,0,0:0:0:0:
392,168,69630,1,0,0:0:0:0:
296,200,69766,1,0,0:0:0:0:
192,168,69903,5,0,0:0:0:0:
192,168,70039,1,0,0:0:0:0:
80,240,70175,5,0,0:0:0:0:
80,240,70312,1,0,0:0:0:0:
88,112,70448,5,0,0:0:0:0:
88,112,70585,1,0,0:0:0:0:
0,216,70721,5,0,0:0:0:0:
0,216,70857,1,0,0:0:0:0:
272,192,71130,1,0,0:0:0:0:
272,192,71266,1,0,0:0:0:0:
16,296,71539,5,0,0:0:0:0:
352,192,71812,1,0,0:0:0:0:
36,372,72085,5,0,0:0:0:0:
112,344,72221,1,0,0:0:0:0:
184,320,72357,1,0,0:0:0:0:
256,296,72494,1,0,0:0:0:0:
456,320,72766,5,0,0:0:0:0:
128,240,73039,1,0,0:0:0:0:
408,80,73721,5,0,0:0:0:0:
336,352,73994,1,0,0:0:0:0:
192,224,74266,1,0,0:0:0:0:
480,256,74948,5,0,0:0:0:0:
320,152,75084,1,0,0:0:0:0:
320,152,75220,1,0,0:0:0:0:
272,368,75357,1,0,0:0:0:0:
24,224,75766,5,0,0:0:0:0:
416,120,76175,1,0,0:0:0:0:
120,192,76448,5,0,0:0:0:0:
416,280,76721,1,0,0:0:0:0:
416,280,76857,1,0,0:0:0:0:
368,56,77130,5,0,0:0:0:0:
288,72,77266,1,0,0:0:0:0:
208,88,77403,1,0,0:0:0:0:
128,104,77539,1,0,0:0:0:0:
272,320,77812,5,0,0:0:0:0:
272,320,77948,1,0,0:0:0:0:
112,288,78085,1,0,0:0:0:0:
304,208,78221,1,0,0:0:0:0:
192,176,78357,1,0,0:0:0:0:
272,328,78494,1,0,0:0:0:0:
384,176,78630,5,0,0:0:0:0:
72,184,79448,5,0,0:0:0:0:
72,184,79585,1,0,0:0:0:0:
288,48,79857,1,0,0:0:0:0:
312,136,79994,1,0,0:0:0:0:
184,48,80130,1,0,0:0:0:0:
400,248,80403,5,0,0:0:0:0:
304,248,80539,1,0,0:0:0:0:
440,168,80675,1,0,0:0:0:0:
312,360,80812,6,0,L|296:186,1,165
288,128,81085,1,0,0:0:0:0:
56,288,81221,6,0,P|124:309|229:270,1,165
272,248,81494,1,0,0:0:0:0:
496,144,81630,6,0,P|408:122|305:150,1,165
277,167,81903,1,0,0:0:0:0:
128,120,82039,1,0,0:0:0:0:
200,248,82175,1,0,0:0:0:0:
264,40,82312,1,0,0:0:0:0:
336,328,82448,5,0,0:0:0:0:
16,248,82721,1,0,0:0:0:0:
448,216,82994,6,0,P|382:160|247:219,1,206.25
200,224,83266,2,0,B|193:188|193:188|201:145,1,68.75
88,64,83403,2,0,L|111:308,1,206.25
184,336,83675,2,0,B|152:354|152:354|111:357,1,68.75
248,272,83812,6,0,P|310:222|466:285,1,206.25
488,288,84085,1,0,0:0:0:0:
352,288,84221,1,0,0:0:0:0:
432,72,84357,2,0,L|280:79,1,137.5
0,192,84630,2,0,L|152:185,1,137.5
408,136,84903,1,0,0:0:0:0:
256,288,85039,1,0,0:0:0:0:
160,88,85175,6,0,B|257:61|257:61|395:85,1,206.25
432,96,85448,1,0,0:0:0:0:
240,224,85585,1,0,0:0:0:0:
472,272,85721,2,0,L|458:125,1,137.5
328,336,85994,1,0,0:0:0:0:
200,152,86130,1,0,0:0:0:0:
72,344,86266,1,0,0:0:0:0:
256,272,86403,1,0,0:0:0:0:
32,176,86539,2,0,L|34:326,1,137.5
368,200,86812,5,0,0:0:0:0:
152,272,86948,1,0,0:0:0:0:
152,272,87085,1,0,0:0:0:0:
376,304,87221,1,0,0:0:0:0:
248,48,87357,5,0,0:0:0:0:
240,352,87494,1,0,0:0:0:0:
424,112,87630,1,0,0:0:0:0:
128,192,87766,1,0,0:0:0:0:
432,296,87903,1,0,0:0:0:0:
248,48,88039,1,0,0:0:0:0:
240,344,88175,1,0,0:0:0:0:
424,112,88312,1,0,0:0:0:0:
128,192,88585,5,0,0:0:0:0:
128,192,88722,1,0,0:0:0:0:
480,192,88994,6,0,P|374:208|250:159,1,206.25
224,152,89266,2,0,P|152:162|233:196,1,206.25
384,288,89539,2,0,B|314:296|314:296|217:264,1,137.5
88,304,89812,1,0,0:0:0:0:
320,88,89948,1,0,0:0:0:0:
248,360,90085,1,0,0:0:0:0:
32,176,90221,1,0,0:0:0:0:
32,176,90289,1,0,0:0:0:0:
32,176,90357,1,0,0:0:0:0:
312,256,90494,1,0,0:0:0:0:
136,328,90630,5,0,0:0:0:0:
160,64,90766,1,0,0:0:0:0:
344,168,90903,1,0,0:0:0:0:
96,232,91039,1,0,0:0:0:0:
280,56,91175,1,0,0:0:0:0:
344,304,91312,1,0,0:0:0:0:
504,112,91448,1,0,0:0:0:0:
208,216,91585,5,0,0:0:0:0:
208,216,91653,1,0,0:0:0:0:
208,216,91721,2,0,B|243:206|243:206|280:204,2,73.3333333333333
120,176,91994,2,0,B|84:185|84:185|47:187,2,73.3333333333333
48,104,92266,5,0,0:0:0:0:
103,56,92356,1,0,0:0:0:0:
174,50,92447,1,0,0:0:0:0:
242,84,92539,1,0,0:0:0:0:
311,103,92629,1,0,0:0:0:0:
383,104,92720,1,0,0:0:0:0:
392,100,92812,2,0,B|427:92|427:92|512:104,2,73.3333333333333
480,192,93085,2,0,B|445:200|445:200|360:188,2,73.3333333333333
368,248,93357,5,0,0:0:0:0:
309,244,93448,1,0,0:0:0:0:
250,240,93539,1,0,0:0:0:0:
191,236,93630,1,0,0:0:0:0:
132,233,93721,1,0,0:0:0:0:
73,230,93812,1,0,0:0:0:0:
64,232,93903,2,0,L|56:144,2,73.3333333333333
136,144,94175,2,0,L|129:70,2,73.3333333333333
224,64,94448,5,0,0:0:0:0:
320,136,94585,1,0,0:0:0:0:
320,136,94653,1,0,0:0:0:0:
320,136,94721,1,0,0:0:0:0:
400,24,94857,1,0,0:0:0:0:
472,264,94994,5,0,0:0:0:0:
472,264,95062,1,0,0:0:0:0:
472,264,95130,1,0,0:0:0:0:
446,284,95198,1,0,0:0:0:0:
416,297,95266,1,0,0:0:0:0:
383,303,95334,1,0,0:0:0:0:
350,300,95402,1,0,0:0:0:0:
319,290,95470,1,0,0:0:0:0:
291,272,95539,1,0,0:0:0:0:
268,242,95607,1,0,0:0:0:0:
236,220,95675,1,0,0:0:0:0:
200,207,95743,1,0,0:0:0:0:
162,206,95811,1,0,0:0:0:0:
125,216,95879,1,0,0:0:0:0:
92,236,95948,1,0,0:0:0:0:
66,264,96016,1,0,0:0:0:0:
50,299,96085,6,0,B|25:226|25:226|32:136,1,165
48,72,96357,1,0,0:0:0:0:
296,24,96494,1,0,0:0:0:0:
216,288,96766,5,0,0:0:0:0:
216,288,96834,1,0,0:0:0:0:
216,288,96902,1,0,0:0:0:0:
400,264,97039,1,0,0:0:0:0:
224,136,97175,2,0,L|260:324,1,165
272,360,97448,1,0,0:0:0:0:
416,112,97585,1,0,0:0:0:0:
88,256,97857,5,0,0:0:0:0:
88,256,97925,1,0,0:0:0:0:
88,256,97994,1,0,0:0:0:0:
114,283,98062,1,0,0:0:0:0:
149,297,98130,1,0,0:0:0:0:
187,293,98198,1,0,0:0:0:0:
220,273,98266,5,0,0:0:0:0:
235,238,98334,1,0,0:0:0:0:
266,216,98402,1,0,0:0:0:0:
304,215,98470,1,0,0:0:0:0:
337,233,98538,1,0,0:0:0:0:
355,267,98606,1,0,0:0:0:0:
352,305,98675,1,0,0:0:0:0:
330,335,98743,1,0,0:0:0:0:
296,352,98812,5,0,0:0:0:0:
252,346,98880,1,0,0:0:0:0:
215,322,98948,1,0,0:0:0:0:
192,285,99016,1,0,0:0:0:0:
187,242,99084,1,0,0:0:0:0:
200,200,99152,1,0,0:0:0:0:
230,169,99221,1,0,0:0:0:0:
271,153,99289,1,0,0:0:0:0:
314,155,99357,6,0,L|387:148,2,73.3333333333333
400,64,99630,2,0,L|327:71,2,73.3333333333333
264,48,99903,1,0,0:0:0:0:
192,64,99994,1,0,0:0:0:0:
120,80,100085,1,0,0:0:0:0:
48,96,100175,2,0,L|80:168,1,73.3333333333333
32,264,100357,1,0,0:0:0:0:
176,160,100448,5,0,0:0:0:0:
400,272,100585,1,0,0:0:0:0:
192,352,100721,2,0,L|181:208,1,137.5
456,176,100994,1,0,0:0:0:0:
296,56,101130,1,0,0:0:0:0:
328,312,101266,2,0,L|309:153,1,137.5
48,96,101539,5,0,0:0:0:0:
48,96,101675,1,0,0:0:0:0:
280,216,101812,1,0,0:0:0:0:
120,320,101948,1,0,0:0:0:0:
240,64,102085,1,0,0:0:0:0:
360,256,102221,1,0,0:0:0:0:
80,152,102357,1,0,0:0:0:0:
256,72,102494,1,0,0:0:0:0:
272,336,102630,6,0,L|262:179,1,137.5
392,48,102903,1,0,0:0:0:0:
496,256,103039,2,0,B|425:267|425:267|322:252,1,137.5
152,208,103312,1,0,0:0:0:0:
288,24,103448,2,0,L|303:187,1,137.5
456,312,103721,5,0,0:0:0:0:
184,208,103857,1,0,0:0:0:0:
432,120,103994,1,0,0:0:0:0:
328,360,104130,1,0,0:0:0:0:
264,72,104266,1,0,0:0:0:0:
264,72,104403,1,0,0:0:0:0:
496,208,104539,1,0,0:0:0:0:
240,328,104675,1,0,0:0:0:0:
424,40,104812,6,0,L|435:211,1,137.5
504,336,105085,1,0,0:0:0:0:
304,232,105221,2,0,B|239:255|239:255|141:253,1,137.5
0,336,105494,1,0,0:0:0:0:
137,60,105630,2,0,L|140:220,1,137.5
376,144,105903,5,0,0:0:0:0:
232,272,106039,1,0,0:0:0:0:
216,64,106175,1,0,0:0:0:0:
424,336,106312,1,0,0:0:0:0:
496,120,106448,1,0,0:0:0:0:
256,304,106585,1,0,0:0:0:0:
496,312,106721,1,0,0:0:0:0:
280,112,106857,1,0,0:0:0:0:
72,312,106994,6,0,B|53:240|53:240|57:159,1,137.5
288,48,107266,1,0,0:0:0:0:
216,296,107403,2,0,L|201:124,1,137.5
432,184,107675,1,0,0:0:0:0:
216,136,107812,2,0,L|231:295,1,137.5
496,176,108085,1,0,0:0:0:0:
368,312,108221,5,0,0:0:0:0:
338,328,108289,1,0,0:0:0:0:
304,336,108357,1,0,0:0:0:0:
270,334,108425,1,0,0:0:0:0:
238,323,108494,1,0,0:0:0:0:
208,295,108562,1,0,0:0:0:0:
193,257,108630,1,0,0:0:0:0:
195,216,108698,1,0,0:0:0:0:
214,179,108766,1,0,0:0:0:0:
246,154,108834,1,0,0:0:0:0:
286,144,108903,1,0,0:0:0:0:
318,120,108971,1,0,0:0:0:0:
330,81,109039,1,0,0:0:0:0:
317,42,109107,1,0,0:0:0:0:
284,19,109175,6,0,L|114:57,1,137.5
464,104,109448,1,0,0:0:0:0:
288,256,109585,2,0,B|275:188|275:188|292:101,1,137.5
488,272,109857,1,0,0:0:0:0:
200,128,109994,2,0,L|205:265,1,137.5
0,224,110266,5,0,0:0:0:0:
128,32,110403,1,0,0:0:0:0:
192,264,110539,1,0,0:0:0:0:
88,192,110675,1,0,0:0:0:0:
344,144,110812,1,0,0:0:0:0:
288,304,110948,1,0,0:0:0:0:
248,64,111085,1,0,0:0:0:0:
472,176,111221,1,0,0:0:0:0:
184,120,111357,6,0,L|161:300,1,137.5
432,304,111630,1,0,0:0:0:0:
184,360,111766,2,0,L|200:192,1,137.5
424,112,112039,1,0,0:0:0:0:
176,24,112175,2,0,L|160:188,1,137.5
448,224,112448,5,0,0:0:0:0:
240,272,112585,1,0,0:0:0:0:
352,56,112721,1,0,0:0:0:0:
416,288,112857,1,0,0:0:0:0:
144,128,112994,1,0,0:0:0:0:
112,328,113130,1,0,0:0:0:0:
320,256,113266,1,0,0:0:0:0:
320,256,113403,1,0,0:0:0:0:
32,136,113539,5,0,0:0:0:0:
160,216,113675,1,0,0:0:0:0:
184,64,113812,1,0,0:0:0:0:
40,272,113948,5,0,0:0:0:0:
248,272,114085,1,0,0:0:0:0:
144,128,114221,1,0,0:0:0:0:
144,352,114357,5,0,0:0:0:0:
144,352,114494,1,0,0:0:0:0:
336,256,114630,1,0,0:0:0:0:
192,264,114766,5,0,0:0:0:0:
352,368,114903,1,0,0:0:0:0:
256,128,115039,1,0,0:0:0:0:
480,288,115175,2,0,L|493:119,1,137.5
280,0,115448,2,0,L|267:169,1,137.5
56,304,115721,6,0,B|49:232|49:232|72:149,1,137.5
248,312,115994,1,0,0:0:0:0:
370,99,116130,2,0,L|377:257,1,137.5
176,152,116403,1,0,0:0:0:0:
336,352,116539,2,0,L|327:209,1,137.5
80,264,116812,5,0,0:0:0:0:
272,88,116948,1,0,0:0:0:0:
336,304,117085,1,0,0:0:0:0:
16,208,117221,1,0,0:0:0:0:
184,360,117357,1,0,0:0:0:0:
168,88,117494,1,0,0:0:0:0:
416,208,117630,1,0,0:0:0:0:
96,272,117766,1,0,0:0:0:0:
304,112,117903,6,0,L|313:220,2,91.6666666666667
408,128,118175,5,0,0:0:0:0:
352,344,118380,5,0,0:0:0:0:
358,338,118448,5,0,0:0:0:0:
256,192,118585,12,0,122266,0:0:0:0:
