osu file format v14

[General]
AudioFilename: Sreved.mp3
AudioLeadIn: 0
PreviewTime: 82448
Countdown: 1
SampleSet: None
StackLeniency: 0.7
Mode: 0
LetterboxInBreaks: 1
WidescreenStoryboard: 1

[Editor]
Bookmarks: 11446,48494,92812
DistanceSpacing: 0.9
BeatDivisor: 4
GridSize: 4
TimelineZoom: 1.4

[Metadata]
Title:Preserved Valkyria
TitleUnicode:Preserved Valkyria
Artist:penoreri
ArtistUnicode:penoreri
Creator:Necroluttah
Version:Arles
Source:SOUND VOLTEX III GRAVITY WARS
Tags:sdvx iii gravity wars necroh lahphnya bakamap
BeatmapID:828242
BeatmapSetID:378400

[Difficulty]
HPDrainRate:4
CircleSize:4
OverallDifficulty:8
ApproachRate:10
SliderMultiplier:2.3
SliderTickRate:1

[Events]
//Background and Video events
0,0,"52151511_p0.jpg",0,0
//Break Periods
//Storyboard Layer 0 (Background)
//Storyboard Layer 1 (Fail)
//Storyboard Layer 2 (Pass)
//Storyboard Layer 3 (Foreground)
//Storyboard Sound Samples

[TimingPoints]
-166,387.096774193548,4,2,0,55,1,0
47059,500,4,2,0,55,1,0
48085,272.727272727273,4,2,0,55,1,0
67721,-133.333333333333,4,2,0,55,0,0
80812,-100,4,2,0,55,0,0
83812,-80,4,2,0,55,0,0

[HitObjects]
324,96,1382,6,0,P|336:160|336:300,1,172.5
344,312,1769,2,0,L|464:280,1,115
144,360,2156,2,0,P|128:288|144:224,1,115
216,208,2446,2,0,P|224:120|208:84,1,115
128,56,2737,1,0,0:0:0:0:
216,224,3124,5,0,0:0:0:0:
216,224,3511,1,0,0:0:0:0:
232,236,3704,1,0,0:0:0:0:
360,164,3995,1,0,0:0:0:0:
360,140,4285,1,0,0:0:0:0:
360,140,4672,5,0,0:0:0:0:
360,164,4769,1,0,0:0:0:0:
360,188,4866,1,0,0:0:0:0:
360,208,4963,1,0,0:0:0:0:
360,228,5059,1,0,0:0:0:0:
360,232,5640,1,0,0:0:0:0:
248,324,5833,2,0,P|152:312|112:288,1,115
72,244,6124,5,0,0:0:0:0:
88,200,6221,1,0,0:0:0:0:
96,156,6317,1,0,0:0:0:0:
100,108,6414,1,0,0:0:0:0:
100,60,6511,1,0,0:0:0:0:
88,16,6608,2,0,P|152:20|168:16,1,57.5
272,36,6801,2,0,P|308:92|216:96,1,172.5
212,100,7188,2,0,B|212:140|200:180|200:180|232:232|232:288,1,172.5
464,340,7575,6,0,P|468:296|464:256,1,57.5
400,168,7769,2,0,P|340:160|324:160,1,57.5
108,184,7963,2,0,P|96:144|96:104,1,57.5
184,36,8156,2,0,P|224:32|256:28,1,57.5
408,184,8350,2,0,P|408:228|400:256,1,57.5
304,336,8543,2,0,L|240:320,1,57.5
84,192,8737,1,0,0:0:0:0:
80,176,8833,1,0,0:0:0:0:
76,160,8930,1,0,0:0:0:0:
72,144,9027,1,0,0:0:0:0:
68,128,9124,6,0,P|64:84|68:56,1,57.5
196,168,9317,2,0,L|196:212|196:256,1,57.5
484,168,9511,2,0,P|484:116|476:80,1,57.5
336,200,9704,2,0,P|340:240|344:268,1,57.5
44,344,9898,2,0,P|24:296|28:272,1,57.5
192,180,10092,2,0,P|160:216|128:228,1,57.5
204,32,10285,2,0,P|260:32|288:48,1,57.5
420,116,10479,2,0,L|428:196,1,57.5
360,308,10672,5,0,0:0:0:0:
380,40,10801,1,0,0:0:0:0:
320,212,10930,1,0,0:0:0:0:
456,112,11059,1,0,0:0:0:0:
228,156,11188,1,0,0:0:0:0:
488,232,11317,1,0,0:0:0:0:
216,136,11446,1,0,0:0:0:0:
272,356,11575,1,0,0:0:0:0:
336,108,11704,1,0,0:0:0:0:
272,372,11833,1,0,0:0:0:0:
204,120,11963,1,0,0:0:0:0:
456,228,12092,1,0,0:0:0:0:
296,44,12221,6,0,P|244:24|160:36,1,115
100,56,12511,1,0,0:0:0:0:
120,104,12608,1,0,0:0:0:0:
128,156,12704,1,0,0:0:0:0:
128,208,12801,1,0,0:0:0:0:
116,260,12898,1,0,0:0:0:0:
132,308,12995,2,0,B|208:296|256:320|256:320|340:304,1,172.5
488,172,13382,2,0,P|408:144|360:108,1,115
352,100,13672,1,0,0:0:0:0:
352,100,13769,5,0,0:0:0:0:
260,256,13963,1,0,0:0:0:0:
80,120,14156,1,0,0:0:0:0:
224,12,14350,1,0,0:0:0:0:
216,336,14543,1,0,0:0:0:0:
352,100,14737,1,0,0:0:0:0:
364,148,14833,1,0,0:0:0:0:
368,200,14930,1,0,0:0:0:0:
364,252,15027,1,0,0:0:0:0:
352,300,15124,1,0,0:0:0:0:
376,320,15221,1,0,0:0:0:0:
392,336,15317,6,0,L|456:324,1,57.5
264,228,15511,2,0,P|224:240|192:256,1,57.5
44,328,15704,2,0,P|100:336|144:324,1,57.5
156,160,15898,2,0,P|104:156|80:160,1,57.5
272,248,16092,1,0,0:0:0:0:
256,200,16188,1,0,0:0:0:0:
256,148,16285,1,0,0:0:0:0:
272,100,16382,1,0,0:0:0:0:
308,64,16479,1,0,0:0:0:0:
348,96,16575,1,0,0:0:0:0:
400,96,16672,1,0,0:0:0:0:
448,76,16769,1,0,0:0:0:0:
468,28,16866,6,0,P|480:68|488:112,1,57.5
424,200,17059,2,0,P|424:236|436:276,1,57.5
380,360,17253,2,0,L|316:348,1,57.5
144,292,17446,2,0,L|228:280,1,57.5
436,192,17640,2,0,P|384:180|344:180,1,57.5
80,180,17833,2,0,P|140:176|168:168,1,57.5
272,36,18027,2,0,P|272:80|276:128,3,57.5
188,108,18414,5,0,0:0:0:0:
204,156,18511,1,0,0:0:0:0:
244,192,18608,1,0,0:0:0:0:
296,192,18704,1,0,0:0:0:0:
340,168,18801,1,0,0:0:0:0:
368,124,18898,1,0,0:0:0:0:
420,112,18995,1,0,0:0:0:0:
468,128,19092,1,0,0:0:0:0:
488,176,19188,2,0,P|488:236|480:276,1,57.5
336,344,19382,2,0,P|332:296|332:264,1,57.5
176,96,19575,2,0,P|184:152|184:192,1,57.5
64,312,19769,2,0,P|52:260|52:228,1,57.5
92,172,19963,5,0,0:0:0:0:
132,160,20027,1,0,0:0:0:0:
172,160,20092,1,0,0:0:0:0:
212,172,20156,1,0,0:0:0:0:
248,188,20221,1,0,0:0:0:0:
288,192,20285,1,0,0:0:0:0:
328,188,20350,1,0,0:0:0:0:
364,176,20414,1,0,0:0:0:0:
392,148,20479,1,0,0:0:0:0:
408,112,20543,1,0,0:0:0:0:
408,72,20608,1,0,0:0:0:0:
392,36,20672,1,0,0:0:0:0:
352,16,20737,1,0,0:0:0:0:
440,244,20930,1,0,0:0:0:0:
496,80,21124,1,0,0:0:0:0:
352,344,21317,2,0,P|336:304|328:264,1,57.5
312,204,21511,6,0,P|240:200|144:272,1,172.5
100,344,21898,2,0,B|120:292|120:292|104:244|104:244|100:164,1,172.5
108,84,22285,1,0,0:0:0:0:
108,84,22382,1,0,0:0:0:0:
108,84,22479,1,0,0:0:0:0:
256,160,22672,1,0,0:0:0:0:
296,192,22769,2,0,P|376:184|408:132,1,115
472,60,23059,5,0,0:0:0:0:
464,112,23156,1,0,0:0:0:0:
460,164,23253,1,0,0:0:0:0:
464,216,23350,1,0,0:0:0:0:
360,332,23543,1,0,0:0:0:0:
100,224,23737,1,0,0:0:0:0:
96,200,23834,1,0,0:0:0:0:
448,152,24027,1,0,0:0:0:0:
452,176,24124,1,0,0:0:0:0:
40,132,24317,1,0,0:0:0:0:
256,176,24511,1,0,0:0:0:0:
32,108,24704,5,0,0:0:0:0:
32,160,24801,1,0,0:0:0:0:
36,212,24898,1,0,0:0:0:0:
392,152,25092,1,0,0:0:0:0:
144,304,25285,1,0,0:0:0:0:
132,272,25382,1,0,0:0:0:0:
456,76,25575,1,0,0:0:0:0:
464,104,25672,1,0,0:0:0:0:
92,48,25866,1,0,0:0:0:0:
308,360,26059,5,0,0:0:0:0:
324,312,26156,1,0,0:0:0:0:
328,260,26252,1,0,0:0:0:0:
328,208,26349,1,0,0:0:0:0:
320,156,26446,1,0,0:0:0:0:
52,312,26640,1,0,0:0:0:0:
212,176,26833,1,0,0:0:0:0:
200,140,26930,1,0,0:0:0:0:
428,284,27124,1,0,0:0:0:0:
416,248,27221,1,0,0:0:0:0:
464,68,27414,1,0,0:0:0:0:
436,304,27608,1,0,0:0:0:0:
384,300,27704,5,0,0:0:0:0:
332,300,27801,1,0,0:0:0:0:
280,308,27898,1,0,0:0:0:0:
232,328,27995,2,0,P|144:344|92:312,1,115
72,260,28285,1,0,0:0:0:0:
284,88,28479,1,0,0:0:0:0:
236,344,28608,1,0,0:0:0:0:
192,32,28737,1,0,0:0:0:0:
88,248,28866,1,0,0:0:0:0:
384,148,28995,1,0,0:0:0:0:
64,116,29124,1,0,0:0:0:0:
296,72,29253,6,0,B|304:96|304:96|308:128,5,38.3333333333333
212,248,29640,2,0,B|208:216|208:216|208:184,5,38.3333333333333
392,136,30027,2,0,B|400:172|400:172|392:208,5,38.3333333333333
324,368,30414,2,0,B|320:340|320:340|324:312,5,38.3333333333333
208,152,30801,6,0,B|184:148|184:148|144:152,5,38.3333333333333
280,264,31188,1,0,0:0:0:0:
316,268,31253,1,0,0:0:0:0:
348,264,31317,1,0,0:0:0:0:
380,256,31382,1,0,0:0:0:0:
412,240,31446,1,0,0:0:0:0:
436,216,31511,1,0,0:0:0:0:
456,188,31575,2,0,B|456:152|456:152|444:120,5,38.3333333333333
324,40,31963,1,0,0:0:0:0:
316,72,32027,1,0,0:0:0:0:
312,108,32092,1,0,0:0:0:0:
316,140,32156,1,0,0:0:0:0:
324,172,32221,1,0,0:0:0:0:
336,204,32285,1,0,0:0:0:0:
356,232,32350,6,0,P|384:236|388:236,23,19.1666666666667
432,320,33124,6,0,B|428:272|428:272|448:220|448:220|416:176|424:144|444:120|472:112|472:112|404:128|364:88|380:12,1,402.5
284,68,33898,2,0,B|232:88|188:44|188:44|208:104|204:128|204:128|244:152|244:152|248:212|248:212|208:248|200:308|200:308|172:240|120:216|120:216|160:196|160:196|112:144|124:88|124:88|60:132|12:116|-16:52,1,862.5
64,20,35446,6,0,B|76:80|76:80|60:144|60:144|72:196|72:196|116:168|168:216|168:216|188:140|176:100|176:100|244:80|292:40|292:40|272:140|352:176|352:176|376:152|436:128|476:172|504:216|464:288,1,920
256,104,37382,2,0,P|244:180|264:248,1,115
292,300,37769,1,0,0:0:0:0:
392,104,38156,2,0,P|460:92|508:116,1,115
164,32,38543,5,0,0:0:0:0:
152,64,38608,1,0,0:0:0:0:
152,100,38672,1,0,0:0:0:0:
164,132,38737,1,0,0:0:0:0:
180,164,38801,1,0,0:0:0:0:
188,200,38866,1,0,0:0:0:0:
184,236,38930,1,0,0:0:0:0:
164,264,38995,1,0,0:0:0:0:
132,276,39059,1,0,0:0:0:0:
96,276,39124,1,0,0:0:0:0:
68,256,39188,1,0,0:0:0:0:
56,224,39253,1,0,0:0:0:0:
60,192,39317,6,0,L|60:152,11,38.3333333333333
128,96,40092,5,0,0:0:0:0:
160,88,40156,1,0,0:0:0:0:
196,92,40221,1,0,0:0:0:0:
228,108,40285,1,0,0:0:0:0:
260,116,40350,1,0,0:0:0:0:
296,116,40414,1,0,0:0:0:0:
328,104,40479,1,0,0:0:0:0:
352,80,40543,1,0,0:0:0:0:
388,72,40608,1,0,0:0:0:0:
420,80,40672,1,0,0:0:0:0:
444,104,40737,1,0,0:0:0:0:
456,136,40801,1,0,0:0:0:0:
452,172,40866,2,0,P|444:296|448:312,1,115
376,360,41156,2,0,P|300:372|264:340,1,115
332,288,41446,1,0,0:0:0:0:
208,216,41640,5,0,0:0:0:0:
208,216,41737,1,0,0:0:0:0:
208,216,41833,1,0,0:0:0:0:
96,320,42027,1,0,0:0:0:0:
96,320,42124,1,0,0:0:0:0:
52,168,42317,1,0,0:0:0:0:
52,168,42414,1,0,0:0:0:0:
324,124,42608,1,0,0:0:0:0:
324,124,42704,1,0,0:0:0:0:
172,48,42898,1,0,0:0:0:0:
172,48,42995,1,0,0:0:0:0:
172,48,43092,1,0,0:0:0:0:
172,48,43188,6,0,B|172:108|172:108|208:180,1,115
280,216,43479,2,0,L|420:192,1,115
456,124,43769,1,0,0:0:0:0:
488,280,43963,1,0,0:0:0:0:
488,280,44059,2,0,L|360:260,1,115
132,356,44350,1,0,0:0:0:0:
112,308,44446,1,0,0:0:0:0:
108,256,44543,1,0,0:0:0:0:
116,204,44640,1,0,0:0:0:0:
144,160,44737,5,0,0:0:0:0:
144,160,45511,1,0,0:0:0:0:
244,220,45704,1,0,0:0:0:0:
248,96,45898,1,0,0:0:0:0:
244,244,46092,1,0,0:0:0:0:
164,56,46285,5,0,0:0:0:0:
164,56,47059,5,0,0:0:0:0:
256,96,47559,1,0,0:0:0:0:
256,96,48085,6,0,P|336:84|396:80,1,115
104,264,48357,1,0,0:0:0:0:
92,40,48494,1,0,0:0:0:0:
184,328,48630,1,0,0:0:0:0:
228,96,48766,1,0,0:0:0:0:
312,304,48903,2,0,P|384:304|440:272,1,115
480,116,49175,6,0,P|420:112|356:140,1,115
44,180,49448,1,0,0:0:0:0:
404,200,49585,1,0,0:0:0:0:
68,368,49721,2,0,P|52:296|32:232,1,115
104,84,49994,2,0,P|192:68|236:96,1,115
384,312,50266,6,0,P|460:324|504:304,1,115
336,84,50539,1,0,0:0:0:0:
160,208,50675,2,0,L|176:344,1,115
228,40,50948,1,0,0:0:0:0:
388,336,51085,2,0,P|404:264|400:196,1,115
256,152,51357,6,0,P|184:140|112:144,1,115
104,148,51562,1,0,0:0:0:0:
104,148,51630,2,0,P|104:228|96:312,1,115
468,224,51903,2,0,P|396:216|352:204,1,115
20,220,52175,2,0,P|104:220|148:208,1,115
284,56,52448,6,0,P|352:92|384:152,1,115
248,332,52721,1,0,0:0:0:0:
84,152,52857,2,0,P|84:76|132:36,1,115
420,52,53130,1,0,0:0:0:0:
464,344,53266,2,0,P|368:332|344:328,1,115
296,168,53539,5,0,0:0:0:0:
248,152,53607,1,0,0:0:0:0:
196,156,53675,1,0,0:0:0:0:
148,172,53744,1,0,0:0:0:0:
112,208,53812,1,0,0:0:0:0:
256,48,53948,1,0,0:0:0:0:
152,336,54085,2,0,P|68:320|16:288,1,115
360,336,54357,2,0,P|444:320|496:288,1,115
168,24,54630,6,0,P|164:104|204:176,1,115
224,204,54835,1,0,0:0:0:0:
224,204,54903,2,0,P|300:192|344:168,1,115
480,52,55175,2,0,P|412:36|356:44,1,115
296,68,55380,1,0,0:0:0:0:
296,68,55448,1,0,0:0:0:0:
328,300,55585,1,0,0:0:0:0:
328,300,55653,1,0,0:0:0:0:
328,300,55721,6,0,P|404:300|448:272,1,115
160,36,55994,1,0,0:0:0:0:
176,304,56130,1,0,0:0:0:0:
312,56,56266,1,0,0:0:0:0:
48,156,56403,1,0,0:0:0:0:
368,172,56539,1,0,0:0:0:0:
32,168,56675,1,0,0:0:0:0:
284,372,56812,6,0,P|356:376|408:340,1,115
128,36,57085,2,0,P|132:120|152:204,1,115
176,320,57357,1,0,0:0:0:0:
392,88,57494,1,0,0:0:0:0:
388,364,57630,2,0,P|292:352|248:336,1,115
16,180,57903,5,0,0:0:0:0:
48,348,58039,1,0,0:0:0:0:
472,188,58175,1,0,0:0:0:0:
464,24,58312,1,0,0:0:0:0:
464,24,58380,1,0,0:0:0:0:
464,24,58448,2,0,P|372:24|328:48,1,115
256,180,58721,2,0,P|168:192|108:168,1,115
28,52,58994,6,0,P|32:124|48:204,1,115
384,88,59266,1,0,0:0:0:0:
160,88,59403,1,0,0:0:0:0:
392,24,59539,2,0,P|400:116|384:176,1,115
132,184,59812,2,0,P|132:268|156:336,1,115
208,356,60016,1,0,0:0:0:0:
208,356,60085,6,0,P|296:340|356:348,1,115
20,208,60357,1,0,0:0:0:0:
324,176,60494,1,0,0:0:0:0:
140,72,60630,1,0,0:0:0:0:
208,356,60766,1,0,0:0:0:0:
300,64,60903,1,0,0:0:0:0:
32,120,61039,1,0,0:0:0:0:
320,296,61175,6,0,P|396:300|460:280,1,115
484,100,61448,2,0,P|400:92|352:116,1,115
132,328,61721,1,0,0:0:0:0:
76,32,61857,1,0,0:0:0:0:
76,32,61925,1,0,0:0:0:0:
76,32,61994,1,0,0:0:0:0:
240,208,62130,1,0,0:0:0:0:
24,288,62266,5,0,0:0:0:0:
224,96,62403,1,0,0:0:0:0:
276,108,62471,1,0,0:0:0:0:
328,104,62539,1,0,0:0:0:0:
380,92,62607,1,0,0:0:0:0:
432,100,62675,1,0,0:0:0:0:
468,136,62744,1,0,0:0:0:0:
480,188,62812,2,0,P|480:256|476:352,1,115
232,228,63085,2,0,P|220:136|232:76,1,115
64,20,63357,5,0,0:0:0:0:
40,68,63425,1,0,0:0:0:0:
44,120,63494,1,0,0:0:0:0:
80,160,63562,1,0,0:0:0:0:
128,172,63630,2,0,L|208:164,1,57.5
376,80,63766,1,0,0:0:0:0:
420,108,63835,1,0,0:0:0:0:
436,156,63903,1,0,0:0:0:0:
432,208,63971,1,0,0:0:0:0:
396,244,64039,2,0,L|320:260,1,57.5
120,156,64175,1,0,0:0:0:0:
92,200,64244,1,0,0:0:0:0:
96,252,64312,1,0,0:0:0:0:
132,288,64380,1,0,0:0:0:0:
180,304,64448,2,0,L|272:288,1,57.5
448,328,64585,5,0,0:0:0:0:
448,276,64653,1,0,0:0:0:0:
448,224,64721,1,0,0:0:0:0:
428,176,64789,1,0,0:0:0:0:
408,128,64857,2,0,P|380:84|368:64,1,57.5
232,32,64994,2,0,P|188:32|144:40,1,57.5
32,128,65130,2,0,P|16:176|16:212,1,57.5
264,356,65266,2,0,P|268:300|264:256,1,57.5
208,28,65403,2,0,P|200:88|204:128,1,57.5
456,232,65539,5,0,0:0:0:0:
360,196,65948,1,0,0:0:0:0:
268,232,66357,1,0,0:0:0:0:
24,108,66903,1,0,0:0:0:0:
116,152,67175,1,0,0:0:0:0:
208,108,67448,1,0,0:0:0:0:
372,140,67721,2,0,B|360:180|368:224|428:232|428:232|368:264|384:324|420:360|464:352|484:332|488:328|496:300,1,345.000013160706
372,140,68539,1,0,0:0:0:0:
284,208,68675,1,0,0:0:0:0:
284,208,69494,6,0,P|220:200|184:200,1,86.2500032901765
88,212,69766,1,0,0:0:0:0:
320,124,69903,6,0,P|320:52|312:16,1,86.2500032901765
208,264,70175,2,0,P|212:332|228:368,1,86.2500032901765
376,224,70448,1,0,0:0:0:0:
412,136,70585,1,0,0:0:0:0:
324,316,70721,1,0,0:0:0:0:
408,116,70857,2,0,B|424:176|424:176|412:236|412:236|424:296,1,172.500006580353
90,284,71266,2,0,B|100:236|100:236|88:176|88:176|104:116,2,172.500006580353
256,72,72085,6,0,B|248:128|248:128|272:196|272:196|256:264,1,172.500006580353
256,332,72494,1,0,0:0:0:0:
352,344,72766,1,0,0:0:0:0:
444,280,73039,2,0,P|436:188|424:92,1,172.500006580353
312,212,73448,2,0,P|308:280|324:324,1,86.2500032901765
224,148,73721,2,0,P|184:196|176:248,1,86.2500032901765
176,52,73994,1,0,0:0:0:0:
176,52,74266,6,0,P|220:48|264:32,2,86.2500032901765
72,112,74675,2,0,L|76:296,1,172.500006580353
208,344,75085,2,0,P|280:344|316:324,1,86.2500032901765
384,256,75357,6,0,P|448:252|488:272,1,86.2500032901765
152,192,75630,1,0,0:0:0:0:
288,68,75766,2,0,P|364:48|456:104,1,172.500006580353
280,188,76175,2,0,P|228:200|168:176,1,86.2500032901765
52,148,76448,6,0,P|64:216|72:272,1,86.2500032901765
80,364,76721,1,0,0:0:0:0:
280,220,76857,2,0,P|284:136|288:96,1,86.2500032901765
360,40,77130,1,0,0:0:0:0:
292,316,77266,1,0,0:0:0:0:
156,176,77403,2,0,P|132:100|192:20,1,172.500006580353
280,224,77812,6,0,P|288:276|288:324,1,86.2500032901765
168,168,78085,2,0,P|192:96|228:80,1,86.2500032901765
168,292,78357,2,0,P|116:276|84:244,1,86.2500032901765
280,224,78630,6,0,P|360:224|436:136,1,172.500006580353
280,224,79039,1,0,0:0:0:0:
280,224,79448,1,0,0:0:0:0:
280,224,79585,2,0,B|292:284|288:352|288:352|348:384,1,172.500006580353
416,300,79994,2,0,P|420:240|416:200,1,86.2500032901765
332,128,80266,1,0,0:0:0:0:
256,224,80403,2,0,P|260:288|272:320,1,86.2500032901765
84,352,80675,1,0,0:0:0:0:
256,360,80812,6,0,B|260:300|260:300|232:244|232:244|244:160|216:96,1,230
436,60,81221,2,0,P|416:120|356:28,1,230
176,40,81630,1,0,0:0:0:0:
80,128,81766,2,0,P|100:248|120:380,1,230
256,84,82175,1,0,0:0:0:0:
256,308,82312,1,0,0:0:0:0:
256,72,82448,6,0,B|248:136|248:136|272:188|272:188|248:264|256:348,1,230
20,88,82994,6,0,B|72:72|72:72|136:76|136:76|188:108|260:88,1,230
480,164,83403,2,0,B|448:220|448:220|444:292|444:292|408:312|408:312|376:372,1,230
88,304,83812,6,0,B|96:232|96:232|72:152|72:152|96:68|96:68|152:40|152:40|232:88|272:84,1,431.25
464,320,84357,2,0,P|380:328|312:304,1,143.75
72,184,84630,1,0,0:0:0:0:
444,128,84766,1,0,0:0:0:0:
360,368,84903,2,0,P|288:280|268:204,1,143.75
440,24,85175,6,0,P|436:116|440:200,1,143.75
344,372,85448,1,0,0:0:0:0:
36,160,85585,1,0,0:0:0:0:
492,128,85721,2,0,P|448:200|368:240,1,143.75
100,32,85994,2,0,P|104:136|140:208,1,143.75
440,16,86266,5,0,0:0:0:0:
28,192,86403,1,0,0:0:0:0:
492,132,86539,1,0,0:0:0:0:
200,356,86675,1,0,0:0:0:0:
244,24,86812,1,0,0:0:0:0:
384,324,86948,1,0,0:0:0:0:
384,324,87016,1,0,0:0:0:0:
384,324,87085,2,0,P|472:312|516:272,1,143.75
368,16,87357,5,0,0:0:0:0:
24,212,87494,1,0,0:0:0:0:
392,356,87630,1,0,0:0:0:0:
172,24,87766,1,0,0:0:0:0:
188,368,87903,1,0,0:0:0:0:
172,12,88039,1,0,0:0:0:0:
480,216,88175,1,0,0:0:0:0:
168,8,88312,2,0,B|164:84|164:84|120:140|120:140|156:212|156:308,1,287.5
112,352,88653,1,0,0:0:0:0:
112,352,88721,2,0,P|44:308|32:224,1,143.75
484,250,88994,2,0,P|461:317|400:352,1,143.75
60,96,89266,1,0,0:0:0:0:
452,96,89403,1,0,0:0:0:0:
128,364,89539,5,0,0:0:0:0:
92,12,89675,1,0,0:0:0:0:
416,12,89812,2,0,P|432:104|428:188,1,143.75
344,352,90085,1,0,0:0:0:0:
48,136,90221,1,0,0:0:0:0:
48,136,90289,1,0,0:0:0:0:
48,136,90357,2,0,P|160:116|224:72,1,143.75
496,44,90630,6,0,P|464:180|488:276,1,215.625
464,328,90903,2,0,L|308:292,1,143.75
56,216,91175,1,0,0:0:0:0:
468,152,91312,1,0,0:0:0:0:
220,24,91448,1,0,0:0:0:0:
280,372,91585,1,0,0:0:0:0:
260,188,91721,5,0,0:0:0:0:
260,188,91789,1,0,0:0:0:0:
260,188,91857,1,0,0:0:0:0:
260,188,91925,1,0,0:0:0:0:
260,188,91994,2,0,P|184:168|152:168,1,71.875
72,200,92130,2,0,P|28:252|24:292,1,71.875
88,348,92266,1,0,0:0:0:0:
152,364,92335,1,0,0:0:0:0:
216,356,92403,1,0,0:0:0:0:
272,328,92471,1,0,0:0:0:0:
336,320,92539,1,0,0:0:0:0:
400,324,92607,1,0,0:0:0:0:
456,356,92675,2,0,P|484:324|500:280,1,71.875
468,152,92812,5,0,0:0:0:0:
408,128,92880,1,0,0:0:0:0:
344,144,92948,1,0,0:0:0:0:
292,184,93016,1,0,0:0:0:0:
280,248,93085,1,0,0:0:0:0:
232,292,93153,1,0,0:0:0:0:
168,304,93221,1,0,0:0:0:0:
108,280,93289,1,0,0:0:0:0:
72,228,93357,2,0,P|52:164|56:140,1,71.875
108,44,93494,2,0,P|160:32|208:40,1,71.875
292,112,93630,2,0,P|304:168|304:224,1,71.875
256,304,93766,2,0,P|208:304|168:296,1,71.875
56,232,93903,6,0,P|44:176|48:128,1,71.875
96,32,94039,2,0,P|152:8|188:12,1,71.875
308,104,94175,2,0,P|320:168|324:208,1,71.875
256,324,94312,2,0,P|192:324|152:312,1,71.875
32,240,94448,2,0,P|24:184|20:140,3,71.875
328,96,94721,2,0,P|336:160|332:204,3,71.875
256,344,94994,5,0,0:0:0:0:
192,336,95062,1,0,0:0:0:0:
152,284,95130,1,0,0:0:0:0:
136,220,95198,1,0,0:0:0:0:
156,160,95266,1,0,0:0:0:0:
208,120,95335,1,0,0:0:0:0:
272,108,95403,1,0,0:0:0:0:
332,128,95471,1,0,0:0:0:0:
372,176,95539,6,0,P|392:248|384:288,1,71.875
204,376,95675,2,0,P|164:384|132:380,1,71.875
24,212,95812,2,0,P|20:140|36:104,1,71.875
180,24,95948,2,0,P|232:32|272:48,1,71.875
372,176,96085,6,0,B|364:256|316:288|316:288|360:320|368:368|368:368|412:296,1,287.5
436,100,96494,2,0,B|368:80|368:80|296:120|296:120|208:96|144:104,1,287.5
220,232,96903,1,0,0:0:0:0:
264,20,97039,1,0,0:0:0:0:
352,208,97175,6,0,P|360:300|344:364,1,143.75
104,216,97448,1,0,0:0:0:0:
276,8,97585,2,0,P|352:12|420:56,1,143.75
188,328,97857,1,0,0:0:0:0:
216,88,97994,1,0,0:0:0:0:
272,360,98130,1,0,0:0:0:0:
460,116,98266,6,0,B|456:60|456:60|440:16,3,71.875
340,24,98539,2,0,B|300:24|300:24|248:36,3,71.875
172,144,98812,2,0,B|172:188|172:188|180:228,3,71.875
108,320,99085,2,0,B|64:328|64:328|20:320,3,71.875
68,216,99357,5,0,0:0:0:0:
132,208,99425,1,0,0:0:0:0:
196,200,99494,1,0,0:0:0:0:
260,196,99562,1,0,0:0:0:0:
316,228,99630,1,0,0:0:0:0:
372,260,99698,1,0,0:0:0:0:
428,288,99766,1,0,0:0:0:0:
488,316,99835,1,0,0:0:0:0:
464,376,99903,1,0,0:0:0:0:
456,312,99971,1,0,0:0:0:0:
452,248,100039,1,0,0:0:0:0:
444,184,100107,1,0,0:0:0:0:
436,120,100175,1,0,0:0:0:0:
372,104,100244,1,0,0:0:0:0:
308,88,100312,1,0,0:0:0:0:
244,72,100380,1,0,0:0:0:0:
180,56,100448,6,0,P|100:64|24:96,1,143.75
152,344,100721,1,0,0:0:0:0:
416,244,100857,2,0,P|420:132|400:40,1,143.75
88,188,101130,1,0,0:0:0:0:
284,360,101266,2,0,P|368:364|444:336,1,143.75
328,20,101539,5,0,0:0:0:0:
52,184,101675,2,0,P|56:280|80:352,1,143.75
296,376,101948,1,0,0:0:0:0:
308,8,102085,2,0,P|216:16|148:44,1,143.75
360,280,102357,2,0,P|452:280|512:264,1,143.75
40,88,102630,6,0,P|28:192|52:268,1,143.75
276,368,102903,1,0,0:0:0:0:
456,32,103039,2,0,P|360:12|292:24,1,143.75
64,256,103312,1,0,0:0:0:0:
440,336,103448,1,0,0:0:0:0:
308,8,103585,1,0,0:0:0:0:
32,216,103721,6,0,P|40:316|56:372,1,143.75
488,80,103994,1,0,0:0:0:0:
152,24,104130,1,0,0:0:0:0:
132,356,104266,2,0,P|240:360|304:328,1,143.75
476,48,104539,2,0,P|380:48|320:60,1,143.75
344,364,104812,6,0,P|440:352|496:304,1,143.75
476,48,105085,1,0,0:0:0:0:
48,208,105221,2,0,P|48:300|88:356,1,143.75
424,220,105494,1,0,0:0:0:0:
156,16,105630,1,0,0:0:0:0:
144,360,105766,1,0,0:0:0:0:
460,216,105903,6,0,P|460:104|448:24,1,143.75
44,192,106175,1,0,0:0:0:0:
152,368,106312,1,0,0:0:0:0:
336,32,106448,2,0,P|264:24|188:32,1,143.75
328,360,106721,2,0,P|420:368|496:340,1,143.75
240,32,106994,5,0,0:0:0:0:
240,364,107130,1,0,0:0:0:0:
340,24,107266,1,0,0:0:0:0:
256,376,107403,1,0,0:0:0:0:
88,112,107539,1,0,0:0:0:0:
480,160,107675,1,0,0:0:0:0:
152,304,107812,1,0,0:0:0:0:
240,16,107948,1,0,0:0:0:0:
340,372,108085,6,0,B|384:372|388:372|428:360,3,71.875
476,264,108357,2,0,P|484:204|472:160,3,71.875
388,40,108630,1,0,0:0:0:0:
348,92,108698,1,0,0:0:0:0:
324,152,108766,1,0,0:0:0:0:
312,216,108835,1,0,0:0:0:0:
316,280,108903,1,0,0:0:0:0:
252,272,108971,1,0,0:0:0:0:
188,272,109039,1,0,0:0:0:0:
124,280,109107,1,0,0:0:0:0:
64,260,109175,5,0,0:0:0:0:
72,60,109312,1,0,0:0:0:0:
144,360,109448,1,0,0:0:0:0:
388,24,109585,1,0,0:0:0:0:
280,368,109721,1,0,0:0:0:0:
236,56,109857,1,0,0:0:0:0:
464,372,109994,1,0,0:0:0:0:
396,12,110130,1,0,0:0:0:0:
284,380,110266,5,0,0:0:0:0:
208,44,110403,1,0,0:0:0:0:
56,272,110539,1,0,0:0:0:0:
472,160,110675,1,0,0:0:0:0:
184,36,110812,1,0,0:0:0:0:
284,380,110948,1,0,0:0:0:0:
368,4,111085,1,0,0:0:0:0:
84,164,111221,1,0,0:0:0:0:
484,168,111357,5,0,0:0:0:0:
156,28,111494,1,0,0:0:0:0:
464,284,111630,1,0,0:0:0:0:
56,168,111766,1,0,0:0:0:0:
460,64,111903,1,0,0:0:0:0:
132,264,112039,1,0,0:0:0:0:
128,20,112175,1,0,0:0:0:0:
376,360,112312,1,0,0:0:0:0:
388,4,112448,5,0,0:0:0:0:
188,352,112585,1,0,0:0:0:0:
228,16,112721,1,0,0:0:0:0:
368,372,112857,1,0,0:0:0:0:
44,180,112994,1,0,0:0:0:0:
476,52,113130,1,0,0:0:0:0:
88,340,113266,1,0,0:0:0:0:
508,212,113403,1,0,0:0:0:0:
24,176,113539,5,0,0:0:0:0:
504,236,113675,1,0,0:0:0:0:
4,168,113812,1,0,0:0:0:0:
464,336,113948,1,0,0:0:0:0:
28,300,114085,1,0,0:0:0:0:
484,72,114221,1,0,0:0:0:0:
96,360,114357,1,0,0:0:0:0:
360,20,114494,1,0,0:0:0:0:
256,372,114630,5,0,0:0:0:0:
492,60,114766,1,0,0:0:0:0:
104,92,114903,1,0,0:0:0:0:
460,348,115039,1,0,0:0:0:0:
212,16,115175,1,0,0:0:0:0:
120,348,115312,1,0,0:0:0:0:
480,144,115448,1,0,0:0:0:0:
24,92,115585,1,0,0:0:0:0:
468,280,115721,5,0,0:0:0:0:
192,8,115857,1,0,0:0:0:0:
104,364,115994,1,0,0:0:0:0:
404,32,116130,1,0,0:0:0:0:
56,184,116266,1,0,0:0:0:0:
316,372,116403,1,0,0:0:0:0:
168,8,116539,1,0,0:0:0:0:
88,376,116675,1,0,0:0:0:0:
464,296,116812,5,0,0:0:0:0:
151,104,116948,2,0,P|80:96|12:116,1,143.75
336,28,117221,1,0,0:0:0:0:
156,320,117357,1,0,0:0:0:0:
468,136,117494,1,0,0:0:0:0:
24,216,117630,1,0,0:0:0:0:
480,308,117766,1,0,0:0:0:0:
256,192,117903,12,0,118448,0:0:0:0:
