osu file format v14

[General]
AudioFilename: Preserved Valkyria.mp3
AudioLeadIn: 0
PreviewTime: 82722
Countdown: 0
SampleSet: Soft
StackLeniency: 0.7
Mode: 1
LetterboxInBreaks: 0
WidescreenStoryboard: 1

[Editor]
Bookmarks: 14039
DistanceSpacing: 0.8
BeatDivisor: 4
GridSize: 32
TimelineZoom: 1.3

[Metadata]
Title:Preseaved Valkyria
TitleUnicode:Preseaved Valkyria
Artist:penoreri
ArtistUnicode:ぺのれり
Creator:nyanmi-1828
Version:Inner oni
Source:SOUNDVOLTEX Ⅲ GRAVITY WARS
Tags:
BeatmapID:786947
BeatmapSetID:357803

[Difficulty]
HPDrainRate:6
CircleSize:5
OverallDifficulty:6
ApproachRate:5
SliderMultiplier:1.4
SliderTickRate:1

[Events]
//Background and Video events
0,0,"背景10.jpg",0,0
//Break Periods
//Storyboard Layer 0 (Background)
//Storyboard Layer 1 (Fail)
//Storyboard Layer 2 (Pass)
//Storyboard Layer 3 (Foreground)
//Storyboard Sound Samples

[TimingPoints]
1373,387.096774193548,4,2,1,85,1,0
46299,400,4,2,1,70,1,0
46699,413.793103448276,4,2,1,60,1,0
47112,461.538461538462,4,2,1,50,1,0
47573,521.739130434783,4,2,1,50,1,0
48094,272.727272727273,4,2,1,85,1,0
57094,-100,4,2,1,90,0,1
65821,-100,4,2,1,70,0,0
83003,-100,4,2,1,100,0,1
100457,-100,4,2,1,85,0,0
109457,-100,4,2,1,90,0,1
118730,-100,4,2,1,85,0,0

[HitObjects]
224,224,1663,5,0,0:0:0:0:
224,224,2050,1,0,0:0:0:0:
224,224,2437,1,8,0:0:0:0:
224,224,2727,1,0,0:0:0:0:
224,224,3018,1,0,0:0:0:0:
192,224,3405,1,0,0:0:0:0:
256,192,3792,1,8,0:0:0:0:
160,224,3985,1,0,0:0:0:0:
224,192,4276,1,8,0:0:0:0:
224,224,4566,1,0,0:0:0:0:
192,192,4953,1,0,0:0:0:0:
192,192,5050,1,0,0:0:0:0:
224,192,5243,1,8,0:0:0:0:
192,192,5340,1,0,0:0:0:0:
192,160,5921,1,8,0:0:0:0:
256,192,6114,1,0,0:0:0:0:
128,224,6501,1,0,0:0:0:0:
256,224,6598,1,0,0:0:0:0:
224,192,6694,1,0,0:0:0:0:
224,192,6792,1,8,0:0:0:0:
224,224,6889,1,8,0:0:0:0:
192,192,6985,1,0,0:0:0:0:
224,224,7469,1,0,0:0:0:0:
256,192,7856,1,8,0:0:0:0:
224,224,7953,1,0,0:0:0:0:
224,224,8050,1,0,0:0:0:0:
224,224,8147,1,0,0:0:0:0:
256,192,8243,1,8,0:0:0:0:
224,224,8340,1,0,0:0:0:0:
224,224,8437,1,0,0:0:0:0:
160,224,8534,1,0,0:0:0:0:
256,192,8631,1,8,0:0:0:0:
256,192,8727,1,0,0:0:0:0:
256,192,8824,1,0,0:0:0:0:
256,192,8921,1,0,0:0:0:0:
256,192,9018,1,8,0:0:0:0:
256,192,9114,1,0,0:0:0:0:
256,192,9211,1,0,0:0:0:0:
256,192,9308,1,0,0:0:0:0:
256,192,9405,1,8,0:0:0:0:
256,192,9502,1,0,0:0:0:0:
256,192,9598,1,0,0:0:0:0:
256,192,9695,1,0,0:0:0:0:
256,192,9792,1,8,0:0:0:0:
256,192,9889,1,0,0:0:0:0:
256,192,9985,1,0,0:0:0:0:
256,192,10082,1,0,0:0:0:0:
256,192,10179,1,8,0:0:0:0:
256,160,10276,1,0,0:0:0:0:
256,224,10372,1,8,0:0:0:0:
256,160,10469,1,0,0:0:0:0:
256,224,10566,1,8,0:0:0:0:
256,160,10663,1,0,0:0:0:0:
256,224,10760,1,8,0:0:0:0:
256,160,10856,1,0,0:0:0:0:
256,224,10953,1,8,0:0:0:0:
288,192,11050,1,0,0:0:0:0:
224,192,11179,1,8,0:0:0:0:
224,224,11308,1,0,0:0:0:0:
224,224,11437,1,0,0:0:0:0:
192,192,11566,1,8,0:0:0:0:
192,224,11695,1,0,0:0:0:0:
192,224,11824,1,0,0:0:0:0:
192,192,11953,1,8,0:0:0:0:
160,192,12082,1,0,0:0:0:0:
128,192,12211,1,8,0:0:0:0:
128,192,12340,1,8,0:0:0:0:
192,192,12469,1,0,0:0:0:0:
160,160,12695,1,0,0:0:0:0:
160,160,12792,1,0,0:0:0:0:
256,160,12889,1,8,0:0:0:0:
224,192,12985,1,0,0:0:0:0:
224,224,13082,1,8,0:0:0:0:
224,224,13179,1,8,0:0:0:0:
224,224,13276,1,0,0:0:0:0:
224,192,13663,1,0,0:0:0:0:
256,192,14050,1,0,0:0:0:0:
256,192,14147,1,0,0:0:0:0:
256,192,14243,1,8,0:0:0:0:
256,192,14340,1,0,0:0:0:0:
256,192,14437,1,8,0:0:0:0:
192,192,14631,1,0,0:0:0:0:
192,192,14727,1,0,0:0:0:0:
160,192,14824,1,8,0:0:0:0:
192,192,15018,1,0,0:0:0:0:
288,224,15114,1,0,0:0:0:0:
256,224,15211,1,8,0:0:0:0:
288,224,15308,1,0,0:0:0:0:
160,192,15405,1,8,0:0:0:0:
256,224,15502,1,8,0:0:0:0:
256,224,15598,1,8,0:0:0:0:
288,192,15695,1,0,0:0:0:0:
160,192,15792,1,0,0:0:0:0:
160,192,15889,1,0,0:0:0:0:
224,192,15985,1,8,0:0:0:0:
288,224,16082,1,0,0:0:0:0:
320,224,16179,1,8,0:0:0:0:
320,192,16276,1,0,0:0:0:0:
192,192,16372,1,0,0:0:0:0:
256,192,16469,1,0,0:0:0:0:
256,192,16566,1,8,0:0:0:0:
256,192,16663,1,0,0:0:0:0:
224,160,16760,1,8,0:0:0:0:
224,160,16856,1,8,0:0:0:0:
192,160,16953,1,0,0:0:0:0:
192,192,17147,1,8,0:0:0:0:
288,224,17243,1,0,0:0:0:0:
160,192,17340,1,0,0:0:0:0:
224,192,17437,1,8,0:0:0:0:
160,192,17534,1,0,0:0:0:0:
288,224,17631,1,0,0:0:0:0:
256,224,17727,1,8,0:0:0:0:
256,224,17824,1,8,0:0:0:0:
160,192,17921,1,0,0:0:0:0:
224,224,18114,1,8,0:0:0:0:
224,224,18211,1,0,0:0:0:0:
224,224,18308,1,8,0:0:0:0:
224,224,18405,1,0,0:0:0:0:
192,128,18502,1,8,0:0:0:0:
224,192,18695,1,0,0:0:0:0:
224,192,18889,1,0,0:0:0:0:
224,192,18985,1,0,0:0:0:0:
128,192,19082,1,8,0:0:0:0:
288,224,19179,1,0,0:0:0:0:
288,224,19276,1,8,0:0:0:0:
288,224,19372,1,8,0:0:0:0:
192,192,19469,1,8,0:0:0:0:
192,192,19663,1,0,0:0:0:0:
192,192,19760,1,0,0:0:0:0:
256,192,19856,1,8,0:0:0:0:
256,192,19953,1,0,0:0:0:0:
224,192,20050,1,8,0:0:0:0:
224,192,20243,1,8,0:0:0:0:
256,192,20437,1,0,0:0:0:0:
224,192,20534,1,8,0:0:0:0:
224,192,20727,1,8,0:0:0:0:
192,192,20921,1,0,0:0:0:0:
192,192,21018,1,0,0:0:0:0:
288,192,21211,1,8,0:0:0:0:
192,192,21308,1,0,0:0:0:0:
192,192,21405,1,0,0:0:0:0:
256,192,21502,1,8,0:0:0:0:
256,224,21695,1,0,0:0:0:0:
224,192,21792,1,8,0:0:0:0:
224,224,21985,1,0,0:0:0:0:
224,224,22082,1,0,0:0:0:0:
224,192,22276,1,8,0:0:0:0:
160,192,22469,1,0,0:0:0:0:
256,192,22566,1,8,0:0:0:0:
192,192,22760,1,8,0:0:0:0:
192,192,22856,1,8,0:0:0:0:
224,192,22953,1,0,0:0:0:0:
256,192,23050,1,8,0:0:0:0:
224,192,23243,1,0,0:0:0:0:
224,192,23340,1,8,0:0:0:0:
224,192,23437,1,8,0:0:0:0:
224,192,23534,1,8,0:0:0:0:
224,192,23631,1,8,0:0:0:0:
224,192,23824,1,0,0:0:0:0:
224,192,24018,1,0,0:0:0:0:
224,192,24114,1,0,0:0:0:0:
224,224,24308,1,8,0:0:0:0:
256,160,24405,1,0,0:0:0:0:
224,224,24598,1,0,0:0:0:0:
256,192,24792,1,0,0:0:0:0:
256,192,24889,1,0,0:0:0:0:
256,192,24985,1,8,0:0:0:0:
256,192,25082,1,0,0:0:0:0:
192,192,25179,1,0,0:0:0:0:
192,192,25372,1,0,0:0:0:0:
192,192,25566,1,0,0:0:0:0:
192,192,25663,1,0,0:0:0:0:
256,192,25856,1,0,0:0:0:0:
256,192,25953,1,8,0:0:0:0:
128,224,26147,1,0,0:0:0:0:
192,160,26340,1,8,0:0:0:0:
224,192,26437,1,0,0:0:0:0:
256,192,26534,1,0,0:0:0:0:
192,192,26631,1,0,0:0:0:0:
256,192,26727,1,0,0:0:0:0:
256,224,26921,1,8,0:0:0:0:
224,224,27114,1,0,0:0:0:0:
288,224,27211,1,0,0:0:0:0:
224,160,27405,1,0,0:0:0:0:
224,224,27502,1,8,0:0:0:0:
224,192,27695,1,0,0:0:0:0:
224,192,27889,1,0,0:0:0:0:
224,192,27985,1,8,0:0:0:0:
288,256,28082,1,8,0:0:0:0:
256,192,28179,1,0,0:0:0:0:
288,224,28276,1,0,0:0:0:0:
240,218,28469,1,0,0:0:0:0:
256,192,28663,1,0,0:0:0:0:
288,192,28792,1,0,0:0:0:0:
256,160,28921,1,8,0:0:0:0:
256,160,29050,1,8,0:0:0:0:
256,160,29179,1,8,0:0:0:0:
288,192,29308,1,8,0:0:0:0:
288,192,29437,1,8,0:0:0:0:
224,192,33405,1,12,0:0:0:0:
224,192,34179,1,4,0:0:0:0:
224,192,35727,1,0,0:0:0:0:
224,192,38437,1,8,0:0:0:0:
224,192,38727,1,0,0:0:0:0:
224,192,38792,1,0,0:0:0:0:
224,192,38856,1,0,0:0:0:0:
256,160,38921,1,8,0:0:0:0:
288,192,39211,1,8,0:0:0:0:
256,192,39598,1,0,0:0:0:0:
288,192,40372,1,8,0:0:0:0:
256,192,41921,1,4,0:0:0:0:
256,192,42695,1,0,0:0:0:0:
192,192,44727,1,8,0:0:0:0:
192,192,44824,1,8,0:0:0:0:
192,160,44921,1,0,0:0:0:0:
192,160,45018,1,0,0:0:0:0:
288,192,45792,1,0,0:0:0:0:
256,224,45985,1,0,0:0:0:0:
256,224,46179,1,0,0:0:0:0:
256,192,46399,1,8,0:0:0:0:
256,192,46599,1,0,0:0:0:0:
224,192,47342,1,8,0:0:0:0:
192,192,47833,1,0,0:0:0:0:
96,128,48366,5,0,0:0:0:0:
96,128,48503,1,0,0:0:0:0:
96,128,48639,1,0,0:0:0:0:
96,128,48775,1,8,0:0:0:0:
96,128,48912,1,8,0:0:0:0:
96,128,49048,1,8,0:0:0:0:
96,128,49184,1,0,0:0:0:0:
96,128,49321,1,0,0:0:0:0:
96,128,49457,1,0,0:0:0:0:
96,128,49594,1,8,0:0:0:0:
96,128,49730,1,8,0:0:0:0:
96,128,49866,1,8,0:0:0:0:
96,128,50003,1,0,0:0:0:0:
96,128,50139,1,0,0:0:0:0:
96,128,50275,1,8,0:0:0:0:
96,128,50412,1,8,0:0:0:0:
96,128,50548,1,0,0:0:0:0:
96,128,50684,1,0,0:0:0:0:
96,128,50821,1,0,0:0:0:0:
96,128,50957,1,8,0:0:0:0:
96,128,51094,1,8,0:0:0:0:
96,128,51230,1,8,0:0:0:0:
96,128,51366,1,0,0:0:0:0:
96,128,51503,1,8,0:0:0:0:
96,128,51639,1,8,0:0:0:0:
96,128,51775,1,0,0:0:0:0:
96,128,51912,1,0,0:0:0:0:
96,128,52048,1,8,0:0:0:0:
96,128,52184,1,0,0:0:0:0:
96,128,52321,1,8,0:0:0:0:
256,192,52457,1,0,0:0:0:0:
224,192,52594,1,8,0:0:0:0:
256,224,52730,1,0,0:0:0:0:
192,224,52866,1,8,0:0:0:0:
192,224,53003,1,8,0:0:0:0:
256,192,53139,1,0,0:0:0:0:
224,192,53275,1,8,0:0:0:0:
256,192,53412,1,8,0:0:0:0:
288,192,53548,1,0,0:0:0:0:
256,192,53684,1,8,0:0:0:0:
224,192,53821,1,8,0:0:0:0:
160,192,53957,1,0,0:0:0:0:
160,192,54094,1,0,0:0:0:0:
192,192,54230,1,8,0:0:0:0:
192,160,54366,1,0,0:0:0:0:
192,160,54503,1,0,0:0:0:0:
192,224,54639,1,8,0:0:0:0:
192,224,54775,1,8,0:0:0:0:
288,192,54912,1,0,0:0:0:0:
224,192,55048,1,0,0:0:0:0:
256,192,55184,1,8,0:0:0:0:
160,224,55321,1,0,0:0:0:0:
224,160,55457,1,8,0:0:0:0:
256,192,55594,1,0,0:0:0:0:
256,192,55730,1,0,0:0:0:0:
256,192,55866,1,8,0:0:0:0:
192,192,56003,1,0,0:0:0:0:
192,192,56071,1,0,0:0:0:0:
192,192,56139,1,0,0:0:0:0:
224,192,56275,1,8,0:0:0:0:
224,192,56344,1,8,0:0:0:0:
128,192,56412,1,0,0:0:0:0:
160,192,56548,1,8,0:0:0:0:
160,192,56616,1,8,0:0:0:0:
192,192,56684,1,0,0:0:0:0:
192,192,56753,1,0,0:0:0:0:
192,192,56821,1,8,0:0:0:0:
224,192,56957,1,0,0:0:0:0:
160,160,57094,1,8,0:0:0:0:
224,224,57230,1,0,0:0:0:0:
192,192,57366,1,0,0:0:0:0:
224,224,57503,1,8,0:0:0:0:
224,160,57639,1,0,0:0:0:0:
256,224,57707,1,0,0:0:0:0:
288,192,57775,1,0,0:0:0:0:
256,192,57912,1,8,0:0:0:0:
192,192,58048,1,0,0:0:0:0:
160,224,58184,1,0,0:0:0:0:
160,224,58253,1,0,0:0:0:0:
160,192,58321,1,8,0:0:0:0:
192,160,58457,1,0,0:0:0:0:
192,160,58594,1,0,0:0:0:0:
256,224,58730,1,8,0:0:0:0:
256,224,58798,1,8,0:0:0:0:
288,160,58866,1,0,0:0:0:0:
224,224,58934,1,0,0:0:0:0:
256,224,59003,1,8,0:0:0:0:
192,192,59139,1,0,0:0:0:0:
192,224,59275,1,8,0:0:0:0:
224,192,59412,1,0,0:0:0:0:
256,192,59548,1,0,0:0:0:0:
256,192,59684,1,8,0:0:0:0:
256,192,59821,1,0,0:0:0:0:
256,192,59889,1,0,0:0:0:0:
256,192,59957,1,0,0:0:0:0:
256,192,60025,1,0,0:0:0:0:
192,192,60094,1,8,0:0:0:0:
192,192,60230,1,0,0:0:0:0:
192,192,60366,1,0,0:0:0:0:
224,224,60503,1,8,0:0:0:0:
288,192,60639,1,0,0:0:0:0:
224,192,60775,1,0,0:0:0:0:
224,192,60912,1,8,0:0:0:0:
128,224,60980,1,0,0:0:0:0:
128,224,61048,1,0,0:0:0:0:
128,224,61116,1,0,0:0:0:0:
192,224,61184,1,8,0:0:0:0:
160,192,61321,1,0,0:0:0:0:
192,192,61457,1,8,0:0:0:0:
192,224,61525,1,0,0:0:0:0:
192,224,61594,1,0,0:0:0:0:
256,192,61662,1,0,0:0:0:0:
192,224,61730,1,0,0:0:0:0:
224,192,61866,1,8,0:0:0:0:
192,224,62003,1,0,0:0:0:0:
192,192,62139,1,0,0:0:0:0:
256,192,62275,1,8,0:0:0:0:
224,192,62412,1,0,0:0:0:0:
224,192,62548,1,0,0:0:0:0:
256,224,62616,1,0,0:0:0:0:
224,192,62684,1,8,0:0:0:0:
224,224,62821,1,0,0:0:0:0:
224,224,62957,1,0,0:0:0:0:
192,192,63094,1,8,0:0:0:0:
192,192,63162,1,8,0:0:0:0:
192,192,63230,1,0,0:0:0:0:
192,192,63298,1,0,0:0:0:0:
224,224,63366,1,8,0:0:0:0:
224,224,63503,1,0,0:0:0:0:
224,192,63639,1,0,0:0:0:0:
224,192,63707,1,0,0:0:0:0:
224,192,63775,1,0,0:0:0:0:
224,192,63844,1,0,0:0:0:0:
224,192,63912,1,0,0:0:0:0:
128,192,63980,1,0,0:0:0:0:
96,192,64048,1,0,0:0:0:0:
128,192,64116,1,0,0:0:0:0:
256,224,64184,1,8,0:0:0:0:
192,192,64321,1,0,0:0:0:0:
256,192,64457,1,8,0:0:0:0:
288,192,64594,1,0,0:0:0:0:
256,224,64730,1,8,0:0:0:0:
256,224,64798,1,8,0:0:0:0:
256,224,64866,1,8,0:0:0:0:
256,224,64934,1,8,0:0:0:0:
192,192,65003,1,0,0:0:0:0:
192,192,65071,1,0,0:0:0:0:
192,192,65139,1,0,0:0:0:0:
192,192,65207,1,0,0:0:0:0:
224,224,65275,1,8,0:0:0:0:
128,224,65412,1,0,0:0:0:0:
256,224,65548,1,8,0:0:0:0:
320,224,65684,1,0,0:0:0:0:
192,224,65821,1,0,0:0:0:0:
224,192,66230,1,0,0:0:0:0:
224,160,66639,1,8,0:0:0:0:
192,160,67184,1,0,0:0:0:0:
256,192,67457,1,0,0:0:0:0:
352,224,67730,1,0,0:0:0:0:
352,192,67934,1,0,0:0:0:0:
352,224,67969,1,0,0:0:0:0:
224,192,68003,1,8,0:0:0:0:
256,192,68821,1,8,0:0:0:0:
256,192,68957,1,0,0:0:0:0:
224,224,69775,1,0,0:0:0:0:
224,224,69912,1,0,0:0:0:0:
224,224,70048,1,0,0:0:0:0:
96,192,70184,1,8,0:0:0:0:
96,192,70321,1,8,0:0:0:0:
96,192,70457,1,8,0:0:0:0:
96,192,70594,1,8,0:0:0:0:
96,192,70730,1,8,0:0:0:0:
224,224,70866,1,8,0:0:0:0:
224,224,71003,1,8,0:0:0:0:
192,224,71139,1,8,0:0:0:0:
160,224,71412,1,0,0:0:0:0:
160,224,71548,1,8,0:0:0:0:
192,192,71821,1,0,0:0:0:0:
192,192,71957,1,0,0:0:0:0:
288,192,72094,1,8,0:0:0:0:
256,192,72366,1,0,0:0:0:0:
192,192,72639,1,8,0:0:0:0:
160,224,72775,1,0,0:0:0:0:
224,192,73048,1,0,0:0:0:0:
288,192,73321,1,8,0:0:0:0:
288,192,74003,1,8,0:0:0:0:
256,224,74275,1,0,0:0:0:0:
256,224,74548,1,0,0:0:0:0:
224,224,75230,1,0,0:0:0:0:
288,160,75366,1,0,0:0:0:0:
224,224,75503,1,0,0:0:0:0:
256,224,75639,1,8,0:0:0:0:
256,192,76048,1,8,0:0:0:0:
417,224,76457,1,0,0:0:0:0:
256,224,76730,1,8,0:0:0:0:
224,192,77003,1,0,0:0:0:0:
224,192,77139,1,0,0:0:0:0:
256,192,77412,1,8,0:0:0:0:
256,192,77548,1,8,0:0:0:0:
256,192,77684,1,8,0:0:0:0:
128,224,77821,1,0,0:0:0:0:
192,224,78094,1,0,0:0:0:0:
256,192,78230,1,8,0:0:0:0:
224,224,78366,1,0,0:0:0:0:
224,224,78503,1,0,0:0:0:0:
192,192,78639,1,8,0:0:0:0:
224,192,78775,1,8,0:0:0:0:
224,192,78912,1,0,0:0:0:0:
224,224,79184,1,0,0:0:0:0:
224,192,79253,1,0,0:0:0:0:
224,192,79321,1,0,0:0:0:0:
224,192,79389,1,0,0:0:0:0:
224,224,79457,1,8,0:0:0:0:
224,224,79730,1,0,0:0:0:0:
224,224,80003,1,0,0:0:0:0:
192,192,80275,1,8,0:0:0:0:
192,192,80344,1,8,0:0:0:0:
192,192,80412,1,8,0:0:0:0:
192,224,80480,1,8,0:0:0:0:
128,224,80548,1,0,0:0:0:0:
256,224,80821,1,0,0:0:0:0:
256,192,81094,1,0,0:0:0:0:
192,192,81162,1,0,0:0:0:0:
192,192,81230,1,0,0:0:0:0:
192,192,81298,1,0,0:0:0:0:
224,224,81366,1,8,0:0:0:0:
192,192,81503,1,0,0:0:0:0:
224,224,81639,1,8,0:0:0:0:
224,192,81707,1,8,0:0:0:0:
256,224,81775,1,0,0:0:0:0:
224,224,81844,1,0,0:0:0:0:
224,224,81912,1,8,0:0:0:0:
192,256,82048,1,0,0:0:0:0:
192,224,82184,1,8,0:0:0:0:
192,224,82253,1,8,0:0:0:0:
192,224,82321,1,8,0:0:0:0:
192,224,82389,1,8,0:0:0:0:
192,224,82457,1,8,0:0:0:0:
192,224,82525,1,8,0:0:0:0:
160,224,82594,1,8,0:0:0:0:
160,224,82662,1,8,0:0:0:0:
224,224,82730,1,0,0:0:0:0:
320,224,83003,1,4,0:0:0:0:
224,224,83275,1,4,0:0:0:0:
256,192,83684,1,4,0:0:0:0:
224,192,84094,1,12,0:0:0:0:
256,192,84503,1,0,0:0:0:0:
256,224,84639,1,8,0:0:0:0:
256,192,84775,1,0,0:0:0:0:
224,192,84912,1,0,0:0:0:0:
256,192,85048,1,8,0:0:0:0:
256,192,85184,1,0,0:0:0:0:
256,192,85253,1,0,0:0:0:0:
192,192,85321,1,8,0:0:0:0:
256,192,85457,1,8,0:0:0:0:
224,192,85594,1,0,0:0:0:0:
224,192,85662,1,0,0:0:0:0:
192,192,85730,1,8,0:0:0:0:
192,224,85866,1,0,0:0:0:0:
224,192,86003,1,8,0:0:0:0:
224,192,86071,1,8,0:0:0:0:
192,224,86139,1,0,0:0:0:0:
224,224,86207,1,0,0:0:0:0:
160,256,86275,1,8,0:0:0:0:
192,256,86412,1,0,0:0:0:0:
192,256,86548,1,8,0:0:0:0:
224,224,86684,1,0,0:0:0:0:
256,224,86753,1,0,0:0:0:0:
224,224,86821,1,0,0:0:0:0:
160,192,86957,1,8,0:0:0:0:
192,224,87094,1,0,0:0:0:0:
224,224,87162,1,0,0:0:0:0:
224,224,87230,1,0,0:0:0:0:
256,224,87298,1,8,0:0:0:0:
256,224,87366,1,8,0:0:0:0:
224,224,87639,1,0,0:0:0:0:
224,224,87707,1,0,0:0:0:0:
224,224,87775,1,0,0:0:0:0:
224,192,87912,1,8,0:0:0:0:
224,224,88048,1,0,0:0:0:0:
224,224,88116,1,0,0:0:0:0:
224,192,88184,1,8,0:0:0:0:
224,192,88321,1,8,0:0:0:0:
224,192,88457,1,0,0:0:0:0:
288,224,88525,1,8,0:0:0:0:
256,192,88594,1,8,0:0:0:0:
256,224,88730,1,8,0:0:0:0:
256,192,88866,1,0,0:0:0:0:
256,192,88934,1,0,0:0:0:0:
256,192,89003,1,0,0:0:0:0:
256,192,89071,1,0,0:0:0:0:
256,224,89139,1,8,0:0:0:0:
224,192,89275,1,8,0:0:0:0:
224,192,89344,1,8,0:0:0:0:
192,256,89412,1,0,0:0:0:0:
192,256,89480,1,0,0:0:0:0:
256,224,89548,1,8,0:0:0:0:
96,256,89684,1,8,0:0:0:0:
160,224,89821,1,0,0:0:0:0:
160,224,89889,1,0,0:0:0:0:
160,224,89958,1,0,0:0:0:0:
160,224,90026,1,0,0:0:0:0:
192,224,90094,1,8,0:0:0:0:
96,224,90231,1,0,0:0:0:0:
96,224,90367,1,8,0:0:0:0:
128,224,90504,1,8,0:0:0:0:
256,224,90571,1,0,0:0:0:0:
192,192,90640,1,0,0:0:0:0:
256,224,90707,1,0,0:0:0:0:
192,224,90775,1,8,0:0:0:0:
128,224,90912,1,0,0:0:0:0:
128,224,90980,1,0,0:0:0:0:
128,224,91048,1,0,0:0:0:0:
128,224,91116,1,0,0:0:0:0:
128,224,91184,1,8,0:0:0:0:
128,256,91253,1,8,0:0:0:0:
128,288,91321,1,8,0:0:0:0:
160,192,91389,1,8,0:0:0:0:
160,224,91457,1,0,0:0:0:0:
192,224,91525,1,8,0:0:0:0:
224,224,91594,1,8,0:0:0:0:
224,224,91662,1,8,0:0:0:0:
224,192,91730,1,0,0:0:0:0:
192,192,91798,1,0,0:0:0:0:
96,256,91866,1,8,0:0:0:0:
192,192,92003,1,0,0:0:0:0:
192,192,92094,1,0,0:0:0:0:
192,192,92184,1,0,0:0:0:0:
192,224,92275,1,8,0:0:0:0:
192,224,92366,1,8,0:0:0:0:
192,224,92457,1,8,0:0:0:0:
256,192,92548,1,0,0:0:0:0:
256,192,92639,1,0,0:0:0:0:
192,192,92730,1,0,0:0:0:0:
160,224,92821,1,8,0:0:0:0:
160,224,92912,1,8,0:0:0:0:
224,192,93003,1,0,0:0:0:0:
128,224,93094,1,8,0:0:0:0:
128,224,93184,1,8,0:0:0:0:
128,224,93275,1,8,0:0:0:0:
160,192,93366,1,0,0:0:0:0:
160,192,93457,1,0,0:0:0:0:
160,192,93548,1,0,0:0:0:0:
224,192,93639,1,8,0:0:0:0:
224,192,93730,1,8,0:0:0:0:
224,192,93821,1,8,0:0:0:0:
160,224,93912,1,0,0:0:0:0:
160,224,94003,1,0,0:0:0:0:
224,192,94094,1,8,0:0:0:0:
192,192,94184,1,0,0:0:0:0:
192,160,94253,1,0,0:0:0:0:
192,160,94321,1,0,0:0:0:0:
192,160,94389,1,0,0:0:0:0:
192,192,94457,1,8,0:0:0:0:
192,192,94525,1,8,0:0:0:0:
192,192,94594,1,8,0:0:0:0:
192,192,94662,1,8,0:0:0:0:
224,192,94730,1,0,0:0:0:0:
224,192,94798,1,0,0:0:0:0:
224,192,94866,1,0,0:0:0:0:
224,192,94934,1,0,0:0:0:0:
224,192,95003,1,8,0:0:0:0:
224,192,95071,1,8,0:0:0:0:
224,192,95139,1,8,0:0:0:0:
224,192,95207,1,8,0:0:0:0:
224,192,95275,1,0,0:0:0:0:
224,192,95344,1,0,0:0:0:0:
192,192,95412,1,8,0:0:0:0:
192,192,95480,1,8,0:0:0:0:
256,192,95548,1,0,0:0:0:0:
256,192,95616,1,0,0:0:0:0:
224,256,95684,1,8,0:0:0:0:
224,256,95753,1,8,0:0:0:0:
256,192,95821,1,0,0:0:0:0:
192,192,95957,1,0,0:0:0:0:
224,224,96094,1,8,0:0:0:0:
224,224,96230,1,8,0:0:0:0:
160,192,96366,1,0,0:0:0:0:
224,160,96639,1,0,0:0:0:0:
224,192,96775,1,12,0:0:0:0:
288,224,97184,1,8,0:0:0:0:
256,192,97457,1,0,0:0:0:0:
256,224,97730,1,8,0:0:0:0:
256,128,97866,1,12,0:0:0:0:
256,192,98275,1,8,0:0:0:0:
256,192,98548,1,0,0:0:0:0:
256,192,98616,1,0,0:0:0:0:
256,192,98684,1,0,0:0:0:0:
256,192,98753,1,0,0:0:0:0:
256,192,98821,1,8,0:0:0:0:
256,192,98957,1,0,0:0:0:0:
256,192,99094,1,8,0:0:0:0:
256,192,99162,1,8,0:0:0:0:
256,192,99230,1,8,0:0:0:0:
256,192,99298,1,8,0:0:0:0:
256,192,99366,1,0,0:0:0:0:
256,192,99503,1,0,0:0:0:0:
192,192,99639,1,8,0:0:0:0:
224,192,99707,1,8,0:0:0:0:
256,192,99775,1,0,0:0:0:0:
256,192,99844,1,0,0:0:0:0:
224,192,99912,1,8,0:0:0:0:
256,192,100048,1,0,0:0:0:0:
224,192,100184,1,0,0:0:0:0:
224,192,100253,1,0,0:0:0:0:
288,192,100321,1,8,0:0:0:0:
288,192,100389,1,8,0:0:0:0:
224,192,100457,1,0,0:0:0:0:
256,224,100594,1,0,0:0:0:0:
256,160,100730,1,8,0:0:0:0:
224,256,100798,1,0,0:0:0:0:
288,192,100866,1,0,0:0:0:0:
288,192,101003,1,0,0:0:0:0:
256,224,101139,1,8,0:0:0:0:
256,192,101207,1,0,0:0:0:0:
192,192,101275,1,0,0:0:0:0:
160,224,101412,1,0,0:0:0:0:
224,192,101548,1,8,0:0:0:0:
256,192,101616,1,0,0:0:0:0:
288,256,101684,1,0,0:0:0:0:
224,192,101821,1,0,0:0:0:0:
256,192,101957,1,8,0:0:0:0:
256,256,102025,1,0,0:0:0:0:
256,224,102094,1,0,0:0:0:0:
256,224,102230,1,0,0:0:0:0:
256,256,102366,1,8,0:0:0:0:
256,256,102434,1,8,0:0:0:0:
256,224,102503,1,0,0:0:0:0:
288,224,102571,1,0,0:0:0:0:
320,224,102639,1,8,0:0:0:0:
256,224,102775,1,0,0:0:0:0:
224,256,102912,1,8,0:0:0:0:
128,224,102980,1,0,0:0:0:0:
320,224,103048,1,8,0:0:0:0:
256,256,103184,1,0,0:0:0:0:
256,224,103321,1,8,0:0:0:0:
192,224,103389,1,0,0:0:0:0:
192,224,103457,1,8,0:0:0:0:
256,224,103594,1,0,0:0:0:0:
256,224,103730,1,8,0:0:0:0:
288,224,103798,1,0,0:0:0:0:
256,192,103866,1,8,0:0:0:0:
160,192,104003,1,0,0:0:0:0:
256,224,104139,1,8,0:0:0:0:
224,192,104275,1,0,0:0:0:0:
192,160,104412,1,0,0:0:0:0:
224,192,104548,1,0,0:0:0:0:
256,224,104616,1,8,0:0:0:0:
192,192,104684,1,0,0:0:0:0:
160,224,104753,1,0,0:0:0:0:
256,224,104821,1,8,0:0:0:0:
256,224,104957,1,0,0:0:0:0:
160,192,105094,1,8,0:0:0:0:
160,192,105162,1,8,0:0:0:0:
160,192,105230,1,8,0:0:0:0:
192,192,105366,1,0,0:0:0:0:
224,192,105503,1,8,0:0:0:0:
224,192,105571,1,8,0:0:0:0:
224,192,105639,1,8,0:0:0:0:
224,192,105775,1,0,0:0:0:0:
160,224,105912,1,8,0:0:0:0:
160,224,105980,1,8,0:0:0:0:
160,224,106048,1,8,0:0:0:0:
224,192,106184,1,0,0:0:0:0:
160,192,106321,1,8,0:0:0:0:
160,192,106389,1,8,0:0:0:0:
160,192,106457,1,8,0:0:0:0:
192,224,106594,1,0,0:0:0:0:
256,192,106730,1,0,0:0:0:0:
256,192,106798,1,8,0:0:0:0:
256,192,106866,1,8,0:0:0:0:
256,192,106934,1,0,0:0:0:0:
256,224,107003,1,8,0:0:0:0:
192,192,107139,1,0,0:0:0:0:
160,224,107275,1,0,0:0:0:0:
160,224,107344,1,0,0:0:0:0:
160,224,107412,1,0,0:0:0:0:
160,224,107480,1,0,0:0:0:0:
192,192,107548,1,8,0:0:0:0:
224,192,107684,1,0,0:0:0:0:
224,192,107753,1,0,0:0:0:0:
224,192,107821,1,0,0:0:0:0:
224,192,107889,1,0,0:0:0:0:
160,160,107957,1,8,0:0:0:0:
256,192,108094,1,0,0:0:0:0:
256,192,108162,1,0,0:0:0:0:
192,192,108230,1,8,0:0:0:0:
224,192,108366,1,0,0:0:0:0:
224,224,108434,1,0,0:0:0:0:
160,224,108503,1,0,0:0:0:0:
160,224,108571,1,0,0:0:0:0:
256,192,108639,1,8,0:0:0:0:
256,192,108707,1,8,0:0:0:0:
224,224,108775,1,0,0:0:0:0:
224,224,108844,1,0,0:0:0:0:
256,224,108912,1,8,0:0:0:0:
224,224,108980,1,0,0:0:0:0:
256,224,109048,1,8,0:0:0:0:
256,224,109116,1,8,0:0:0:0:
224,224,109184,1,0,0:0:0:0:
192,192,109253,1,0,0:0:0:0:
256,224,109321,1,8,0:0:0:0:
192,224,109389,1,8,0:0:0:0:
160,224,109457,1,0,0:0:0:0:
160,192,109594,1,8,0:0:0:0:
224,192,109662,1,8,0:0:0:0:
192,192,109730,1,0,0:0:0:0:
192,192,109866,1,0,0:0:0:0:
224,192,110003,1,8,0:0:0:0:
224,192,110071,1,8,0:0:0:0:
192,160,110139,1,0,0:0:0:0:
192,192,110275,1,0,0:0:0:0:
224,192,110412,1,8,0:0:0:0:
224,192,110480,1,8,0:0:0:0:
192,192,110548,1,0,0:0:0:0:
160,192,110684,1,0,0:0:0:0:
160,192,110821,1,8,0:0:0:0:
224,192,110957,1,0,0:0:0:0:
160,192,111094,1,8,0:0:0:0:
224,224,111162,1,8,0:0:0:0:
192,160,111230,1,0,0:0:0:0:
256,160,111298,1,0,0:0:0:0:
160,192,111366,1,8,0:0:0:0:
224,192,111503,1,8,0:0:0:0:
256,224,111639,1,8,0:0:0:0:
256,224,111707,1,8,0:0:0:0:
192,160,111775,1,0,0:0:0:0:
320,192,111844,1,0,0:0:0:0:
256,224,111912,1,8,0:0:0:0:
160,224,112048,1,8,0:0:0:0:
160,224,112116,1,8,0:0:0:0:
224,192,112184,1,0,0:0:0:0:
224,192,112253,1,0,0:0:0:0:
160,224,112321,1,8,0:0:0:0:
192,224,112457,1,8,0:0:0:0:
192,224,112525,1,8,0:0:0:0:
224,160,112594,1,0,0:0:0:0:
224,160,112662,1,0,0:0:0:0:
224,192,112730,1,8,0:0:0:0:
224,192,112866,1,8,0:0:0:0:
224,192,112934,1,8,0:0:0:0:
192,192,113003,1,0,0:0:0:0:
192,192,113071,1,0,0:0:0:0:
224,192,113139,1,8,0:0:0:0:
224,256,113275,1,8,0:0:0:0:
224,192,113344,1,0,0:0:0:0:
224,160,113412,1,0,0:0:0:0:
256,224,113480,1,0,0:0:0:0:
224,224,113548,1,8,0:0:0:0:
224,224,113616,1,0,0:0:0:0:
256,192,113684,1,8,0:0:0:0:
224,224,113753,1,0,0:0:0:0:
256,192,113821,1,8,0:0:0:0:
224,192,113957,1,0,0:0:0:0:
224,192,114025,1,0,0:0:0:0:
256,192,114094,1,8,0:0:0:0:
192,224,114162,1,0,0:0:0:0:
224,192,114230,1,8,0:0:0:0:
224,224,114366,1,0,0:0:0:0:
224,224,114434,1,0,0:0:0:0:
256,224,114503,1,8,0:0:0:0:
256,224,114571,1,0,0:0:0:0:
256,224,114639,1,8,0:0:0:0:
256,256,114775,1,0,0:0:0:0:
256,256,114844,1,0,0:0:0:0:
256,192,114912,1,8,0:0:0:0:
128,224,114980,1,0,0:0:0:0:
256,192,115048,1,8,0:0:0:0:
192,192,115184,1,0,0:0:0:0:
192,192,115253,1,0,0:0:0:0:
224,192,115321,1,8,0:0:0:0:
192,192,115389,1,0,0:0:0:0:
224,192,115457,1,8,0:0:0:0:
192,224,115594,1,0,0:0:0:0:
192,224,115662,1,0,0:0:0:0:
192,224,115730,1,0,0:0:0:0:
192,224,115798,1,0,0:0:0:0:
288,224,115866,1,8,0:0:0:0:
256,192,116003,1,8,0:0:0:0:
224,192,116071,1,0,0:0:0:0:
224,192,116139,1,0,0:0:0:0:
224,192,116207,1,0,0:0:0:0:
224,192,116275,1,8,0:0:0:0:
224,224,116344,1,0,0:0:0:0:
224,224,116412,1,0,0:0:0:0:
224,224,116480,1,0,0:0:0:0:
224,224,116548,1,8,0:0:0:0:
224,224,116616,1,0,0:0:0:0:
224,224,116684,1,0,0:0:0:0:
224,224,116753,1,0,0:0:0:0:
192,224,116821,1,8,0:0:0:0:
224,192,116889,1,0,0:0:0:0:
224,192,116957,1,0,0:0:0:0:
256,224,117094,1,0,0:0:0:0:
224,192,117230,1,8,0:0:0:0:
224,192,117366,1,8,0:0:0:0:
192,192,117503,1,8,0:0:0:0:
192,224,117639,1,0,0:0:0:0:
192,224,117775,1,8,0:0:0:0:
256,224,117912,1,0,0:0:0:0:
224,160,118048,1,0,0:0:0:0:
128,256,118184,1,8,0:0:0:0:
160,160,118275,1,0,0:0:0:0:
160,160,118366,1,0,0:0:0:0:
160,160,118457,1,0,0:0:0:0:
256,224,118730,1,8,0:0:0:0:
256,192,118764,12,0,122548,0:0:0:0:
