osu file format v14

[General]
AudioFilename: [SDVX]Everlasting Message(NOFX).mp3
AudioLeadIn: 0
PreviewTime: 43935
Countdown: 0
SampleSet: Soft
StackLeniency: 0.7
Mode: 3
LetterboxInBreaks: 0
SpecialStyle: 0
WidescreenStoryboard: 0

[Editor]
Bookmarks: 26071,40680
DistanceSpacing: 1
BeatDivisor: 4
GridSize: 8
TimelineZoom: 1.6

[Metadata]
Title:Everlasting Message
TitleUnicode:Everlasting Message
Artist:penoreri
ArtistUnicode:ぺのれり
Creator:Julie
Version:NOVICE
Source:SOUND VOLTEX III GRAVITY WARS
Tags:SDVX The 4th KACオリジナル楽曲コンテスト Original Song Contest KONAMI Arcade Championship RASIS Voltenizer Maxima 蒼弐 forever Queen
BeatmapID:687324
BeatmapSetID:307175

[Difficulty]
HPDrainRate:7
CircleSize:7
OverallDifficulty:7
ApproachRate:5
SliderMultiplier:1
SliderTickRate:1

[Events]
//Background and Video events
0,0,"BG.jpg",0,0
//Break Periods
//Storyboard Layer 0 (Background)
//Storyboard Layer 1 (Fail)
//Storyboard Layer 2 (Pass)
//Storyboard Layer 3 (Foreground)
//Storyboard Sound Samples

[TimingPoints]
1805,260.869565217391,6,2,1,30,1,0
3370,260.869565217391,7,2,1,30,1,0
5196,260.869565217391,4,2,1,30,1,0
88739,260.869565217391,4,2,1,30,1,0
89652,260.869565217391,4,2,1,30,1,0

[HitObjects]
36,192,1805,5,0,0:0:0:70:cym1.wav
256,192,1805,1,0,0:0:0:0:
475,192,1805,1,0,0:0:0:70:kick1.wav
256,192,3370,1,0,0:0:0:0:
109,192,3761,1,0,0:0:0:0:
475,192,4152,1,0,0:0:0:0:
329,192,4413,1,0,0:0:0:0:
182,192,4674,1,0,0:0:0:0:
36,192,4935,1,0,0:0:0:0:
475,192,5196,1,0,0:0:0:70:kick1.wav
329,192,5196,1,0,0:0:0:70:cym.wav
109,192,5978,1,0,0:0:0:70:Crash.wav
402,192,5978,1,0,0:0:0:0:
329,192,7022,1,0,0:0:0:0:
182,192,7282,1,0,0:0:0:0:
402,192,7674,1,0,0:0:0:0:
109,192,8065,1,0,0:0:0:0:
329,192,8456,1,0,0:0:0:0:
36,192,8848,1,0,0:0:0:0:
402,192,9369,1,0,0:0:0:70:cym.wav
109,192,9369,128,0,9891:0:0:0:0:
329,192,9891,128,0,10413:0:0:0:0:
182,192,10413,128,0,10935:0:0:0:0:
475,192,10935,128,0,11456:0:0:0:0:
256,192,11456,128,0,13543:0:0:0:0:
36,192,13543,128,0,14587:0:0:0:0:
182,192,14587,128,0,15109:0:0:0:0:
329,192,15109,128,0,15630:0:0:0:0:
475,192,15630,128,0,17456:0:0:0:0:
256,192,17717,128,0,19282:0:0:0:0:
36,192,19282,128,0,19804:0:0:0:0:
256,192,19804,128,0,20326:0:0:0:0:
109,192,20326,128,0,20848:0:0:0:0:
256,192,20848,128,0,21369:0:0:0:0:
402,192,21369,128,0,21891:0:0:0:0:
475,192,21891,1,0,0:0:0:70:kick1.wav
182,192,21891,1,0,0:0:0:70:cym.wav
402,192,22282,1,0,0:0:0:70:kick1.wav
109,192,22282,1,0,0:0:0:0:
256,192,22674,1,0,0:0:0:70:cym.wav
475,192,22674,1,0,0:0:0:70:kick1.wav
329,192,23065,1,0,0:0:0:70:kick1.wav
109,192,23065,1,0,0:0:0:0:
36,192,23456,1,0,0:0:0:70:cym.wav
475,192,23456,1,0,0:0:0:70:kick1.wav
182,192,23717,1,0,0:0:0:0:
329,192,23717,1,0,0:0:0:70:tam03.wav
256,192,23978,1,0,0:0:0:70:kick1.wav
36,192,23978,1,0,0:0:0:70:cym.wav
329,192,24500,1,0,0:0:0:70:LR_SnD.wav
109,192,24500,1,0,0:0:0:0:
402,192,25022,1,0,0:0:0:70:LR_SnD.wav
182,192,25022,1,0,0:0:0:70:cym.wav
256,192,25543,1,0,0:0:0:70:cym.wav
475,192,25543,1,0,0:0:0:70:LR_SnD.wav
109,192,26065,1,0,0:0:0:30:G#6S_Ab6S.wav
329,192,26587,1,0,0:0:0:30:A#6S_Bb6S_s.wav
402,192,26848,1,0,0:0:0:30:C7S_s.wav
475,192,27109,1,0,0:0:0:30:C#7S_Db7S.wav
256,192,27630,1,0,0:0:0:30:G#6S_Ab6S_s.wav
36,192,28152,1,0,0:0:0:30:E6S.wav
329,192,28674,1,0,0:0:0:30:A#6S_Bb6S_s.wav
402,192,28935,1,0,0:0:0:30:B6S_s.wav
256,192,29195,1,0,0:0:0:30:B6S_s.wav
329,192,29717,1,0,0:0:0:30:F#6S_Gb6S.wav
109,192,30239,1,0,0:0:0:30:D6S.wav
329,192,30761,1,0,0:0:0:30:G#6S_Ab6S_s.wav
402,192,31022,1,0,0:0:0:30:A6S_s.wav
182,192,31282,1,0,0:0:0:30:C#6S_Db6S.wav
36,192,31804,1,0,0:0:0:30:E6S.wav
256,192,32326,1,0,0:0:0:30:F#6S_Gb6S.wav
475,192,32848,1,0,0:0:0:30:B6S.wav
182,192,33109,1,0,0:0:0:30:F#6S_Gb6S_s.wav
402,192,33369,1,0,0:0:0:30:A6S.wav
109,192,33761,1,0,0:0:0:30:G#6S_Ab6S_s.wav
329,192,33891,1,0,0:0:0:30:G#6S_Ab6S.wav
36,192,34413,1,0,0:0:0:70:cym.wav
256,192,34413,1,0,0:0:0:0:
475,192,34413,1,0,0:0:0:70:kick1.wav
109,192,34935,1,0,0:0:0:70:kick1.wav
256,192,35195,1,0,0:0:0:70:kick1.wav
402,192,35456,1,0,0:0:0:70:kick1.wav
475,192,35978,1,0,0:0:0:70:kick1.wav
36,192,36500,1,0,0:0:0:70:cym.wav
256,192,36500,1,0,0:0:0:0:
475,192,36500,1,0,0:0:0:70:kick1.wav
329,192,37022,1,0,0:0:0:70:kick1.wav
109,192,37282,1,0,0:0:0:70:kick1.wav
402,192,37543,1,0,0:0:0:70:kick1.wav
182,192,38065,1,0,0:0:0:0:
475,192,38065,1,0,0:0:0:70:kick1.wav
36,192,38065,1,0,0:0:0:70:cym.wav
256,192,38587,1,0,0:0:0:70:cym.wav
475,192,38587,1,0,0:0:0:70:kick1.wav
329,192,38978,1,0,0:0:0:70:kick1.wav
109,192,38978,1,0,0:0:0:70:cym.wav
475,192,39369,1,0,0:0:0:0:
36,192,39630,1,0,0:0:0:0:
402,192,39891,1,0,0:0:0:0:
182,192,40152,1,0,0:0:0:0:
475,192,40413,1,0,0:0:0:0:
109,192,40674,1,0,0:0:0:70:cym.wav
256,192,40674,1,0,0:0:0:0:
402,192,40674,1,0,0:0:0:70:kick1.wav
109,192,41065,1,0,0:0:0:70:cym.wav
256,192,41065,1,0,0:0:0:0:
402,192,41065,1,0,0:0:0:70:kick1.wav
256,192,41456,1,0,0:0:0:0:
402,192,41456,1,0,0:0:0:70:kick1.wav
109,192,41456,1,0,0:0:0:70:cym.wav
109,192,41848,1,0,0:0:0:70:cym.wav
256,192,41848,1,0,0:0:0:0:
402,192,41848,1,0,0:0:0:70:kick1.wav
182,192,42239,1,0,0:0:0:70:cym.wav
475,192,42239,1,0,0:0:0:70:kick1.wav
402,192,42500,1,0,0:0:0:70:kick1.wav
109,192,42500,1,0,0:0:0:70:cym.wav
256,192,42761,1,0,0:0:0:0:
475,192,42761,1,0,0:0:0:70:kick1.wav
36,192,42761,1,0,0:0:0:70:cym.wav
36,192,43152,1,0,0:0:0:70:cym.wav
256,192,43152,1,0,0:0:0:0:
475,192,43152,1,0,0:0:0:70:kick1.wav
256,192,43543,1,0,0:0:0:0:
475,192,43543,1,0,0:0:0:70:kick1.wav
36,192,43543,1,0,0:0:0:70:cym.wav
256,192,43935,128,0,44848:0:0:0:0:
329,192,44848,1,0,0:0:0:70:kick1.wav
36,192,44848,128,0,45239:0:0:0:0:
475,192,45239,1,0,0:0:0:0:
475,192,45630,128,0,46152:0:0:0:0:
329,192,46152,1,0,0:0:0:0:
182,192,46413,1,0,0:0:0:0:
36,192,46674,1,0,0:0:0:0:
256,192,46935,128,0,47326:0:0:0:0:
329,192,47326,128,0,47717:0:0:0:0:
475,192,47717,1,0,0:0:0:0:
109,192,47978,128,0,48369:0:0:0:0:
256,192,48369,1,0,0:0:0:0:
256,192,48500,128,0,49022:0:0:0:0:
36,192,49022,128,0,49413:0:0:0:0:
402,192,49413,1,0,0:0:0:0:
402,192,49543,128,0,50065:0:0:0:0:
36,192,50065,128,0,50456:0:0:0:0:
402,192,50456,1,0,0:0:0:0:
402,192,50587,128,0,50848:0:0:0:0:
256,192,50848,1,0,0:0:0:0:
475,192,51109,128,0,51500:0:0:0:0:
109,192,51500,1,0,0:0:0:0:
109,192,51630,128,0,52022:0:0:0:0:
475,192,52022,1,0,0:0:0:0:
475,192,52152,128,0,52543:0:0:0:0:
36,192,52543,1,0,0:0:0:0:
36,192,52674,128,0,53195:0:0:0:0:
256,192,53195,128,0,53587:0:0:0:0:
475,192,53587,1,0,0:0:0:0:
475,192,53978,128,0,54500:0:0:0:0:
256,192,54500,1,0,0:0:0:0:
109,192,54761,1,0,0:0:0:0:
329,192,55022,1,0,0:0:0:0:
475,192,55282,128,0,55543:0:0:0:0:
182,192,55543,1,0,0:0:0:0:
402,192,55804,128,0,56000:0:0:0:0:
256,192,56000,1,0,0:0:0:0:
36,192,56195,1,0,0:0:0:0:
329,192,56326,128,0,56587:0:0:0:0:
475,192,56587,1,0,0:0:0:0:
256,192,56717,128,0,57109:0:0:0:0:
109,192,57109,1,0,0:0:0:0:
36,192,57369,128,0,57761:0:0:0:0:
329,192,57761,128,0,58152:0:0:0:0:
109,192,58152,1,0,0:0:0:0:
402,192,58413,128,0,58674:0:0:0:0:
36,192,58674,1,0,0:0:0:0:
182,192,58935,1,0,0:0:0:0:
329,192,59195,1,0,0:0:0:0:
475,192,59456,128,0,59978:0:0:0:0:
109,192,59456,1,0,0:0:0:0:
36,192,59978,128,0,60500:0:0:0:0:
329,192,59978,1,0,0:0:0:0:
402,192,60500,128,0,61022:0:0:0:0:
256,192,60500,1,0,0:0:0:0:
109,192,61022,128,0,61543:0:0:0:0:
329,192,61543,128,0,63500:0:0:0:0:
256,192,63630,1,0,0:0:0:70:kick1.wav
475,192,63761,1,0,0:0:0:70:LR_SnD.wav
36,192,64022,1,0,0:0:0:70:kick1.wav
329,192,64152,1,0,0:0:0:70:LR_SnD.wav
109,192,64413,1,0,0:0:0:70:kick1.wav
402,192,64543,1,0,0:0:0:70:LR_SnD.wav
182,192,64804,1,0,0:0:0:70:kick1.wav
475,192,64935,1,0,0:0:0:70:LR_SnD.wav
256,192,65195,1,0,0:0:0:70:kick1.wav
109,192,65456,1,0,0:0:0:70:kick1.wav
36,192,65717,1,0,0:0:0:70:cym.wav
402,192,65717,1,0,0:0:0:70:kick1.wav
256,192,67804,1,0,0:0:0:0:
109,192,68848,1,0,0:0:0:0:
402,192,69369,1,0,0:0:0:0:
36,192,69891,128,0,70935:0:0:0:0:
256,192,69891,1,0,0:0:0:70:cym.wav
109,192,71195,128,0,71456:0:0:0:0:
256,192,71456,128,0,71717:0:0:0:0:
402,192,71717,128,0,71978:0:0:0:0:
475,192,71978,128,0,73022:0:0:0:0:
109,192,73022,128,0,73543:0:0:0:0:
256,192,73543,128,0,74065:0:0:0:0:
402,192,74065,128,0,75109:0:0:0:0:
36,192,75369,128,0,75630:0:0:0:0:
182,192,75630,128,0,75891:0:0:0:0:
329,192,75891,128,0,76152:0:0:0:0:
475,192,76152,128,0,77195:0:0:0:0:
256,192,77195,128,0,77717:0:0:0:0:
109,192,77717,128,0,78239:0:0:0:0:
36,192,78239,1,0,0:0:0:0:
402,192,78630,1,0,0:0:0:0:
109,192,79022,1,0,0:0:0:0:
402,192,79282,1,0,0:0:0:0:
182,192,79543,1,0,0:0:0:0:
329,192,79804,1,0,0:0:0:0:
475,192,80065,1,0,0:0:0:0:
109,192,80326,1,0,0:0:0:0:
256,192,80326,1,0,0:0:0:0:
475,192,80587,1,0,0:0:0:0:
36,192,80848,1,0,0:0:0:0:
256,192,81109,1,0,0:0:0:0:
475,192,81369,1,0,0:0:0:0:
36,192,81630,1,0,0:0:0:0:
182,192,81891,1,0,0:0:0:0:
329,192,82152,1,0,0:0:0:0:
475,192,82413,1,0,0:0:0:0:
36,192,82413,1,0,0:0:0:0:
256,192,82804,1,0,0:0:0:0:
182,192,83195,1,0,0:0:0:0:
329,192,83456,1,0,0:0:0:0:
36,192,83717,1,0,0:0:0:0:
182,192,83978,1,0,0:0:0:0:
329,192,84239,1,0,0:0:0:0:
475,192,84500,1,0,0:0:0:0:
182,192,84500,1,0,0:0:0:0:
36,192,84891,1,0,0:0:0:0:
329,192,84891,1,0,0:0:0:0:
109,192,85282,1,0,0:0:0:0:
402,192,85282,1,0,0:0:0:0:
329,192,85674,1,0,0:0:0:0:
182,192,85674,1,0,0:0:0:0:
475,192,86065,1,0,0:0:0:0:
109,192,86065,1,0,0:0:0:0:
36,192,86326,1,0,0:0:0:0:
402,192,86326,1,0,0:0:0:0:
182,192,86717,1,0,0:0:0:0:
475,192,86848,1,0,0:0:0:0:
402,192,86978,1,0,0:0:0:0:
329,192,87109,1,0,0:0:0:0:
256,192,87239,1,0,0:0:0:0:
182,192,87369,1,0,0:0:0:0:
109,192,87500,1,0,0:0:0:0:
36,192,87630,1,0,0:0:0:0:
256,192,88413,1,0,0:0:0:0:
109,192,88674,128,0,88999:0:0:0:0:
402,192,88674,1,0,0:0:0:70:cym1.wav
256,192,88999,128,0,89391:0:0:0:0:
475,192,89391,128,0,89912:0:0:0:0:
36,192,89521,1,0,0:0:0:70:Crash.wav
182,192,89912,1,0,0:0:0:0:
329,192,90173,1,0,0:0:0:0:
36,192,90434,1,0,0:0:0:0:
256,192,90695,128,0,91086:0:0:0:0:
402,192,91086,128,0,91478:0:0:0:0:
109,192,91478,1,0,0:0:0:0:
475,192,91738,128,0,92130:0:0:0:0:
256,192,92130,1,0,0:0:0:0:
256,192,92260,128,0,92782:0:0:0:0:
36,192,92782,128,0,93173:0:0:0:0:
329,192,93173,1,0,0:0:0:0:
329,192,93304,128,0,93825:0:0:0:0:
36,192,93825,128,0,94217:0:0:0:0:
329,192,94217,1,0,0:0:0:0:
329,192,94347,128,0,94608:0:0:0:0:
182,192,94608,1,0,0:0:0:0:
402,192,94869,128,0,95260:0:0:0:0:
109,192,95260,1,0,0:0:0:0:
109,192,95391,128,0,95782:0:0:0:0:
475,192,95782,1,0,0:0:0:0:
475,192,95912,128,0,96304:0:0:0:0:
36,192,96304,1,0,0:0:0:0:
36,192,96434,128,0,96956:0:0:0:0:
256,192,96956,128,0,97347:0:0:0:0:
475,192,97347,1,0,0:0:0:0:
475,192,97738,128,0,98260:0:0:0:0:
36,192,98260,1,0,0:0:0:0:
182,192,98521,1,0,0:0:0:0:
329,192,98782,1,0,0:0:0:0:
475,192,99043,128,0,99304:0:0:0:0:
36,192,99304,1,0,0:0:0:0:
182,192,99565,1,0,0:0:0:0:
329,192,99565,1,0,0:0:0:70:kick1.wav
109,192,99760,1,0,0:0:0:0:
402,192,99760,1,0,0:0:0:70:kick1.wav
182,192,99956,1,0,0:0:0:0:
36,192,100086,1,0,0:0:0:0:
475,192,100086,1,0,0:0:0:70:kick1.wav
329,192,100347,1,0,0:0:0:0:
475,192,100478,1,0,0:0:0:70:kick1.wav
36,192,100478,1,0,0:0:0:0:
256,192,100869,1,0,0:0:0:0:
36,192,101130,128,0,101521:0:0:0:0:
182,192,101521,128,0,101912:0:0:0:0:
329,192,101912,1,0,0:0:0:0:
475,192,102173,128,0,102434:0:0:0:0:
36,192,102434,1,0,0:0:0:0:
182,192,102695,1,0,0:0:0:0:
329,192,102956,1,0,0:0:0:0:
475,192,103217,128,0,103478:0:0:0:0:
36,192,103478,1,0,0:0:0:0:
182,192,103738,1,0,0:0:0:0:
329,192,103999,1,0,0:0:0:0:
475,192,104260,128,0,104651:0:0:0:0:
256,192,104651,128,0,105043:0:0:0:0:
109,192,105043,1,0,0:0:0:0:
36,192,105304,128,0,105695:0:0:0:0:
182,192,105695,128,0,106086:0:0:0:0:
329,192,106086,1,0,0:0:0:0:
475,192,106347,128,0,106608:0:0:0:0:
36,192,106608,1,0,0:0:0:0:
109,192,106869,1,0,0:0:0:0:
256,192,107130,1,0,0:0:0:0:
402,192,107391,128,0,107912:0:0:0:0:
109,192,107912,128,0,108434:0:0:0:0:
475,192,108434,128,0,109478:0:0:0:0:
256,192,108956,128,0,109478:0:0:0:0:
36,192,109478,1,0,0:0:0:70:cym.wav
182,192,109478,1,0,0:0:0:0:
402,192,109478,1,0,0:0:0:70:kick1.wav
36,192,109869,1,0,0:0:0:70:cym.wav
182,192,109869,1,0,0:0:0:0:
402,192,109869,1,0,0:0:0:70:kick1.wav
36,192,110260,1,0,0:0:0:70:cym.wav
182,192,110260,1,0,0:0:0:0:
402,192,110260,1,0,0:0:0:70:kick1.wav
36,192,110651,1,0,0:0:0:70:cym.wav
182,192,110651,1,0,0:0:0:0:
402,192,110651,1,0,0:0:0:70:kick1.wav
36,192,111043,1,0,0:0:0:70:cym.wav
182,192,111043,1,0,0:0:0:0:
402,192,111043,1,0,0:0:0:70:kick1.wav
329,192,111304,1,0,0:0:0:70:kick1.wav
109,192,111304,1,0,0:0:0:70:cym.wav
256,192,111565,1,0,0:0:0:70:cym.wav
475,192,111565,1,0,0:0:0:70:kick1.wav
36,192,111956,1,0,0:0:0:70:cym.wav
182,192,111956,1,0,0:0:0:0:
402,192,111956,1,0,0:0:0:70:kick1.wav
36,192,112347,1,0,0:0:0:70:cym.wav
182,192,112347,1,0,0:0:0:0:
402,192,112347,1,0,0:0:0:70:kick1.wav
36,192,112738,1,0,0:0:0:70:cym.wav
182,192,112738,1,0,0:0:0:0:
402,192,112738,1,0,0:0:0:70:kick1.wav
329,192,113130,1,0,0:0:0:70:cym.wav
475,192,113130,1,0,0:0:0:70:kick1.wav
182,192,113391,1,0,0:0:0:70:kick1.wav
36,192,113391,1,0,0:0:0:70:cym.wav
109,192,113651,1,0,0:0:0:70:cym.wav
256,192,113651,1,0,0:0:0:0:
402,192,113651,1,0,0:0:0:70:kick1.wav
109,192,114043,1,0,0:0:0:70:cym.wav
256,192,114043,1,0,0:0:0:0:
402,192,114043,1,0,0:0:0:70:kick1.wav
109,192,114434,1,0,0:0:0:70:cym.wav
256,192,114434,1,0,0:0:0:0:
402,192,114434,1,0,0:0:0:70:kick1.wav
109,192,114825,1,0,0:0:0:70:cym.wav
256,192,114825,1,0,0:0:0:0:
402,192,114825,1,0,0:0:0:70:kick1.wav
109,192,115217,1,0,0:0:0:70:cym.wav
256,192,115217,1,0,0:0:0:0:
402,192,115217,1,0,0:0:0:70:kick1.wav
182,192,115478,1,0,0:0:0:70:cym.wav
329,192,115478,1,0,0:0:0:70:kick1.wav
256,192,115738,1,0,0:0:0:0:
475,192,115738,1,0,0:0:0:70:kick1.wav
36,192,115738,1,0,0:0:0:70:cym.wav
36,192,116130,1,0,0:0:0:70:cym.wav
256,192,116130,1,0,0:0:0:0:
475,192,116130,1,0,0:0:0:70:kick1.wav
36,192,116521,1,0,0:0:0:70:cym.wav
256,192,116521,1,0,0:0:0:0:
475,192,116521,1,0,0:0:0:70:kick1.wav
329,192,116912,1,0,0:0:0:0:
182,192,117043,1,0,0:0:0:0:
329,192,117173,1,0,0:0:0:0:
182,192,117304,1,0,0:0:0:0:
329,192,117434,1,0,0:0:0:0:
475,192,117695,1,0,0:0:0:0:
36,192,117695,1,0,0:0:0:70:cym1.wav
256,192,117695,1,0,0:0:0:0:
