osu file format v12

[General]
AudioFilename: center piercing.mp3
AudioLeadIn: 0
PreviewTime: 68669
Countdown: 0
SampleSet: Normal
StackLeniency: 0.7
Mode: 0
LetterboxInBreaks: 1

[Editor]
DistanceSpacing: 1
BeatDivisor: 4
GridSize: 4

[Metadata]
Title:center piercing (sakuzyo bootleg)
TitleUnicode:center piercing (sakuzyo bootleg)
Artist:paraoka feat. yusuke
ArtistUnicode:paraoka feat. yusuke
Creator:RLC
Version:Normal
Source:
Tags:hs714
BeatmapID:223909
BeatmapSetID:80468

[Difficulty]
HPDrainRate:3
CircleSize:4
OverallDifficulty:3
ApproachRate:4
SliderMultiplier:1.59999990463257
SliderTickRate:1

[Events]
//Background and Video events
0,0,"bg.jpg",0,0
//Break Periods
2,48202,56683
//Storyboard Layer 0 (Background)
//Storyboard Layer 1 (Fail)
//Storyboard Layer 2 (Pass)
//Storyboard Layer 3 (Foreground)
//Storyboard Sound Samples
//Background Colour Transformations
3,100,163,162,255

[TimingPoints]
10669.9225642761,666.666666666667,4,1,1,70,1,0
69336,-100,4,1,1,70,0,1
85336,-100,4,1,1,70,0,0

[Colours]
Combo1 : 192,192,192
Combo2 : 60,157,255

[HitObjects]
79,81,10669,2,2,P|107:122|199:138,1,119.999992847443,8|8,0:0|0:0,0:0:0:0:
210,136,11336,2,0,L|338:98,1,119.999992847443,8|10,0:0|0:0,0:0:0:0:
403,114,12169,2,0,P|454:164|450:231,1,119.999992847443,8|8,0:0|0:0,0:0:0:0:
378,194,13003,1,0,0:0:0:0:
354,270,13336,6,2,P|303:220|307:153,1,119.999992847443,8|8,0:0|0:0,0:0:0:0:
302,134,14003,2,0,L|176:139,1,119.999992847443,8|10,0:0|0:0,0:0:0:0:
109,171,14836,2,0,P|105:125|54:75,1,119.999992847443,8|8,0:0|0:0,0:0:0:0:
30,151,15669,1,0,0:0:0:0:
50,228,16003,6,0,P|105:254|166:230,1,119.999992847443,8|2,0:0|0:2,0:0:0:0:
193,216,16669,2,0,L|198:349,1,119.999992847443,8|4,0:0|0:2,0:0:0:0:
274,312,17503,2,0,L|269:187,1,119.999992847443,8|8,0:0|0:0,0:0:0:0:
422,145,18669,6,0,P|367:119|306:143,1,119.999992847443,2|2,0:2|0:2,0:0:0:0:
279,157,19336,2,0,L|273:27,1,119.999992847443,8|4,0:0|0:2,0:0:0:0:
198,61,20169,2,0,L|203:186,1,119.999992847443,8|8,0:0|0:0,0:0:0:0:
350,242,21336,6,2,P|397:240|472:306,1,119.999992847443,8|8,0:0|0:0,0:0:0:0:
469,315,22003,2,0,L|463:184,1,119.999992847443,8|10,0:0|0:0,0:0:0:0:
425,125,22836,2,0,P|371:151|295:135,1,119.999992847443,8|8,0:0|0:0,0:0:0:0:
257,86,23669,1,0,0:0:0:0:
178,102,24003,6,2,P|119:95|65:121,1,119.999992847443,8|8,0:0|0:0,0:0:0:0:
41,152,24669,2,0,L|50:275,1,119.999992847443,8|10,0:0|0:0,0:0:0:0:
407,307,26669,5,8,0:0:0:0:
285,202,27336,1,8,0:0:0:0:
324,357,28003,1,8,0:0:0:0:
383,208,28669,1,8,0:0:0:0:
249,296,29336,6,0,P|192:304|104:227,2,159.999990463257,8|8|8,0:0|0:0|0:0,0:0:0:0:
311,245,31003,1,2,0:2:0:0:
244,199,31336,2,0,L|248:88,1,79.9999952316285,8|2,0:0|0:2,0:0:0:0:
307,66,32003,5,8,0:0:0:0:
375,210,32669,1,8,0:0:0:0:
385,50,33336,1,8,0:0:0:0:
238,113,34003,1,8,0:0:0:0:
85,65,34669,6,0,P|113:134|93:215,1,159.999990463257,8|8,0:0|0:0,0:0:0:0:
131,284,35669,1,2,0:2:0:0:
198,240,36003,2,0,P|273:259|352:203,1,159.999990463257,8|8,0:0|0:0,0:0:0:0:
388,155,37003,1,2,0:2:0:0:
366,78,37336,5,8,0:0:0:0:
413,230,38003,1,8,0:0:0:0:
256,197,38669,1,8,0:0:0:0:
413,230,39336,1,8,0:0:0:0:
338,258,39669,1,2,0:2:0:0:
261,283,40003,6,0,P|187:295|106:244,2,159.999990463257,8|8|8,0:0|0:0|0:0,0:0:0:0:
292,209,41669,1,2,0:2:0:0:
343,270,42003,2,0,P|337:329|350:367,1,79.9999952316285,8|2,0:0|0:2,0:0:0:0:
413,313,42669,5,8,0:0:0:0:
439,155,43336,1,8,0:0:0:0:
292,209,44003,1,8,0:0:0:0:
449,238,44669,1,8,0:0:0:0:
393,179,45003,1,2,0:2:0:0:
383,99,45336,6,0,P|318:103|253:23,1,159.999990463257,8|8,0:0|0:0,0:0:0:0:
205,100,46336,1,2,0:2:0:0:
154,161,46669,2,0,P|91:96|48:93,1,119.999992847443,8|2,0:0|0:2,0:0:0:0:
27,105,47336,2,0,L|37:200,2,79.9999952316285,8|2|8,0:0|0:2|0:0,0:0:0:0:
149,109,58003,6,0,P|192:121|251:120,1,79.9999952316285
306,112,58669,2,0,L|467:78,1,159.999990463257,8|8,0:0|0:0,0:0:0:0:
461,164,59669,1,0,0:0:0:0:
412,231,60003,2,0,L|251:265,1,159.999990463257,8|8,0:0|0:0,0:0:0:0:
206,112,61336,6,0,L|45:78,1,159.999990463257,8|8,0:0|0:0,0:0:0:0:
51,164,62336,1,0,0:0:0:0:
100,231,62670,2,0,L|261:265,1,159.999990463257,8|8,0:0|0:0,0:0:0:0:
414,240,64003,6,0,L|401:345,1,79.9999952316285,8|8,0:0|0:0,0:0:0:0:
333,282,64669,2,0,L|320:387,1,79.9999952316285,8|8,0:0|0:0,0:0:0:0:
254,319,65336,2,0,L|263:239,1,79.9999952316285,8|8,0:0|0:0,0:0:0:0:
185,253,66002,2,0,L|194:173,1,79.9999952316285,8|8,0:0|0:0,0:0:0:0:
209,94,66669,6,0,L|186:55,7,39.9999976158142,8|8|8|8|8|8|8|10,0:0|0:0|0:0|0:0|0:0|0:0|0:0|0:0,0:0:0:0:
209,94,69336,6,2,P|287:72|346:102,1,119.999992847443,12|8,0:0|0:0,0:0:0:0:
355,105,70003,2,0,L|373:223,1,119.999992847443,8|10,0:0|0:0,0:0:0:0:
307,268,70836,2,0,L|289:150,1,119.999992847443,8|8,0:0|0:0,0:0:0:0:
216,186,71669,1,0,0:0:0:0:
147,148,72003,6,2,P|79:167|20:141,1,119.999992847443,8|8,0:0|0:0,0:0:0:0:
28,112,72669,2,0,L|48:249,1,119.999992847443,8|10,0:0|0:0,0:0:0:0:
123,247,73503,2,0,P|191:228|250:254,1,119.999992847443,8|0,0:0|0:0,0:0:0:0:
303,286,74336,1,0,0:0:0:0:
374,249,74669,6,0,L|405:129,1,119.999992847443,8|2,0:0|0:2,0:0:0:0:
435,107,75336,2,0,P|370:117|306:87,1,119.999992847443,8|4,0:0|0:2,0:0:0:0:
241,111,76169,2,0,P|191:92|126:102,1,119.999992847443,8|8,0:0|0:0,0:0:0:0:
116,262,77336,6,0,P|165:280|230:270,1,119.999992847443,2|2,0:2|0:2,0:0:0:0:
261,245,78003,2,0,P|246:305|300:372,1,119.999992847443,8|4,0:0|0:2,0:0:0:0:
327,291,78836,2,0,L|461:273,1,119.999992847443,8|8,0:0|0:0,0:0:0:0:
412,200,79669,1,0,0:0:0:0:
339,161,80003,6,2,P|344:106|405:50,1,119.999992847443,8|8,0:0|0:0,0:0:0:0:
366,23,80669,2,0,P|313:51|232:35,1,119.999992847443,8|10,0:0|0:0,0:0:0:0:
182,81,81503,2,0,L|198:212,1,119.999992847443,8|8,0:0|0:0,0:0:0:0:
132,247,82336,1,0,0:0:0:0:
60,211,82669,6,2,L|45:74,1,119.999992847443,8|8,0:0|0:0,0:0:0:0:
45,51,83336,2,0,B|106:77|109:39|174:56,1,119.999992847443,8|10,0:0|0:0,0:0:0:0:
239,75,84169,2,0,L|380:52,1,119.999992847443,8|8,0:0|0:0,0:0:0:0:
357,55,85336,6,2,P|350:115|398:190,1,119.999992847443,8|8,0:0|0:0,0:0:0:0:
409,187,86003,2,0,L|285:184,1,119.999992847443,8|10,0:0|0:0,0:0:0:0:
299,263,86836,2,0,P|242:255|212:189,1,119.999992847443,8|8,0:0|0:0,0:0:0:0:
187,128,87669,1,0,0:0:0:0:
137,190,88003,6,2,P|139:248|180:305,1,119.999992847443,8|8,0:0|0:0,0:0:0:0:
203,322,88669,2,0,P|268:343|333:331,1,119.999992847443,8|10,0:0|0:0,0:0:0:0:
396,317,89503,2,0,L|408:193,1,119.999992847443,8|8,0:0|0:0,0:0:0:0:
327,205,90336,1,0,0:0:0:0:
248,220,90669,6,0,L|264:91,1,119.999992847443,8|2,0:0|0:2,0:0:0:0:
237,69,91336,2,0,P|282:82|358:51,1,119.999992847443,8|4,0:0|0:2,0:0:0:0:
403,117,92169,2,0,P|371:157|367:234,1,119.999992847443,8|8,0:0|0:0,0:0:0:0:
305,278,93003,1,0,0:0:0:0:
236,236,93336,6,0,L|104:249,1,119.999992847443,2|2,0:2|0:2,0:0:0:0:
76,250,94003,2,0,P|65:186|79:122,1,119.999992847443,8|4,0:0|0:2,0:0:0:0:
145,95,94836,2,0,P|209:112|276:68,1,119.999992847443,8|8,0:0|0:0,0:0:0:0:
328,57,95669,1,0,0:0:0:0:
332,137,96003,6,2,L|338:260,1,119.999992847443,8|8,0:0|0:0,0:0:0:0:
313,288,96669,2,0,P|360:267|424:284,1,119.999992847443,8|10,0:0|0:0,0:0:0:0:
452,209,97503,2,0,L|443:76,1,119.999992847443,8|8,0:0|0:0,0:0:0:0:
367,113,98336,1,0,0:0:0:0:
291,137,98669,6,2,L|285:260,1,119.999992847443,8|8,0:0|0:0,0:0:0:0:
310,288,99335,2,0,P|262:267|198:284,1,119.999992847443,8|10,0:0|0:0,0:0:0:0:
171,209,100169,2,0,L|180:76,1,119.999992847443,8|8,0:0|0:0,0:0:0:0:
98,87,101003,1,0,0:0:0:0:
54,156,101336,6,0,P|67:207|49:306,1,119.999992847443,8|2,0:0|0:2,0:0:0:0:
38,306,102003,2,0,L|132:289,1,79.9999952316285,8|2,0:0|0:2,0:0:0:0:
155,283,102503,1,4,0:2:0:0:
222,325,102836,2,0,P|303:336|361:295,1,119.999992847443,8|8,0:0|0:0,0:0:0:0:
339,240,103669,1,0,0:0:0:0:
412,207,104003,6,0,L|421:85,1,119.999992847443,2|2,0:2|0:2,0:0:0:0:
439,51,104669,2,0,L|349:61,1,79.9999952316285,8|2,0:0|0:2,0:0:0:0:
319,64,105169,1,4,0:2:0:0:
257,115,105503,2,0,P|207:107|123:135,1,119.999992847443,8|8,0:0|0:0,0:0:0:0:
106,196,106336,1,0,0:0:0:0:
153,260,106669,6,2,P|203:268|287:240,1,119.999992847443,8|8,0:0|0:0,0:0:0:0:
306,235,107336,2,0,P|360:221|398:219,1,79.9999952316285,8|0,0:0|0:0,0:0:0:0:
423,222,107836,1,10,0:0:0:0:
467,155,108169,1,8,0:0:0:0:
487,273,108669,2,0,P|456:311|445:358,1,79.9999952316285,8|0,0:0|0:0,0:0:0:0:
382,291,109336,6,2,P|326:316|245:288,1,119.999992847443,8|8,0:0|0:0,0:0:0:0:
251,269,110003,2,0,P|250:305|241:347,1,79.9999952316285,8|0,0:0|0:0,0:0:0:0:
201,343,110503,1,10,0:0:0:0:
170,269,110836,1,8,0:0:0:0:
91,359,111336,2,0,L|83:277,1,79.9999952316285,8|0,0:0|0:0,0:0:0:0:
15,235,112003,6,0,P|80:232|128:178,1,119.999992847443,8|2,0:0|0:2,0:0:0:0:
158,190,112669,2,0,P|198:163|243:158,1,79.9999952316285,8|2,0:0|0:2,0:0:0:0:
268,164,113169,1,4,0:2:0:0:
228,240,113503,1,4,0:2:0:0:
342,194,114003,2,0,L|346:294,1,79.9999952316285,8|0,0:0|0:0,0:0:0:0:
424,279,114669,6,0,L|431:148,1,119.999992847443,2|2,0:2|0:2,0:0:0:0:
429,119,115336,2,0,P|384:119|338:106,1,79.9999952316285,8|2,0:0|0:2,0:0:0:0:
316,89,115836,1,4,0:2:0:0:
294,166,116169,2,0,L|319:206,1,39.9999976158142,4|8,0:2|0:0,0:0:0:0:
291,276,116669,2,0,L|337:352,1,79.9999952316285,8|8,0:0|0:0,0:0:0:0:
253,359,117336,5,8,0:0:0:0:
211,290,117669,1,8,0:0:0:0:
168,221,118003,2,0,P|126:212|82:228,1,79.9999952316285,8|8,0:0|0:0,0:0:0:0:
131,298,118669,5,8,0:0:0:0:
211,290,119002,1,8,0:0:0:0:
291,279,119336,2,0,P|312:242|314:196,1,79.9999952316285,8|8,0:0|0:0,0:0:0:0:
305,166,119836,1,8,0:0:0:0:
293,127,120003,6,0,L|275:87,7,39.9999976158142,8|8|8|8|8|8|8|8,0:0|0:0|0:0|0:0|0:0|0:0|0:0|0:0,0:0:0:0:
256,192,121336,12,8,122669,0:0:0:0:
256,192,123336,6,0,P|336:184|380:204,2,119.999992847443,8|8|0,0:0|0:0|0:0,0:0:0:0:
187,233,124669,2,0,P|114:254|27:202,1,159.999990463257,8|8,0:0|0:0,0:0:0:0:
184,148,126003,6,0,P|177:87|165:10,2,119.999992847443,8|8|0,0:0|0:0|0:0,0:0:0:0:
251,191,127336,2,0,P|259:263|280:353,1,159.999990463257,8|8,0:0|0:0,0:0:0:0:
176,224,128669,6,0,L|50:238,2,119.999992847443,8|8|0,0:0|0:0|0:0,0:0:0:0:
236,171,130003,2,0,B|296:167|296:167|346:174|346:174|415:168,1,159.999990463257,8|8,0:0|0:0,0:0:0:0:
253,244,131336,6,0,P|264:293|251:347,1,79.9999952316285,8|0,0:0|0:0,0:0:0:0:
252,361,131836,1,8,0:0:0:0:
329,342,132169,2,0,P|385:332|462:355,1,119.999992847443,0|8,0:0|0:0,0:0:0:0:
445,306,132836,2,0,P|441:276|452:227,1,79.9999952316285,8|8,0:0|0:0,0:0:0:0:
438,190,133336,1,8,0:0:0:0:
