osu file format v12

[General]
AudioFilename: center piercing.mp3
AudioLeadIn: 0
PreviewTime: 68669
Countdown: 0
SampleSet: Normal
StackLeniency: 0.7
Mode: 0
LetterboxInBreaks: 1

[Editor]
DistanceSpacing: 1
BeatDivisor: 4
GridSize: 4

[Metadata]
Title:center piercing (sakuzyo bootleg)
TitleUnicode:center piercing (sakuzyo bootleg)
Artist:paraoka feat. yusuke
ArtistUnicode:paraoka feat. yusuke
Creator:RLC
Version:Hard
Source:
Tags:hs714
BeatmapID:223908
BeatmapSetID:80468

[Difficulty]
HPDrainRate:5
CircleSize:4
OverallDifficulty:5
ApproachRate:7
SliderMultiplier:1.89999990463257
SliderTickRate:1

[Events]
//Background and Video events
0,0,"bg.jpg",0,0
//Break Periods
2,48203,49769
2,50869,52436
2,53536,55103
2,56203,57103
//Storyboard Layer 0 (Background)
//Storyboard Layer 1 (Fail)
//Storyboard Layer 2 (Pass)
//Storyboard Layer 3 (Foreground)
//Storyboard Sound Samples
//Background Colour Transformations
3,100,163,162,255

[TimingPoints]
10669.9225642761,666.666666666667,4,1,1,70,1,0
69336,-83.3333333333333,4,1,1,70,0,1
85336,-100,4,1,1,70,0,0
117336,-83.3333333333333,4,1,1,70,0,0
118669,-71.4285714285714,4,1,1,70,0,0
120003,-62.5,4,1,1,70,0,0
121003,-50,4,1,1,70,0,0
122669,-100,4,1,1,70,0,0

[Colours]
Combo1 : 192,192,192
Combo2 : 60,157,255

[HitObjects]
256,192,5336,12,10,10669,0:0:0:0:
182,115,11169,5,8,0:0:0:0:
182,115,11336,2,0,L|177:225,1,94.9999952316284,8|0,0:0|0:0,0:0:0:0:
177,210,11836,1,10,0:0:0:0:
410,43,12169,2,0,L|421:149,1,94.9999952316284,8|0,0:0|0:0,0:0:0:0:
419,137,12669,2,0,P|376:145|317:164,1,94.9999952316284,8|0,0:0|0:0,0:0:0:0:
223,110,13336,6,2,P|172:116|84:75,1,142.499992847443,8|8,0:0|0:0,0:0:0:0:
90,80,14003,2,0,L|102:184,1,94.9999952316284,8|0,0:0|0:0,0:0:0:0:
100,175,14503,1,10,0:0:0:0:
53,325,14836,2,0,P|96:302|156:300,1,94.9999952316284,8|0,0:0|0:0,0:0:0:0:
141,297,15336,2,0,L|254:313,1,94.9999952316284,8|0,0:0|0:0,0:0:0:0:
410,346,16003,6,0,P|429:307|411:208,1,142.499992847443,8|8,0:0|0:0,0:0:0:0:
413,212,16669,2,0,B|379:213|379:213|349:226|349:226|304:230,1,94.9999952316285,8|2,0:0|0:2,0:0:0:0:
321,228,17169,1,4,0:2:0:0:
466,132,17503,2,0,P|441:90|436:28,1,94.9999952316285,8|0,0:0|0:0,0:0:0:0:
434,44,18003,2,0,P|384:75|330:71,1,94.9999952316285,8|0,0:0|0:0,0:0:0:0:
260,49,18669,6,0,P|210:44|127:87,1,142.499992847443,2|8,0:2|0:0,0:0:0:0:
129,84,19336,2,0,L|138:180,1,94.9999952316285,8|2,0:0|0:2,0:0:0:0:
137,178,19836,1,4,0:2:0:0:
35,58,20169,2,0,L|33:99,13,23.7499988079071,8|0|0|0|0|0|8|0|0|0|0|0|0|0,0:0|0:0|0:0|0:0|0:0|0:0|0:0|0:0|0:0|0:0|0:0|0:0|0:0|0:0,0:0:0:0:
35,58,21336,6,2,L|184:54,1,142.499992847443,8|8,0:0|0:0,0:0:0:0:
177,54,22003,2,0,P|204:123|201:160,1,94.9999952316285,8|0,0:0|0:0,0:0:0:0:
203,143,22503,1,10,0:0:0:0:
379,207,22836,2,0,P|339:173|323:116,1,94.9999952316285,8|0,0:0|0:0,0:0:0:0:
324,134,23336,2,0,L|331:32,1,94.9999952316285,8|0,0:0|0:0,0:0:0:0:
467,83,24003,6,2,L|465:235,1,142.499992847443,8|8,0:0|0:0,0:0:0:0:
465,225,24669,2,0,P|424:271|410:319,1,94.9999952316285,8|0,0:0|0:0,0:0:0:0:
413,302,25169,5,10,0:0:0:0:
267,373,25503,1,0,0:0:0:0:
282,212,25836,1,0,0:0:0:0:
323,296,26003,1,0,0:0:0:0:
413,302,26169,1,0,0:0:0:0:
267,373,26503,1,0,0:0:0:0:
323,296,26669,5,8,0:0:0:0:
408,143,27003,1,2,0:2:0:0:
496,299,27336,1,8,0:0:0:0:
214,143,28003,1,8,0:0:0:0:
247,329,28669,1,8,0:0:0:0:
247,329,28836,2,0,L|236:228,1,94.9999952316285,2|2,0:2|0:2,0:0:0:0:
236,235,29336,6,0,P|149:214|121:117,2,189.999990463257,8|8|8,0:0|0:0|0:0,0:0:0:0:
330,244,31003,1,2,0:2:0:0:
401,306,31336,1,8,0:0:0:0:
419,212,31669,1,2,0:2:0:0:
350,145,32003,6,0,P|352:107|382:37,1,94.9999952316285,8|2,0:0|0:2,0:0:0:0:
296,204,32669,2,0,P|260:178|230:130,1,94.9999952316285,8|2,0:0|0:2,0:0:0:0:
232,136,33169,1,2,0:2:0:0:
232,136,33336,2,0,L|200:280,1,142.499992847443,8|2,0:0|0:2,0:0:0:0:
201,275,34003,2,0,P|161:263|91:274,1,94.9999952316285,8|2,0:0|0:2,0:0:0:0:
25,178,34669,6,0,P|70:174|155:111,1,142.499992847443,8|2,0:0|0:2,0:0:0:0:
148,120,35336,2,0,L|158:222,1,94.9999952316285,8|2,0:0|0:2,0:0:0:0:
284,170,36003,2,0,L|288:14,1,142.499992847443,8|2,0:0|0:2,0:0:0:0:
287,27,36669,2,0,P|355:21|398:43,1,94.9999952316285,8|2,0:0|0:2,0:0:0:0:
451,130,37336,5,8,0:0:0:0:
340,285,38003,1,8,0:0:0:0:
267,109,38669,1,8,0:0:0:0:
451,130,39336,1,8,0:0:0:0:
451,130,39503,2,0,P|406:154|379:200,1,94.9999952316285,2|2,0:2|0:2,0:0:0:0:
382,189,40003,6,0,L|398:296,1,94.9999952316285,8|2,0:0|0:2,0:0:0:0:
281,229,40669,1,8,0:0:0:0:
281,229,40836,2,0,L|279:327,1,94.9999952316285,2|2,0:2|0:2,0:0:0:0:
279,323,41336,1,8,0:0:0:0:
202,267,41669,1,2,0:2:0:0:
132,331,42003,1,8,0:0:0:0:
59,270,42336,1,2,0:2:0:0:
130,207,42669,6,0,P|125:135|126:60,1,142.499992847443,8|2,0:0|0:2,0:0:0:0:
125,64,43336,2,0,L|274:48,1,142.499992847443,8|2,0:0|0:2,0:0:0:0:
267,48,44003,1,8,0:0:0:0:
388,112,44336,2,0,L|414:61,2,47.4999976158143,2|2|8,0:2|0:2|0:0,0:0:0:0:
388,112,44836,2,0,L|395:224,1,94.9999952316285,2|2,0:2|0:2,0:0:0:0:
393,206,45336,1,8,0:0:0:0:
327,274,45669,5,2,0:2:0:0:
327,274,45836,1,2,0:2:0:0:
327,274,46003,1,8,0:0:0:0:
235,247,46336,5,2,0:2:0:0:
235,247,46503,1,2,0:2:0:0:
235,247,46669,1,8,0:0:0:0:
171,317,47003,5,2,0:2:0:0:
171,317,47169,1,8,0:0:0:0:
171,317,47336,1,8,0:0:0:0:
143,226,47669,1,8,0:0:0:0:
206,155,48003,1,8,0:0:0:0:
267,110,50669,5,8,0:0:0:0:
335,142,53336,5,8,0:0:0:0:
321,216,56003,5,8,0:0:0:0:
36,95,58003,6,0,L|21:155,1,47.4999976158143
109,119,58336,2,0,L|122:182,1,47.4999976158143
161,64,58669,6,0,L|220:59,3,47.4999976158143,8|0|0|0,0:0|0:0|0:0|0:0,0:0:0:0:
239,137,59336,2,0,L|191:140,3,47.4999976158143,8|0|0|0,0:0|0:0|0:0|0:0,0:0:0:0:
152,219,60003,2,0,L|211:214,3,47.4999976158143,8|0|0|0,0:0|0:0|0:0|0:0,0:0:0:0:
239,288,60670,2,0,L|191:291,3,47.4999976158143,8|0|0|0,0:0|0:0|0:0|0:0,0:0:0:0:
239,288,61336,6,0,P|317:265|383:285,1,142.499992847443,8|0,0:0|0:0,0:0:0:0:
472,274,62003,2,0,L|505:326,3,47.4999976158143,8|0|0|0,0:0|0:0|0:0|0:0,0:0:0:0:
434,196,62669,2,0,P|421:146|457:49,1,142.499992847443,8|0,0:0|0:0,0:0:0:0:
359,42,63336,2,0,L|300:22,3,47.4999976158143,8|0|0|0,0:0|0:0|0:0|0:0,0:0:0:0:
359,42,64003,6,0,P|288:82|261:92,1,94.9999952316285,8|8,0:0|0:0,0:0:0:0:
406,295,64669,2,0,P|366:224|356:197,1,94.9999952316285,8|8,0:0|0:0,0:0:0:0:
153,342,65336,2,0,P|224:302|251:292,1,94.9999952316285,8|8,0:0|0:0,0:0:0:0:
106,89,66002,2,0,P|146:160|156:187,1,94.9999952316285,8|8,0:0|0:0,0:0:0:0:
256,192,66669,12,0,67836,0:0:0:0:
72,199,68669,6,0,L|50:146,3,47.4999976158143
72,199,69336,6,2,P|116:239|223:226,1,170.999986198426,12|8,0:0|0:0,0:0:0:0:
287,183,70003,2,0,P|324:178|402:196,1,113.999990798951,8|0,0:0|0:0,0:0:0:0:
448,256,70503,1,10,0:0:0:0:
195,42,70836,2,0,L|203:164,1,113.999990798951,8|0,0:0|0:0,0:0:0:0:
280,172,71336,2,0,P|318:130|432:115,1,170.999986198426,8|0,0:0|0:0,0:0:0:0:
481,172,72003,6,2,L|482:348,1,170.999986198426,8|8,0:0|0:0,0:0:0:0:
403,325,72669,2,0,L|402:203,1,113.999990798951,8|0,0:0|0:0,0:0:0:0:
332,172,73169,1,10,0:0:0:0:
66,268,73503,2,0,P|133:275|195:241,1,113.999990798951,8|0,0:0|0:0,0:0:0:0:
226,196,74003,2,0,L|241:77,1,113.999990798951,8|0,0:0|0:0,0:0:0:0:
71,43,74669,6,0,B|77:96|77:96|73:139|73:139|85:220,1,170.999986198426,8|8,0:0|0:0,0:0:0:0:
50,285,75336,2,0,P|111:290|156:247,1,113.999990798951,8|2,0:0|0:2,0:0:0:0:
192,191,75836,1,4,0:2:0:0:
381,295,76169,2,0,P|338:270|263:276,1,113.999990798951,8|0,0:0|0:0,0:0:0:0:
202,304,76669,2,0,L|192:188,1,113.999990798951,8|0,0:0|0:0,0:0:0:0:
296,69,77336,6,0,P|339:117|446:106,1,170.999986198426,2|8,0:2|0:0,0:0:0:0:
457,189,78003,2,0,P|429:240|433:297,1,113.999990798951,8|2,0:0|0:2,0:0:0:0:
352,291,78503,1,4,0:2:0:0:
222,197,78836,2,0,L|181:211,13,28.4999976997376,8|0|0|0|0|0|8|0|0|0|0|0|0|0,0:0|0:0|0:0|0:0|0:0|0:0|0:0|0:0|0:0|0:0|0:0|0:0|0:0|0:0,0:0:0:0:
222,197,80003,6,2,P|238:268|188:362,1,170.999986198426,8|8,0:0|0:0,0:0:0:0:
134,304,80669,2,0,P|90:333|28:328,1,113.999990798951,8|0,0:0|0:0,0:0:0:0:
68,255,81169,1,10,0:0:0:0:
176,127,81503,2,0,P|256:118|294:84,1,113.999990798951,8|0,0:0|0:0,0:0:0:0:
354,131,82003,2,0,P|404:113|481:134,1,113.999990798951,8|0,0:0|0:0,0:0:0:0:
430,366,82669,6,2,L|415:187,1,170.999986198426,8|8,0:0|0:0,0:0:0:0:
339,220,83336,2,0,P|311:257|229:277,1,113.999990798951,8|0,0:0|0:0,0:0:0:0:
174,307,83836,2,0,P|220:312|278:373,2,113.999990798951,10|8|0,0:0|0:0|0:0,0:0:0:0:
102,343,84669,1,8,0:0:0:0:
102,343,85336,6,2,L|89:198,1,142.499992847443,8|8,0:0|0:0,0:0:0:0:
89,201,86003,2,0,P|153:211|198:199,1,94.9999952316285,8|0,0:0|0:0,0:0:0:0:
182,205,86503,1,10,0:0:0:0:
420,281,86836,2,0,P|355:259|314:262,1,94.9999952316285,8|0,0:0|0:0,0:0:0:0:
329,259,87336,2,0,L|315:364,1,94.9999952316285,8|0,0:0|0:0,0:0:0:0:
316,353,87836,1,0,0:0:0:0:
316,353,88003,1,10,0:0:0:0:
424,67,88503,5,8,0:0:0:0:
424,67,88669,2,0,L|317:60,1,94.9999952316285,8|0,0:0|0:0,0:0:0:0:
329,60,89169,1,10,0:0:0:0:
52,29,89503,2,0,L|167:34,1,94.9999952316285,8|0,0:0|0:0,0:0:0:0:
146,33,90003,2,0,P|163:79|152:143,1,94.9999952316285,8|0,0:0|0:0,0:0:0:0:
108,257,90669,1,8,0:0:0:0:
228,176,91003,5,0,0:0:0:0:
202,247,91169,1,8,0:0:0:0:
176,318,91336,1,8,0:0:0:0:
301,232,91669,5,2,0:2:0:0:
277,304,91836,1,4,0:2:0:0:
395,208,92169,5,8,0:0:0:0:
395,208,92669,2,0,P|440:166|445:79,1,142.499992847443,8|0,0:0|0:0,0:0:0:0:
448,88,93336,1,2,0:2:0:0:
277,33,93669,5,0,0:0:0:0:
312,100,93836,1,8,0:0:0:0:
288,172,94003,1,8,0:0:0:0:
321,240,94169,1,2,0:2:0:0:
206,130,94503,5,4,0:2:0:0:
26,154,94836,2,0,L|17:190,13,23.7499988079071,8|0|0|0|0|0|8|0|0|0|0|0|0|0,0:0|0:0|0:0|0:0|0:0|0:0|0:0|0:0|0:0|0:0|0:0|0:0|0:0|0:0,0:0:0:0:
26,154,96003,6,2,P|44:220|119:244,1,142.499992847443,8|8,0:0|0:0,0:0:0:0:
106,169,96669,2,0,P|126:137|132:78,1,94.9999952316285,8|0,0:0|0:0,0:0:0:0:
78,26,97169,1,10,0:0:0:0:
247,203,97503,2,0,P|193:211|159:231,1,94.9999952316285,8|0,0:0|0:0,0:0:0:0:
126,300,98003,1,8,0:0:0:0:
343,149,98336,5,0,0:0:0:0:
329,223,98503,1,0,0:0:0:0:
376,281,98669,2,2,P|364:326|273:368,1,142.499992847443,8|8,0:0|0:0,0:0:0:0:
215,335,99336,2,0,P|191:298|203:238,1,94.9999952316285,8|0,0:0|0:0,0:0:0:0:
283,275,99836,1,10,0:0:0:0:
50,187,100169,2,0,P|94:184|140:225,1,94.9999952316285,8|0,0:0|0:0,0:0:0:0:
199,176,100669,2,0,P|235:143|242:99,1,94.9999952316285,8|0,0:0|0:0,0:0:0:0:
90,96,101336,1,8,0:0:0:0:
226,28,101669,5,0,0:0:0:0:
198,98,101836,1,8,0:0:0:0:
170,169,102003,1,8,0:0:0:0:
305,101,102336,5,2,0:2:0:0:
279,172,102503,1,4,0:2:0:0:
413,102,102836,5,8,0:0:0:0:
413,102,103336,2,0,P|448:161|437:232,1,142.499992847443,8|0,0:0|0:0,0:0:0:0:
437,231,104003,1,2,0:2:0:0:
312,317,104336,5,0,0:0:0:0:
298,241,104503,1,8,0:0:0:0:
336,176,104669,1,8,0:0:0:0:
323,100,104836,1,2,0:2:0:0:
207,198,105169,5,4,0:2:0:0:
177,48,105503,2,0,L|144:63,13,23.7499988079071,8|0|0|0|0|0|8|0|0|0|0|0|0|0,0:0|0:0|0:0|0:0|0:0|0:0|0:0|0:0|0:0|0:0|0:0|0:0|0:0|0:0,0:0:0:0:
177,48,106669,6,2,P|106:91|78:164,1,142.499992847443,8|8,0:0|0:0,0:0:0:0:
152,169,107336,2,0,P|144:230|150:270,1,94.9999952316285,8|0,0:0|0:0,0:0:0:0:
219,289,107836,1,10,0:0:0:0:
221,120,108169,2,0,L|326:129,1,94.9999952316285,8|0,0:0|0:0,0:0:0:0:
393,148,108669,2,0,P|401:87|395:47,1,94.9999952316285,8|0,0:0|0:0,0:0:0:0:
360,236,109336,6,2,P|430:237|472:297,1,142.499992847443,8|8,0:0|0:0,0:0:0:0:
393,315,110003,2,0,P|343:321|300:298,1,94.9999952316285,8|0,0:0|0:0,0:0:0:0:
278,221,110503,1,10,0:0:0:0:
112,193,110836,2,0,P|162:187|205:210,1,94.9999952316285,8|0,0:0|0:0,0:0:0:0:
200,206,111336,1,8,0:0:0:0:
62,269,111669,1,0,0:0:0:0:
79,117,112003,5,8,0:0:0:0:
300,61,112503,1,8,0:0:0:0:
227,81,112669,2,0,L|221:126,6,23.7499988079071,8|0|0|0|2|0|4,0:0|0:0|0:0|0:0|0:2|0:0|0:2,0:0:0:0:
317,203,113503,2,0,L|323:248,6,23.7499988079071,8|0|0|0|0|0|8,0:0|0:0|0:0|0:0|0:0|0:0|0:0,0:0:0:0:
188,284,114336,5,0,0:0:0:0:
264,285,114503,1,0,0:0:0:0:
327,326,114669,2,0,P|401:320|459:364,1,142.499992847443,2|2,0:2|0:2,0:0:0:0:
454,357,115336,1,8,0:0:0:0:
188,284,115836,1,4,0:2:0:0:
366,164,116169,1,8,0:0:0:0:
366,164,116336,2,0,L|352:134,11,23.7499988079071,8|0|0|0|8|0|0|0|8|0|0|0,0:0|0:0|0:0|0:0|0:0|0:0|0:0|0:0|0:0|0:0|0:0|0:0,0:0:0:0:
366,164,117336,6,0,P|319:197|257:201,1,113.999990798951,8|8,0:0|0:0,0:0:0:0:
284,101,118003,1,8,0:0:0:0:
284,101,118336,1,8,0:0:0:0:
366,261,118669,6,0,P|312:273|236:239,1,132.999989265442,8|8,0:0|0:0,0:0:0:0:
301,63,119336,1,8,0:0:0:0:
301,63,119669,2,0,L|310:139,1,66.4999946327212,8|8,0:0|0:0,0:0:0:0:
361,216,120003,6,0,L|269:238,1,75.9999961853028,8|8,0:0|0:0,0:0:0:0:
235,289,120336,1,8,0:0:0:0:
235,289,120503,2,0,L|150:311,2,75.9999961853028,8|8|8,0:0|0:0|0:0,0:0:0:0:
206,208,121003,2,0,P|199:161|213:106,1,94.9999952316285,8|8,0:0|0:0,0:0:0:0:
256,192,121669,12,8,122669,0:0:0:0:
64,122,123336,6,0,P|101:91|153:85,1,94.9999952316285,8|0,0:0|0:0,0:0:0:0:
146,84,123836,1,8,0:0:0:0:
146,84,124169,2,0,L|157:197,1,94.9999952316285,0|0,0:0|0:0,0:0:0:0:
155,178,124669,1,8,0:0:0:0:
236,228,125003,2,0,L|249:122,1,94.9999952316285,0|8,0:0|0:0,0:0:0:0:
280,320,126003,6,0,P|330:287|380:283,1,94.9999952316285,8|0,0:0|0:0,0:0:0:0:
363,281,126503,1,8,0:0:0:0:
363,281,126836,2,0,L|467:298,1,94.9999952316285,0|0,0:0|0:0,0:0:0:0:
457,296,127336,1,8,0:0:0:0:
419,199,127669,1,0,0:0:0:0:
455,109,128003,6,0,P|378:116|329:63,1,142.499992847443,8|0,0:0|0:0,0:0:0:0:
336,78,128669,2,0,P|293:106|236:103,1,94.9999952316285,8|0,0:0|0:0,0:0:0:0:
250,107,129169,1,8,0:0:0:0:
254,111,129503,2,0,L|251:207,1,94.9999952316285
251,206,130003,1,8,0:0:0:0:
160,241,130336,1,0,0:0:0:0:
108,161,130669,6,0,P|65:214|73:290,1,142.499992847443,8|0,0:0|0:0,0:0:0:0:
70,284,131336,2,0,L|101:378,1,94.9999952316285,8|0,0:0|0:0,0:0:0:0:
99,374,131836,1,8,0:0:0:0:
270,289,132169,2,0,L|241:186,1,94.9999952316285
181,154,132669,1,8,0:0:0:0:
181,154,132836,2,0,P|249:145|282:114,1,94.9999952316285,8|8,0:0|0:0,0:0:0:0:
268,130,133336,1,8,0:0:0:0:
