osu file format v12

[General]
AudioFilename: center piercing.mp3
AudioLeadIn: 0
PreviewTime: 68669
Countdown: 0
SampleSet: Normal
StackLeniency: 0.7
Mode: 0
LetterboxInBreaks: 1

[Editor]
DistanceSpacing: 1.1
BeatDivisor: 4
GridSize: 4

[Metadata]
Title:center piercing (sakuzyo bootleg)
TitleUnicode:center piercing (sakuzyo bootleg)
Artist:paraoka feat. yusuke
ArtistUnicode:paraoka feat. yusuke
Creator:RLC
Version:Easy
Source:
Tags:hs714
BeatmapID:229761
BeatmapSetID:80468

[Difficulty]
HPDrainRate:2
CircleSize:3
OverallDifficulty:2
ApproachRate:2
SliderMultiplier:0.799999904632569
SliderTickRate:1

[Events]
//Background and Video events
0,0,"bg.jpg",0,0
//Break Periods
2,48202,57109
//Storyboard Layer 0 (Background)
//Storyboard Layer 1 (Fail)
//Storyboard Layer 2 (Pass)
//Storyboard Layer 3 (Foreground)
//Storyboard Sound Samples
//Background Colour Transformations
3,100,163,162,255

[TimingPoints]
10669.9225642761,666.666666666667,4,1,1,70,1,0
69336,-100,4,1,1,70,0,1
85336,-100,4,1,1,70,0,0

[Colours]
Combo1 : 192,192,192
Combo2 : 60,157,255

[HitObjects]
42,224,10669,2,0,B|102:237|154:202|152:136|152:136|226:90,1,239.999971389771,8|10,0:0|0:0,0:0:0:0:
295,97,13336,2,0,B|358:136|358:136|356:202|408:237|468:224,1,239.999971389771,8|10,0:0|0:0,0:0:0:0:
445,139,16003,5,8,0:0:0:0:
405,60,16669,1,2,0:2:0:0:
250,145,18003,1,4,0:2:0:0:
165,167,18669,5,2,0:2:0:0:
226,230,19336,1,2,0:2:0:0:
314,75,20669,1,4,0:2:0:0:
354,153,21336,6,0,P|376:206|270:331,1,239.999971389771,8|10,0:0|0:0,0:0:0:0:
225,256,24003,2,0,B|182:260|182:260|141:286|141:286|85:290,1,139.9999833107,8|10,0:0|0:0,0:0:0:0:
115,92,26669,6,0,L|25:110,2,79.9999904632569,8|8|8,0:0|0:0|0:0,0:0:0:0:
196,126,28669,1,8,0:0:0:0:
277,93,29336,2,0,L|367:111,2,79.9999904632569,8|2|2,0:0|0:2|0:2,0:0:0:0:
196,126,31336,1,2,0:2:0:0:
158,205,32003,6,0,P|197:254|296:249,1,159.999980926514,8|8,0:0|0:0,0:0:0:0:
357,199,34003,1,8,0:0:0:0:
371,285,34669,2,0,P|462:284|501:333,2,159.999980926514,8|2|8,0:0|0:2|0:0,0:0:0:0:
292,325,38003,5,8,0:0:0:0:
216,279,38669,1,8,0:0:0:0:
217,190,39336,1,8,0:0:0:0:
148,134,40003,2,0,P|145:83|150:39,2,79.9999904632569,8|2|2,0:0|0:2|0:2,0:0:0:0:
138,221,42003,1,2,0:2:0:0:
217,184,42669,6,0,P|303:183|349:247,1,159.999980926514,8|8,0:0|0:0,0:0:0:0:
262,264,44669,1,8,0:0:0:0:
304,344,45336,2,0,P|218:345|172:281,2,159.999980926514,8|2|8,0:0|0:2|0:0,0:0:0:0:
101,120,58669,6,0,P|135:107|237:168,1,159.999980926514,8|8,0:0|0:0,0:0:0:0:
153,196,60669,1,8,0:0:0:0:
223,248,61336,2,0,L|361:347,1,159.999980926514,8|8,0:0|0:0,0:0:0:0:
418,282,63336,1,8,0:0:0:0:
357,217,64003,6,0,P|348:172|352:131,1,79.9999904632569,8|8,0:0|0:0,0:0:0:0:
428,97,65336,2,0,P|437:142|433:183,1,79.9999904632569,8|8,0:0|0:0,0:0:0:0:
430,263,66669,2,0,P|372:305|300:286,1,139.9999833107,8|8,0:0|0:0,0:0:0:0:
213,118,69336,5,12,0:0:0:0:
126,100,70003,1,2,0:2:0:0:
301,86,71336,1,4,0:2:0:0:
307,173,72003,5,2,0:2:0:0:
390,201,72669,1,2,0:2:0:0:
221,250,74003,1,4,0:2:0:0:
278,316,74669,6,0,P|330:339|459:233,1,239.999971389771,8|2,0:0|0:0,0:0:0:0:
459,150,77336,2,0,P|330:50|278:73,1,239.999971389771,8|2,0:0|0:0,0:0:0:0:
231,148,80003,5,8,0:0:0:0:
278,222,80669,1,2,0:2:0:0:
134,120,82003,1,4,0:2:0:0:
91,197,82669,5,2,0:2:0:0:
46,121,83336,1,2,0:2:0:0:
203,200,84669,1,8,0:0:0:0:
180,285,85336,5,8,0:0:0:0:
119,221,86003,2,0,P|100:153|133:64,1,159.999980926514,8|10,0:0|0:0,0:0:0:0:
200,120,88003,1,8,0:0:0:0:
273,71,88669,2,0,L|448:70,1,159.999980926514,8|10,0:0|0:0,0:0:0:0:
481,143,90669,5,8,0:0:0:0:
440,221,91336,2,0,L|369:216,1,59.9999928474427,2|4,0:2|0:2,0:0:0:0:
276,254,92669,1,8,0:0:0:0:
195,289,93336,1,2,0:2:0:0:
204,201,94003,2,0,L|209:128,1,59.9999928474427,2|4,0:2|0:2,0:0:0:0:
102,109,95336,1,8,0:0:0:0:
81,194,96003,5,8,0:0:0:0:
165,171,96669,2,0,P|232:159|312:208,1,159.999980926514,8|10,0:0|0:0,0:0:0:0:
369,266,98669,1,8,0:0:0:0:
443,219,99336,2,0,L|433:56,1,159.999980926514,8|10,0:0|0:0,0:0:0:0:
347,39,101336,5,8,0:0:0:0:
276,92,102003,2,0,L|209:85,1,59.9999928474427,2|4,0:2|0:2,0:0:0:0:
125,147,103336,1,8,0:0:0:0:
78,221,104003,1,2,0:2:0:0:
149,274,104670,2,0,L|216:267,1,59.9999928474427,2|4,0:2|0:2,0:0:0:0:
316,291,106003,1,8,0:0:0:0:
401,310,106669,6,0,B|406:264|383:236|383:236|435:229|482:181|463:107,1,239.999971389771,8|10,0:0|0:0,0:0:0:0:
381,142,109336,1,8,0:0:0:0:
404,56,110003,2,0,P|337:62|294:146,1,159.999980926514,8|2,0:0|0:0,0:0:0:0:
338,209,112003,6,0,P|282:242|164:131,1,239.999971389771,8|4,0:0|0:2,0:0:0:0:
104,80,114669,1,2,0:2:0:0:
78,164,115336,2,0,P|104:246|160:302,1,159.999980926514,2|4,0:2|0:2,0:0:0:0:
237,325,117336,5,8,0:0:0:0:
314,281,118003,1,8,0:0:0:0:
244,226,118669,1,8,0:0:0:0:
325,192,119336,1,8,0:0:0:0:
256,136,120003,2,0,P|320:103|390:130,1,139.9999833107,8|8,0:0|0:0,0:0:0:0:
427,314,122669,5,8,0:0:0:0:
351,269,123336,2,0,L|286:276,1,59.9999928474427,8|8,0:0|0:0,0:0:0:0:
188,314,124669,1,8,0:0:0:0:
135,243,125336,5,8,0:0:0:0:
211,198,126003,2,0,L|276:205,1,59.9999928474427,8|8,0:0|0:0,0:0:0:0:
374,243,127336,1,8,0:0:0:0:
425,171,128003,5,8,0:0:0:0:
356,115,128669,2,0,L|343:44,1,59.9999928474427,8|8,0:0|0:0,0:0:0:0:
237,77,130003,1,8,0:0:0:0:
164,28,130669,5,8,0:0:0:0:
95,84,131335,2,0,L|82:155,1,59.9999928474427,8|8,0:0|0:0,0:0:0:0:
162,221,132669,1,8,0:0:0:0:
243,187,133336,1,8,0:0:0:0:
