osu file format v8

[General]
AudioFilename: monolithize phases.mp3
AudioLeadIn: 1996
PreviewTime: 77467
Countdown: 0
SampleSet: Soft
StackLeniency: 0.7
Mode: 0
LetterboxInBreaks: 0

[Editor]
Bookmarks: 18155,31439,77467,103768,126782,154316,167467,180617,193768,217193,254590
DistanceSpacing: 0.9
BeatDivisor: 6
GridSize: 8

[Metadata]
Title:monolithize phases
Artist:paraoka
Creator:happy30
Version:Monolithic
Source:
Tags:c78 story haru*nya

[Difficulty]
HPDrainRate:9
CircleSize:4
OverallDifficulty:8
ApproachRate:8
SliderMultiplier:2.88
SliderTickRate:1

[Events]
//Background and Video events
0,0,"BG.jpg"
//Break Periods
2,187476,205842
2,349286,362312
//Storyboard Layer 0 (Background)
//Storyboard Layer 1 (Fail)
//Storyboard Layer 2 (Pass)
//Storyboard Layer 3 (Foreground)
//Storyboard Sound Samples
//Background Colour Transformations
3,100,163,162,255

[TimingPoints]
490,821.917808219178,4,2,0,50,1,0
490,-149.253731343284,4,2,0,50,0,0
18161,-149.253731343284,4,1,0,81,0,0
18359,410.958904109589,4,1,1,100,1,0
77537,-100,4,1,1,100,0,1
90687,-100,4,1,0,100,0,0
92742,-200,4,1,0,100,0,0
93153,-100,4,1,0,100,0,0
93564,-200,4,1,0,100,0,0
93975,-100,4,1,0,100,0,0
94386,-200,4,1,0,100,0,0
94660,-100,4,1,0,100,0,0
103838,-100,4,1,0,100,0,1
113701,-100,4,1,1,100,0,0
122331,-200,4,1,0,100,0,0
126852,616.438356166495,4,1,0,100,1,0
126852,-100,4,1,1,100,0,1
153358,-100,4,1,0,100,0,0
153512,-100,4,1,0,70,0,0
153667,-100,4,1,0,40,0,0
153821,-100,4,1,0,20,0,0
153975,-100,4,1,0,0,0,0
154180,-100,4,1,0,100,0,0
154400,410.958904109589,4,1,0,100,1,0
154400,-149.253731343284,4,1,0,100,0,0
166626,-149.253731343284,4,1,0,20,0,0
167550,-100,4,1,0,100,0,1
167550,-100,4,1,0,100,0,0
167653,-149.253731343284,4,1,0,100,0,0
180650,-149.253731343284,4,2,0,0,0,0
205770,-149.253731343284,4,2,0,70,0,0
209879,-149.253731343284,4,2,0,45,0,0
228372,1232.91893557999,4,2,0,45,1,0
228988,410.958904109589,4,2,0,45,1,0
229811,-149.253731343284,4,2,0,45,0,0
238235,1232.91893557999,4,2,0,45,1,0
246455,1232.91893557999,4,2,0,45,1,0
246455,-200,4,2,0,45,0,0
249741,2465.19149607542,4,2,0,45,1,0
249741,-200,4,2,0,45,0,0
254671,410.958904109589,4,1,0,100,1,0
254807,-100,4,2,0,100,0,0
256314,-100,4,1,0,100,0,1
283129,-100,4,2,0,100,0,1
283335,-100,4,1,0,100,0,1
283438,-100,4,2,0,100,0,1
283540,-100,4,1,0,100,0,1
284773,-100,4,2,0,100,0,1
284876,-100,4,1,0,100,0,1
285081,-100,4,2,0,100,0,1
285184,-100,4,1,0,100,0,1
286417,-100,4,2,0,100,0,1
286520,-100,4,1,0,100,0,1
286725,-100,4,2,0,100,0,1
286828,-100,4,1,0,100,0,1
289191,-100,4,2,0,100,0,1
289294,-100,4,1,0,100,0,1
290013,-100,4,2,0,100,0,1
290629,-100,4,1,0,100,0,1
291657,-100,4,2,0,100,0,1
292171,-100,4,1,0,100,0,1
295766,-200,4,2,0,12,0,0
310972,821.917808219178,4,2,0,12,1,0
310972,-200,4,2,0,12,0,0
312204,-100,4,2,0,12,0,0
314670,-200,4,2,0,12,0,0
327204,-100,4,2,0,100,0,0
328437,410.958904109589,4,1,1,100,1,1
350010,530.035335689046,4,2,0,0,1,0
363062,-100,4,2,0,0,0,0
363260,-100,4,2,0,5,0,0
363525,-100,4,2,0,11,0,0
363790,-100,4,2,0,15,0,0
364055,-100,4,2,0,20,0,0
364320,-100,4,2,0,23,0,0
364585,-100,4,2,0,27,0,0
364850,-100,4,2,0,30,0,0
365116,-100,4,2,0,33,0,0
365381,-100,4,2,0,37,0,0
365646,-100,4,2,0,40,0,0
365911,-100,4,2,0,43,0,0
366176,-100,4,2,0,48,0,0
366441,-100,4,2,0,50,0,0
366706,-100,4,2,0,53,0,0
366971,-100,4,2,0,57,0,0
367236,-100,4,2,0,60,0,0
367501,-100,4,2,0,63,0,0
367766,-100,4,2,0,67,0,0
368031,-100,4,2,0,70,0,0
368296,-100,4,2,0,73,0,0
368561,-100,4,2,0,77,0,0
368826,-100,4,2,0,70,0,0
369091,-100,4,2,0,74,0,0
369356,-100,4,2,0,77,0,0
369621,-100,4,2,0,80,0,0
369886,-100,4,2,0,83,0,0
370151,-100,4,2,0,78,0,0
370416,-100,4,2,0,90,0,0
370681,-100,4,2,0,93,0,0
370946,-100,4,2,0,97,0,0
371211,-100,4,2,0,100,0,0
371410,-100,4,2,0,0,0,0

[Colours]
Combo1 : 75,101,90
Combo2 : 105,89,88
Combo3 : 150,152,54

[HitObjects]
208,264,284,1,0
208,264,490,2,2,B|256:240|304:264,1,96,2|2
168,344,1311,1,2
112,288,1517,1,0
120,208,1722,1,0
192,176,1928,6,0,B|280:160|280:56,1,144,2|0
240,256,2750,2,0,B|240:336|320:376,1,144
184,360,3572,1,2
360,280,3983,1,0
264,112,4394,5,2
192,144,4599,1,0
160,72,4805,1,0
232,40,5010,2,0,B|312:104|192:152|280:216,1,192,2|0
352,224,6037,5,0
408,168,6243,1,0
408,168,6448,1,0
328,336,6654,1,0
256,304,6859,6,0,B|184:256|224:160,1,144,2|0
200,104,7681,1,2
136,64,7887,1,0
72,104,8092,1,0
80,184,8298,5,2
168,224,8709,1,0
248,176,9120,2,0,B|296:160|344:168,1,96,2|2
432,208,9942,1,2
432,208,10558,5,2
344,336,10969,1,2
272,360,11174,1,0
224,296,11380,1,0
256,192,11585,12,4,18058
216,112,18225,5,0
216,112,18359,2,0,B|160:80|160:80|120:120|136:176|192:184,2,192,4|0|0
288,80,19043,1,0
288,80,19180,2,0,B|344:112|344:112|384:72|368:16|312:8,1,192
216,112,19591,2,0,B|216:216,1,96
280,248,19865,5,0
280,248,20002,2,0,B|336:216|336:216|376:256|360:312|304:320,2,192,4|0|0
216,208,20687,1,0
216,208,20824,2,0,B|160:240|160:240|120:200|136:144|192:136,1,192
280,248,21235,2,0,B|280:352,2,96
344,208,21646,6,0,B|400:240|400:240|440:200|424:144|368:136,1,192,4|0
168,208,22194,1,0
168,208,22331,1,0
168,208,22468,2,0,B|112:240|112:240|72:200|88:144|144:136,1,192
232,248,22879,2,0,B|232:352,2,96
296,208,23290,6,0,B|352:176|352:176|392:216|376:272|320:280,1,192,4|0
112,352,23838,1,0
56,296,23975,1,0
56,296,24043,1,0
56,296,24112,1,0
104,232,24249,6,0,B|152:256|152:256|160:344|256:328,1,192
408,152,24660,2,0,B|360:176|360:176|352:264|256:248,1,192,0|4
264,249,25208,1,0
280,176,25345,2,0,B|296:80,2,96
208,192,25756,2,0,B|166:104,2,96
160,256,26167,2,0,B|75:208,2,96
144,336,26578,6,0,B|47:345,2,96
144,336,27126,1,0
216,328,27263,1,0
280,368,27400,2,0,B|360:288|288:176,1,192
256,128,27811,2,0,B|256:24,2,96
184,96,28222,6,0,B|104:176|176:288,1,192
240,248,28632,2,0,B|328:192,2,96
248,328,29043,1,0
184,376,29180,1,0
112,344,29317,1,0
112,344,29386,1,0
112,344,29454,1,0
120,264,29591,2,0,B|120:152,1,96
72,112,29865,5,0
104,40,30002,1,0
176,72,30139,1,0
248,104,30276,2,0,B|344:144|440:104,1,192
256,192,30687,2,0,B|200:216|136:192,1,96
304,272,30961,2,0,B|360:296|424:272,1,96
448,224,31235,1,0
40,96,31509,6,0,B|0:200|56:288,1,192,4|0
51,280,31920,1,0
128,264,32057,2,0,B|128:160,1,96
200,192,32331,2,0,B|240:296|184:384,1,192
188,376,32742,1,0
120,344,32879,1,0
312,192,33153,6,0,B|232:104|320:16,2,192
384,224,33838,1,0
448,184,33975,1,0
448,184,34249,1,0
472,256,34386,2,0,B|496:352,2,96
448,184,34797,6,0,B|528:96|440:8,2,192
384,224,35482,1,0
320,176,35619,2,0,B|240:264|328:352,2,192,0|0|0
464,136,36441,5,0
496,288,36715,1,0
360,352,36989,1,0
296,304,37126,1,0
296,304,37194,1,0
296,304,37263,1,0
224,336,37400,6,0,B|144:280|208:216|208:216|208:136,1,192
288,48,37811,2,0,B|368:104|304:168|304:168|304:248,1,192,0|4
112,352,38359,5,0
56,296,38495,2,0,B|56:192,1,96
112,144,38769,1,0
112,144,38906,1,0
224,248,39180,1,0
288,208,39317,6,0,B|352:176|384:248|352:360|256:248,1,192
224,248,39728,2,0,B|160:216|128:288|160:400|256:288,1,192
289,279,40139,1,0
288,208,40276,1,0
232,152,40413,6,0,B|184:120|128:144,1,96
336,344,40824,1,0
336,344,40961,2,0,B|448:312|432:176,1,192
392,128,41372,5,0
392,128,41509,1,0
392,128,41646,1,0
256,192,41920,1,0
256,192,42057,1,0
256,192,42194,1,0
120,8,42468,5,0
16,216,42742,1,0
152,384,43016,5,4
200,328,43153,2,0,B|312:328,1,96
352,272,43427,1,0
296,216,43564,2,0,B|184:216,1,96
160,152,43838,5,4
200,88,43975,2,0,B|312:88,2,96
160,152,44386,2,0,B|48:152,1,96
64,152,44660,1,0
16,256,45071,5,0
56,296,45893,1,0
160,248,46715,1,0
368,344,47537,5,0
408,280,47674,1,0
376,208,47811,1,0
272,264,48359,5,0
144,120,49043,1,0
32,240,49317,1,0
160,384,49591,6,0,B|176:272,1,96,4|0
192,192,49865,1,0
304,40,50002,2,0,B|288:152,1,96,4|0
272,232,50276,1,0
272,232,50345,1,0
272,232,50413,1,0
320,320,50550,1,0
408,272,50687,1,0
360,184,50824,1,0
360,184,51098,5,0
360,184,51235,2,0,B|384:304|272:360,1,192,4|0
152,112,51646,2,0,B|128:232|240:288,1,192
288,312,52057,1,0
360,288,52194,1,0
400,224,52331,1,0
400,144,52468,1,0
352,80,52605,1,0
280,48,52742,1,0
208,64,52879,6,0,B|104:112|120:232,1,192
304,192,53290,2,0,B|408:240|392:360,1,192
464,256,53701,2,0,B|480:160,2,96
464,256,54112,1,0
152,184,54523,6,0,B|128:304|240:360,1,192
360,112,54934,2,0,B|384:232|272:288,1,192
224,312,55345,1,0
152,288,55482,1,0
112,224,55619,1,0
112,144,55756,1,0
160,80,55893,1,0
232,48,56030,1,0
304,64,56167,6,0,B|408:112|392:232,1,192,4|0
208,192,56578,2,0,B|104:240|120:360,1,192
48,256,56989,2,0,B|32:160,2,96
48,256,57400,1,0
120,120,57674,5,0
120,120,57811,2,0,B|104:24,2,96,4|0|0
144,256,58222,2,0,B|128:352,2,96
216,136,58632,2,0,B|200:40,2,96
240,272,59043,2,0,B|224:368,2,96
392,120,59454,6,0,B|408:24,2,96
368,256,59865,2,0,B|384:352,2,96
296,136,60275,2,0,B|312:40,2,96
272,272,60686,2,0,B|288:368,2,96
120,120,61098,6,0,B|24:192|72:296,1,192
144,264,61509,2,0,B|256:216|328:344,1,192
368,264,61920,2,0,B|424:176,2,96
440,296,62331,2,0,B|496:384,2,96
328,136,62742,6,0,B|272:48,2,96,4|0|0
232,304,63153,2,0,B|176:392,2,96
152,128,63564,2,0,B|96:40,2,96,4|0|0
176,200,63975,1,0
128,264,64112,1,0
128,264,64180,1,0
128,264,64249,1,0
56,240,64386,5,0
56,240,64660,1,0
56,320,64797,2,0,B|96:352|144:360,1,96
208,312,65071,1,0
208,312,65208,2,0,B|304:288|408:320,1,192
200,184,65756,5,0
200,184,65893,1,0
200,184,66030,2,0,B|152:208|152:208|88:120|192:72,1,192
312,272,66578,1,0
312,272,66715,1,0
312,272,66852,2,0,B|360:296|360:296|424:208|320:160,1,192
56,144,67674,5,0
56,144,67948,1,0
96,208,68085,2,0,B|136:240|184:248,1,96
176,328,68359,1,0
176,328,68496,2,0,B|272:304|376:336,1,192
312,152,69044,5,0
312,152,69181,1,0
312,152,69318,2,0,B|360:128|360:128|424:216|320:264,1,192
200,64,69866,1,0
200,64,70003,1,0
200,64,70140,2,0,B|152:40|152:40|88:128|192:176,1,192
208,296,70550,2,0,B|256:320|256:320|320:232|216:184,1,192
128,272,70961,6,0,B|80:248|80:248|16:336|120:384,1,192,4|0
168,344,71372,2,0,B|216:320|288:336,1,96,8|0
336,360,71646,1,0
384,288,71783,2,0,B|432:312|432:312|496:224|392:176,2,192,0|8|0
320,248,72468,6,0,B|272:224|200:240,1,96,0|8
72,352,72879,1,8
8,168,73153,1,8
160,48,73427,1,0
226,235,73701,1,8
40,272,73975,1,8
80,88,74249,6,0,B|96:200,1,96,12|8
160,144,74523,1,0
160,144,74660,2,0,B|176:256,1,96,12|8
240,192,74934,1,0
240,192,75071,2,0,B|256:304,1,96,12|8
320,240,75345,1,0
320,240,75482,2,0,B|336:352,2,96,12|8|8
384,192,75893,5,0
384,192,76304,1,0
176,32,76715,1,0
128,88,76852,1,0
192,136,76989,1,0
168,208,77126,2,0,B|208:328|88:384,1,192
40,200,77537,6,0,B|0:80|120:24,1,192,4|0
128,112,77948,1,8
128,112,78222,1,0
160,184,78359,2,0,B|216:216|264:200,1,96
328,224,78632,1,0
296,296,78769,2,0,B|240:328|192:312,1,96,8|0
136,344,79043,1,0
136,344,79180,1,0
424,296,79454,5,0
424,296,79591,2,0,B|504:216|432:104,1,192,8|0
400,56,80002,1,0
400,56,80139,1,0
336,96,80276,2,0,B|280:128|232:112,1,96,0|8
176,232,80687,2,0,B|232:264|280:248,1,96,0|4
267,251,81098,1,0
408,280,81235,6,0,B|352:368|224:344,1,192,8|0
168,328,81646,1,0
104,280,81783,1,0
96,200,81920,1,0
128,128,82057,2,0,B|160:32,2,96,8|0|0
96,200,82468,1,0
320,328,82742,5,0
320,328,82879,2,0,B|400:312|400:208|320:192,1,192,8|0
304,88,83290,1,0
232,112,83427,1,0
216,184,83564,1,0
264,248,83701,1,8
264,248,83975,1,0
325,193,84112,6,0,B|400:208|400:312|320:328,1,192,4|0
184,248,84523,2,0,B|109:262|109:366|189:382,1,192,8|0
264,248,84934,2,0,B|264:360,2,96
296,176,85345,2,0,B|296:64,2,96,8|0|0
184,136,85756,6,0,B|109:150|109:254|189:270,1,192
325,190,86167,2,0,B|399:204|399:308|319:324,1,192,8|0
245,190,86578,2,0,B|245:302,2,96
184,136,86989,2,0,B|184:24,2,96,8|0|0
144,200,87400,6,0,B|129:274|25:274|9:194,1,192,4|0
192,264,87811,2,0,B|206:338|310:338|326:258,1,192,8|0
304,184,88222,1,0
352,128,88359,1,0
352,128,88427,1,0
352,128,88495,1,0
424,144,88632,1,8
456,216,88769,1,0
432,288,88906,1,0
360,304,89043,5,8
304,360,89180,1,0
304,360,89249,1,0
304,360,89317,1,8
176,200,89454,2,0,B|192:304,1,96
190,294,89728,1,8
336,104,89865,2,0,B|320:208,1,96
321,198,90139,1,8
248,224,90276,1,0
192,168,90413,1,0
232,104,90550,1,8
192,40,90687,6,0,B|80:8|16:104,1,192,4|0
22,95,91098,1,0
96,256,91235,2,0,B|96:144,1,96
0,288,91509,2,0,B|56:400|176:320,1,192
224,288,91920,2,0,B|327:218|383:330,1,192
416,128,92331,6,0,B|416:240,2,96
344,104,92742,2,0,B|344:0,1,96
288,208,93153,2,0,B|288:320,2,96
216,184,93564,2,0,B|216:80,1,96
104,272,93975,6,0,B|104:384,2,96
32,248,94386,2,0,B|32:144,1,96
104,120,94797,2,0,B|104:16,2,96
152,184,95208,1,0
336,48,95619,5,0
336,48,95756,1,0
336,48,95893,1,0
336,48,96030,2,0,B|376:120|296:144|296:144|304:224,1,192
176,336,96441,1,0
176,336,96578,1,0
176,336,96715,1,0
176,336,96852,2,0,B|136:264|216:240|216:240|208:160,1,192
320,344,97263,6,0,B|432:376|496:280,1,192,4|0
490,289,97674,1,0
416,128,97811,2,0,B|416:240,1,96
512,96,98085,2,0,B|456:-16|336:64,1,192
288,96,98496,2,0,B|185:166|129:54,1,192
288,96,98906,6,0,B|320:152|280:216,1,96
216,296,99180,2,0,B|184:240|224:176,1,96
400,168,99591,1,0
400,168,99728,2,0,B|432:224|392:288,1,96
328,368,100002,2,0,B|296:312|336:248,1,96
184,64,100550,6,0,B|216:120|176:184,1,96
80,280,100824,2,0,B|48:224|88:160,1,96
288,136,101235,1,0
336,200,101372,2,0,B|368:256|328:320,2,96
288,136,101783,2,0,B|256:80|296:16,2,96
288,136,102194,5,0
224,232,102605,1,0
136,160,103016,1,0
64,248,103427,1,0
64,248,103564,1,0
64,248,103632,1,0
64,248,103701,1,0
96,320,103838,6,0,B|192:368|288:312,1,192,4|0
344,272,104249,2,0,B|464:272,2,96
200,40,104660,2,0,B|136:136|216:240,1,192
312,152,105071,2,0,B|376:248|296:352,1,192
168,296,105482,6,0,B|48:296,2,96
231,340,105893,2,0,B|319:391|415:343,1,192
344,200,106304,2,0,B|464:200,2,96
281,244,106715,2,0,B|192:295|96:247,1,192
48,192,107126,5,0
40,112,107263,1,0
96,56,107400,1,0
168,72,107537,2,0,B|168:176,1,96
280,240,107811,1,0
280,240,107948,2,0,B|280:128,1,96
128,192,108222,1,0
128,192,108359,2,0,B|128:304,1,96
160,360,108632,1,0
256,384,108769,6,0,B|344:408|408:352|368:256,1,192
379,290,109180,2,0,B|291:314|227:258|267:162,1,192
256,195,109591,2,0,B|344:219|408:163|368:67,1,192
379,100,110002,2,0,B|291:124|227:68|267:-28,1,192
176,72,110413,6,0,B|200:176|96:240,1,192
56,176,110824,2,0,B|8:88,2,96
192,320,111235,2,0,B|240:232,2,96
136,376,111646,2,0,B|39:316|63:212,1,192
104,152,112057,5,0
168,112,112194,1,0
240,136,112331,1,0
272,208,112468,2,0,B|280:336|408:328,1,192
456,288,112879,1,0
488,216,113016,1,0
464,144,113153,1,0
392,112,113290,2,0,B|360:64|376:16,1,96
336,176,113564,6,0,B|368:224|352:272,1,96,0|4
184,360,113975,1,8
104,184,114249,1,8
272,88,114523,1,0
264,240,114797,1,0
112,280,115071,1,0
168,48,115345,5,0
400,104,115619,1,0
344,336,115893,1,8
376,272,116030,1,8
328,208,116167,2,0,B|280:184|224:200,1,96,8|0
208,272,116441,2,0,B|160:296|104:280,1,96,8|0
64,224,116715,1,8
224,0,116989,5,4
448,160,117263,1,0
288,384,117537,1,0
64,224,117811,1,0
336,8,118085,1,0
368,80,118222,1,0
312,136,118359,2,0,B|264:248|368:320,1,192,8|8
432,304,118769,5,0
472,240,118906,1,0
40,144,119180,1,0
200,248,119454,2,0,B|248:136|144:64,1,192
96,32,119865,1,0
96,32,120002,1,8
256,192,120276,12,4,121920
256,104,122537,5,0
256,104,122742,1,0
256,104,122948,1,0
256,104,123153,1,0
296,168,123359,6,0,B|312:232|216:248|272:320,1,144,4|0
320,368,123975,1,0
408,360,124180,1,0
456,288,124386,1,0
416,208,124591,1,0
416,208,124797,1,0
344,256,125002,5,0
328,240,125105,1,0
312,224,125208,1,0
296,208,125311,1,0
280,192,125413,1,0
264,176,125516,1,0
248,160,125619,1,0
224,240,125824,1,0
240,224,125927,1,0
256,208,126030,1,0
272,192,126133,1,0
288,176,126235,1,0
304,160,126338,1,0
320,144,126441,1,0
352,64,126646,1,0
288,8,126852,6,0,B|208:0|160:80,1,144,4|0
166,69,127262,1,8
160,344,127673,1,0
232,288,127879,1,0
208,208,128084,1,8
24,168,128290,6,0,B|-24:264|64:352,1,192,4|0
208,208,128906,1,8
272,144,129112,2,0,B|320:240|232:328,1,192
320,360,129728,1,8
392,224,129934,2,0,B|344:128|432:40,2,192,4|0|0
408,312,130961,5,0
320,360,131167,1,0
320,360,131269,1,0
320,360,131372,2,0,B|216:384|224:288|136:312,1,192,0|0
88,376,131988,1,8
272,272,132194,5,0
312,192,132399,1,0
272,120,132605,1,0
184,112,132810,1,8
136,184,133016,1,8
144,272,133221,6,0,B|152:360|256:368,1,144,4|0
236,365,133632,1,8
400,240,133838,2,0,B|408:296|392:336,1,96
288,136,134249,2,0,B|280:192|296:232,1,96,0|8
295,230,134660,5,0
464,312,135071,1,0
512,128,135482,1,0
344,40,135893,1,0
280,96,136098,1,0
280,96,136201,1,0
280,96,136304,1,0
200,64,136509,6,0,B|152:144|208:216,1,144,4|0
208,224,136920,2,0,B|224:288|176:344,1,96,8|0
120,360,137331,1,0
40,320,137536,1,0
40,232,137742,1,8
112,184,137947,6,0,B|208:216|184:96|280:112,1,192,4|0
344,160,138564,1,8
296,232,138769,1,0
288,248,138872,1,0
280,264,138975,1,0
312,344,139180,1,0
400,360,139386,1,8
448,288,139591,1,8
344,160,139797,6,0,B|192:160,1,144,4|0
200,160,140208,1,8
64,240,140413,2,0,B|176:240,1,96
264,112,140824,1,0
232,32,141030,1,8
144,24,141235,6,0,B|40:32|16:160,1,192,4|0
96,192,141852,1,8
176,152,142057,1,0
192,168,142160,1,0
208,184,142262,1,0
264,248,142468,1,0
336,200,142673,1,8
416,224,142879,6,0,B|440:304|360:368,1,144,4|0
376,353,143290,2,0,B|320:336|272:360,1,96,0|8
192,304,143701,1,0
120,352,143906,1,0
88,272,144112,1,0
160,224,144317,6,0,B|224:152|104:120|192:32,1,192,4|0
248,104,144934,1,8
72,144,145139,1,0
56,160,145242,1,0
48,176,145345,1,0
48,192,145447,1,0
56,208,145550,1,0
64,224,145653,1,0
72,240,145756,2,0,B|96:288|48:336,1,96,8|0
136,368,146167,6,0,B|184:304|288:336,1,144,4|0
265,330,146578,1,8
352,312,146783,1,0
360,328,146886,1,0
368,344,146988,1,0
456,352,147194,1,0
496,272,147399,1,8
432,208,147605,6,0,B|360:160|320:264|232:176,1,192,4|0
80,320,148427,2,0,B|152:272|192:376|280:288,1,192,4|0
312,232,149043,1,8
320,208,149146,1,0
320,184,149249,1,0
288,104,149454,5,0
288,104,149660,1,0
232,168,149865,1,8
216,256,150071,1,0
200,272,150173,1,0
176,288,150276,1,0
152,288,150379,1,0
128,280,150482,1,0
112,264,150584,1,0
104,240,150687,1,8
128,160,150893,1,4
128,160,151304,5,0
128,160,151509,2,0,B|224:192,1,96
384,120,151920,2,0,B|288:152,1,96
232,88,152331,1,0
232,88,152536,2,0,B|296:120|320:184|256:256,1,192
251,262,153050,1,0
238,277,153153,1,0
256,192,153358,12,0,153975
238,277,154400,5,4
168,312,154605,1,0
80,192,155016,1,0
152,160,155222,2,0,B|200:120|192:64,1,96
160,8,155633,1,0
272,336,156044,5,0
344,360,156249,1,0
430,251,156660,1,0
358,219,156866,2,0,B|310:179|318:123,1,96
416,48,157276,2,0,B|440:104|408:152,1,96
280,264,157687,5,0
224,208,157893,1,0
160,168,158098,2,0,B|104:144|56:168,1,96
104,336,158509,2,0,B|152:312|160:256,1,96
64,24,158920,2,0,B|40:80|72:120,1,96
264,136,159331,6,0,B|264:72|208:40,1,96
120,192,159742,1,0
176,248,159948,1,0
248,224,160153,1,0
272,216,160256,1,0
296,224,160359,1,0
368,336,160564,2,0,B|320:360|272:344,1,96
274,344,160975,5,0
200,296,161181,1,0
200,296,161386,1,0
128,352,161592,1,0
128,352,161797,1,0
64,296,162002,1,0
64,296,162208,1,0
112,224,162413,1,0
112,224,162619,5,0
48,168,162824,2,0,B|48:64,2,96
112,224,163441,2,0,B|112:328,2,96
168,152,164057,1,0
168,152,164263,5,0
248,192,164468,1,0
248,192,164674,1,0
216,272,164879,1,0
216,272,165085,1,0
280,328,165290,1,0
280,328,165496,1,0
352,368,165701,2,0,B|456:328|432:192,1,192
434,212,166318,1,0
352,240,166523,1,0
192,96,166729,5,0
256,40,166934,1,0
328,96,167139,2,0,B|336:176|240:168|256:272,1,192,0|4
255,264,167756,5,0
312,328,167961,1,0
312,328,168167,1,0
400,312,168372,1,0
400,312,168578,1,0
432,232,168783,1,0
432,232,168989,1,0
368,168,169194,6,0,B|368:64,1,96
288,200,169605,2,0,B|288:96,1,96
208,240,170016,2,0,B|208:136,1,96
128,280,170427,2,0,B|128:176,1,96
128,184,170838,5,0
56,136,171044,1,0
56,136,171249,1,0
56,48,171455,1,0
56,48,171660,1,0
136,16,171866,1,0
136,16,172071,1,0
200,72,172276,1,0
200,72,172482,5,0
176,152,172687,2,0,B|160:208|192:248,1,96
256,296,173098,1,0
456,184,173304,1,0
464,96,173509,1,0
400,40,173715,2,0,B|344:24|304:72,1,96
288,144,174126,5,0
376,280,174331,2,0,B|376:376,1,96
296,240,174742,2,0,B|296:336,1,96
216,200,175153,2,0,B|216:296,1,96
136,168,175564,2,0,B|136:264,1,96
136,264,175975,5,0
72,320,176181,1,0
16,256,176386,1,0
80,192,176592,1,0
80,192,176797,1,0
168,192,177002,1,0
168,192,177208,1,0
256,192,177413,5,0
256,192,177619,1,0
344,192,177824,1,0
344,192,178030,1,0
440,192,178235,1,0
376,120,178441,1,0
440,64,178647,1,0
496,128,178852,1,0
440,192,179057,6,0,B|440:296,1,96
360,248,179468,2,0,B|360:352,1,96
280,192,179879,1,0
280,200,179956,1,0
280,208,180033,1,0
208,288,180290,1,0
208,280,180367,1,0
208,272,180444,1,0
256,192,180701,12,0,187276
96,296,206592,5,0
72,264,206694,1,2
80,224,206797,1,0
120,208,206900,1,0
152,232,207002,2,0,B|200:280|256:240,1,96,4|4
280,104,207413,1,2
264,136,207516,1,0
288,168,207619,1,0
360,320,207824,2,0,B|312:368|256:328,1,96,4|4
424,152,208338,5,0
448,120,208440,1,2
440,80,208543,1,0
400,64,208646,1,4
192,256,208852,2,0,B|152:224|168:160,1,96,0|2
176,136,209160,1,0
208,112,209263,1,0
328,232,209468,2,0,B|368:264|352:328,1,96,4|4
168,360,209982,5,0
144,328,210085,1,2
112,312,210187,1,0
72,320,210290,1,0
32,248,210496,1,0
88,192,210701,1,2
104,160,210804,1,0
88,128,210907,1,0
184,32,211112,2,0,B|160:80|184:128,1,96.4800034503938,2|2
296,104,211626,5,0
312,136,211729,1,2
304,176,211831,1,0
272,192,211934,2,0,B|240:232|256:296,1,96,4|2
344,360,212345,1,4
368,328,212448,1,0
368,288,212550,1,2
104,264,212756,2,0,B|80:320|104:360,1,96,4|2
216,216,213167,2,0,B|240:160|216:120,1,96,4|4
256,192,213578,12,2,216866
168,200,217071,5,0
280,280,217482,1,0
248,336,217687,2,0,B|200:360|152:336,1,96,2|0
32,192,218304,1,0
64,248,218509,2,0,B|112:272|160:248,1,96,2|0
304,144,219126,5,0
248,176,219331,2,0,B|208:136|224:80,1,96,2|0
352,216,219948,1,0
408,184,220153,2,0,B|448:224|432:280,1,96,2|0
320,376,220564,2,0,B|280:336|296:280,1,96
200,152,220975,6,0,B|240:192|224:248,1,96,2|0
208,304,221386,1,0
152,336,221592,1,0
88,320,221797,2,0,B|8:256|64:128,1,192,2|0
112,184,222413,1,0
168,152,222619,6,0,B|280:128|208:256|336:224,1,192,2|2
432,288,223235,1,0
400,344,223440,2,0,B|352:368|304:344,1,96,2|0
80,216,224057,5,0
112,272,224262,2,0,B|160:296|208:272,1,96,2|0
432,136,224879,1,0
400,192,225084,2,0,B|352:216|304:192,1,96,2|0
296,128,225496,5,2
416,272,225907,1,2
256,384,226318,1,2
136,240,226729,2,0,B|184:264|232:240,1,96,2|0
304,184,227139,5,0
352,232,227345,1,0
352,296,227550,2,0,B|344:352|288:368,1,96,2|0
232,344,227961,1,2
176,312,228167,1,2
128,352,228372,6,0,B|48:320|80:200,1,144,2|0
88,168,229194,1,2
88,168,229605,1,0
168,272,230016,6,0,B|208:304|264:288,1,96,2|0
384,128,230427,1,0
392,192,230631,1,0
352,240,230838,2,0,B|312:272|256:256,1,96,2|0
128,104,231249,1,0
120,168,231453,1,0
160,216,231660,2,0,B|200:248|256:232,1,96,2|0
384,128,232071,6,0,B|344:96|288:112,1,96,2|0
232,136,232482,1,2
200,192,232687,1,0
240,336,232893,1,2
304,352,233098,1,0
352,312,233304,2,0,B|384:264|368:208,1,96,2|0
280,96,233715,6,0,B|248:144|264:200,1,96
416,232,234124,2,0,B|448:184|432:128,1,96,2|0
416,80,234535,1,0
320,168,234946,6,0,B|232:128|248:280|136:208,1,192,2|0
112,168,235564,1,0
72,120,235768,2,0,B|-8:224|80:304,1,192,2|2
128,344,236590,5,4
176,288,237002,1,0
128,232,237413,1,2
72,288,237824,1,0
216,360,238235,2,0,B|312:384|320:312|424:344,1,192,0|2
448,280,239468,1,0
400,224,239879,1,0
344,280,240290,5,0
288,224,240701,1,2
288,144,241112,1,0
344,88,241523,2,0,B|432:128|344:200|432:248,1,192,0|2
392,312,242756,1,0
392,312,243167,1,0
328,264,243989,5,0
384,208,244811,1,2
440,264,245633,1,0
304,344,246455,2,0,B|256:360|256:312|192:344,1,96,0|2
128,304,248098,1,0
96,224,248920,1,2
152,160,249741,6,0,B|240:248|320:96|424:176,1,288,4|4
376,8,254876,5,0
232,104,255081,1,2
248,280,255287,1,2
408,344,255492,2,0,B|464:288|432:184,1,144,4|2
73,209,255903,2,0,B|48:288|104:344,1,144,2|2
232,376,256314,5,4
344,312,256520,1,0
344,312,256623,1,0
344,312,256725,1,0
224,128,256931,2,0,B|176:160|176:216|224:248,1,144
360,232,257342,1,0
360,232,257444,1,0
296,48,257650,5,0
296,48,257753,2,0,B|344:80|344:136|296:168,1,144
104,152,258164,1,0
104,152,258266,1,0
104,152,258369,2,0,B|56:184|56:240|104:272,1,144
128,256,258677,2,0,B|176:288|176:344|128:376,1,144
129,374,258986,1,0
224,232,259191,1,0
240,216,259294,1,0
264,208,259397,1,0
384,344,259602,6,0,B|336:312|336:256|384:224,1,144
376,208,259910,1,0
368,192,260013,2,0,B|416:160|416:104|368:72,1,144
369,73,260321,1,0
232,120,260527,1,0
232,120,260629,1,0
104,48,260835,2,0,B|56:120|104:192,1,144
112,208,261143,1,0
128,232,261246,6,0,B|176:296|128:360|32:336,1,144
88,339,261554,1,0
88,339,261657,1,0
232,344,261862,1,0
232,344,262068,2,0,B|384:344,1,144,4|0
56,232,262479,2,0,B|208:232,1,144,4|0
344,264,262890,5,4
448,160,263095,1,0
448,160,263198,1,0
448,160,263301,2,0,B|496:96|448:24,1,144
320,80,263712,1,0
216,184,263917,1,0
216,184,264020,1,0
216,184,264123,2,0,B|168:120|216:48,1,144
304,168,264534,5,0
408,272,264739,1,0
408,272,264842,1,0
408,272,264945,2,0,B|456:208|408:136,1,144
104,192,265355,2,0,B|56:256|104:328,1,144
102,325,265664,1,0
102,325,265766,1,0
224,240,265972,2,0,B|272:176|224:104,1,144
352,32,266383,5,0
352,32,266486,1,0
352,32,266588,1,0
432,152,266794,1,0
432,152,266897,2,0,B|320:176|432:288|296:312,1,216
296,312,267307,1,0
282,316,267410,1,0
192,168,267616,2,0,B|208:248|152:304,1,144
16,272,268027,5,0
16,272,268129,1,0
16,272,268232,1,0
32,128,268438,1,0
136,32,268643,2,0,B|200:80|280:48,1,144,0|0
296,40,268951,2,0,B|368:10|432:58,2,144
216,136,269465,6,0,B|176:224|232:304,1,144,4|0
344,344,269876,2,0,B|504:344,1,144
488,344,270287,1,0
384,248,270492,1,0
360,104,270698,5,0
384,88,270801,1,0
416,88,270903,1,0
440,104,271006,1,0
456,128,271109,2,0,B|480:176|432:224|480:280,1,144
344,344,271520,1,0
320,328,271623,1,0
288,328,271725,1,0
208,208,271931,2,0,B|136:224|200:280|96:344,1,144
32,208,272342,1,0
480,208,272753,6,0,B|416:272|352:200,1,144
355,203,273061,1,0
168,96,273369,2,0,B|184:16|312:16|328:96,1,216
327,94,273780,1,0
216,184,273986,5,0
200,208,274088,1,0
200,240,274191,1,0
216,264,274294,1,0
216,296,274397,2,0,B|176:376|80:336,1,144
94,341,274705,1,0
16,216,274910,1,0
16,216,275013,1,0
88,88,275218,6,0,B|136:32,1,72
144,104,275424,2,0,B|216:80,1,72
176,144,275629,2,0,B|248:176,1,72
176,200,275835,2,0,B|200:272,1,72
136,240,276040,6,0,B|88:312|144:376,1,144
416,312,276451,2,0,B|248:312,1,144
432,96,276862,2,0,B|464:184|384:240,1,144
400,226,277171,2,0,B|336:160|256:192,1,144
270,186,277479,2,0,B|256:144,3,36
270,186,277684,6,0,B|272:296,1,72
216,304,277890,2,0,B|232:224,1,72
184,176,278095,2,0,B|192:256,1,72
136,296,278301,2,0,B|152:216,1,72
104,168,278506,2,0,B|112:248,1,72
24,64,278814,2,0,B|32:144,1,72
31,135,279123,1,0
160,64,279328,2,0,B|200:24,3,36
184,104,279534,2,0,B|176:144,3,36
232,104,279739,6,0,B|304:144|400:80,1,144
440,224,280150,2,0,B|456:304,1,72
392,272,280355,2,0,B|368:360,1,72
208,264,280664,1,0
208,264,280766,2,0,B|256:200|208:112,1,144
200,104,281075,1,0
176,88,281177,1,0
144,80,281280,1,0
112,88,281383,1,0
88,104,281486,1,0
72,128,281588,1,0
64,152,281691,1,0
72,176,281794,6,0,B|144:192,1,72
208,232,281999,2,0,B|136:248,1,72
224,176,282205,2,0,B|296:192,1,72
376,232,282410,2,0,B|304:248,1,72
336,320,282616,5,4
336,320,282821,1,0
168,352,283027,1,0
168,352,283129,2,0,B|88:336|88:336|104:240,1,144,2|0
98,273,283438,1,4
208,144,283643,1,0
200,168,283746,1,0
192,192,283849,1,0
192,192,284260,5,0
192,192,284465,1,0
360,224,284671,1,0
360,224,284773,2,0,B|440:208|440:208|424:112,1,144,2|0
429,145,285082,1,4
320,16,285287,1,0
328,40,285390,1,0
336,64,285493,1,0
208,136,285698,5,0
216,112,285801,1,0
224,88,285904,1,0
88,40,286109,2,0,B|48:104|48:104|112:168,1,144
120,176,286417,2,0,B|168:224|168:224|128:288,1,144,2|0
112,312,286725,1,4
256,296,286931,1,0
272,320,287034,1,0
288,344,287136,1,0
288,344,287547,5,0
416,280,287753,1,0
400,136,287958,1,0
400,136,288061,2,0,B|368:184|368:184|272:184,1,144
264,160,288369,2,0,B|176:160,1,72
168,144,288575,1,0
64,240,288780,2,0,B|152:240,1,72
152,264,288986,2,0,B|248:264,1,72
240,288,289191,5,4
376,232,289397,1,0
344,368,289602,1,0
256,192,289910,1,0
256,192,290013,2,0,B|312:152|312:152|288:72,2,144,2|2|4
256,192,290835,5,0
312,328,291041,1,0
176,296,291246,1,0
176,296,291349,1,0
128,160,291554,1,0
128,160,291657,2,0,B|88:104|88:104|8:128,2,144,2|2|4
128,160,292273,5,0
112,184,292376,1,0
96,208,292479,1,0
72,352,292684,1,0
216,320,292890,1,0
216,320,292992,1,0
248,176,293198,1,0
248,176,293301,1,0
344,288,293506,1,0
392,152,293712,6,0,B|416:216|480:208|488:144,1,144
487,147,294020,1,0
487,147,294122,1,0
320,216,294328,1,0
312,232,294431,1,0
304,248,294534,1,0
296,264,294636,1,0
288,280,294739,1,0
280,296,294842,1,0
272,312,294944,6,0,B|200:336,1,72
128,272,295150,2,0,B|200:296,1,72
184,208,295355,2,0,B|208:136,1,72
104,152,295561,2,0,B|72:72,1,72
32,8,295766,5,6
176,320,297410,1,2
320,104,298643,5,0
384,200,299054,2,0,B|416:272|352:344,1,144,2|0
248,360,299876,1,0
160,288,300287,1,0
224,192,300698,2,0,B|224:40,1,144,2|0
224,48,301520,1,2
344,248,302342,5,2
104,320,302753,1,0
184,240,303164,1,0
280,304,303575,1,0
344,384,303986,1,2
440,320,304397,1,0
400,216,304807,2,0,B|400:64,1,144
288,88,305629,5,2
152,192,306246,1,0
152,192,306451,2,0,B|184:272|280:256,1,144
384,240,307273,1,2
488,304,307890,1,0
488,304,308095,2,0,B|456:384|360:368,1,144,2|0
280,304,308917,1,2
168,344,309328,5,0
40,176,309739,2,0,B|0:256|64:320,1,144
152,248,310561,1,2
152,248,310972,2,0,B|208:296|232:224|296:256,1,144
392,304,312204,6,0,B|432:224|368:160,1,144,2|0
216,248,313026,1,0
216,248,313437,2,0,B|176:328|240:392,2,144,0|2|0
312,304,314670,2,0,B|368:264|320:224|352:168,1,144,2|2
448,104,315903,5,0
496,208,316314,1,0
408,280,316725,1,0
328,200,317136,2,0,B|248:200,1,72,2|0
256,200,318369,5,0
168,128,318780,2,0,B|152:96|160:48,2,72,2|0|0
128,240,320013,1,0
224,304,320424,2,0,B|224:352|208:384,2,72,2|0|2
224,304,321862,5,0
272,328,322067,2,0,B|328:344|352:312,1,72,2|0
320,208,322889,1,2
376,224,323095,1,0
424,192,323300,1,0
408,136,323506,2,0,B|376:88|392:24,1,108
320,208,324328,6,0,B|352:256|336:320,1,108
192,280,325150,2,0,B|168:320|192:360,2,72,2|0|2
216,232,326177,1,0
208,176,326382,1,0
160,144,326588,1,2
160,144,327410,5,0
304,96,327615,1,4
352,240,327821,1,0
208,288,328026,1,2
160,144,328232,1,2
440,160,328437,6,0,B|504:272|400:352,1,216,4|0
402,350,328847,1,0
280,272,329053,1,0
264,128,329258,1,2
376,32,329464,1,0
440,160,329669,5,2
440,160,329875,2,0,B|392:232|312:200,1,144,6|0
72,304,330286,2,0,B|120:232|200:264,1,144,2|0
440,360,330697,2,0,B|392:288|312:320,1,144,6|0
72,112,331108,2,0,B|120:184|200:152,1,144,2|0
272,32,331519,5,4
272,32,331930,1,0
208,104,332135,2,2,B|152:184|264:232|160:312,1,216,2|0
170,303,332546,1,2
72,280,332752,1,0
40,184,332957,1,2
72,88,333163,1,4
72,88,333573,5,0
272,208,333779,2,2,B|200:248|136:184,1,144,2|0
140,188,334087,1,0
140,188,334190,1,2
312,296,334395,1,0
312,296,334498,1,0
312,296,334601,2,0,B|384:256|448:320,1,144,2|2
448,304,334909,1,0
456,288,335012,6,0,B|496:224|472:136,1,144,4|0
368,56,335423,2,0,B|328:120|352:208,1,144,2|2
216,360,335834,1,0
272,280,336039,1,0
240,184,336245,1,2
144,160,336450,1,6
48,336,336861,5,0
96,248,337067,1,2
192,272,337272,1,4
464,48,337683,1,0
416,136,337889,1,2
320,112,338094,6,0,B|320:184|320:184|368:240,1,144,6|0
464,216,338505,2,0,B|511:271|511:271|511:343,1,144,2|0
248,152,338916,2,0,B|248:224|248:224|296:280,1,144,0|6
416,136,339327,2,0,B|416:63|416:63|368:8,1,144,2|2
368,8,339943,5,0
360,208,340354,1,0
296,280,340560,1,2
216,224,340765,1,0
240,128,340971,1,0
240,128,341073,1,0
240,128,341176,1,2
440,272,341382,6,0,B|400:408|248:352,1,216,4|0
272,360,341793,2,0,B|232:288|288:208,1,144,0|2
192,48,342204,2,0,B|232:120|176:200,1,144,0|2
96,224,342615,1,0
24,152,342820,5,4
24,152,343231,2,0,B|96:96|176:168,1,144,2|0
264,248,343642,1,6
264,248,344053,2,0,B|324:304|396:248,1,144,2|0
168,56,344464,5,6
168,56,344669,2,0,B|128:128|176:200,1,144,4|0
344,328,345080,2,0,B|384:256|336:184,1,144,2|2
312,96,345491,1,0
400,48,345697,1,0
480,112,345902,1,2
440,208,346108,5,4
440,208,346519,1,0
352,152,346724,2,0,B|272:128|208:184,1,144,2|2
376,304,347341,1,0
288,344,347546,1,2
192,304,347752,5,0
184,296,347854,1,0
176,288,347957,1,0
168,280,348060,1,0
160,272,348163,1,0
256,240,348368,1,0
264,232,348471,1,0
272,224,348573,2,0,B|296:192|272:152,1,72,0|0
144,40,348779,2,0,B|120:72|144:112,1,72
56,304,348984,2,0,B|80:272|56:232,1,72
256,192,363062,12,0,371410
