osu file format v11

[General]
AudioFilename: boot.mp3
AudioLeadIn: 0
PreviewTime: 63227
Countdown: 0
SampleSet: Normal
StackLeniency: 0.7
Mode: 0
LetterboxInBreaks: 1

[Editor]
DistanceSpacing: 1.4
BeatDivisor: 2
GridSize: 4

[Metadata]
Title:boot
TitleUnicode:boot
Artist:paraoka
ArtistUnicode:paraoka
Creator:Laurier
Version:Normal
Source:
Tags:val0108
BeatmapID:155633
BeatmapSetID:50479

[Difficulty]
HPDrainRate:3
CircleSize:3
OverallDifficulty:3
ApproachRate:5
SliderMultiplier:0.6
SliderTickRate:1

[Events]
//Background and Video events
0,0,"BG.jpg"
//Break Periods
2,87833,100657
//Storyboard Layer 0 (Background)
//Storyboard Layer 1 (Fail)
//Storyboard Layer 2 (Pass)
//Storyboard Layer 3 (Foreground)
//Storyboard Sound Samples
//Background Colour Transformations
3,100,163,162,255

[TimingPoints]
13383,254.237288135593,4,2,2,70,1,0
14399,-100,4,2,1,70,0,0
31179,-100,4,1,1,70,0,0
62196,-100,4,2,1,70,0,0
63213,-100,4,1,1,70,0,1
79484,-100,4,1,1,70,0,0
135416,-100,4,2,1,70,0,0
136433,-100,4,1,1,70,0,1
168976,-100,4,1,1,70,0,0
176349,-100,4,1,1,40,0,0
177111,-100,4,1,1,70,0,0
185247,-100,4,2,1,50,0,0
198467,-125,4,2,1,40,0,0
199484,-125,4,2,1,30,0,0
200501,-125,4,2,1,20,0,0
201518,-125,4,2,1,5,0,0

[Colours]
Combo1 : 255,179,142
Combo2 : 255,128,128
Combo3 : 255,172,255
Combo4 : 188,255,121

[HitObjects]
104,96,13382,2,0,B|192:136|192:252,1,180,0|0,0:0|0:0,0:0:0
144,312,14399,5,4,0:0:0
276,208,14908,2,0,B|352:208,1,60,2|0,0:0|0:0,0:0:0
356,244,15289,2,0,B|436:152|392:40,1,210,2|2,0:0|0:0,0:0:0
320,88,16433,5,4,0:0:0
188,192,16942,2,0,B|132:144,1,60,2|0,0:0|0:0,0:0:0
120,116,17323,2,0,B|52:148|48:256|112:296,1,210,2|2,0:0|0:0,0:0:0
164,356,18467,6,0,B|232:340|248:272,1,120,4|2,0:0|0:0,0:0:0
256,196,19230,1,0,0:0:0
288,168,19357,2,0,B|408:168|448:300,1,210,2|2,0:0|0:0,0:0:0
384,348,20501,5,4,0:0:0
216,332,21010,2,0,B|152:364,2,60,2|0|2,0:0|0:0|0:0,0:0:0
256,168,22027,2,0,B|256:92|180:64,2,120,2|4|2,0:0|0:0|0:0,0:0:0
176,192,23298,5,0,0:0:0
180,232,23425,2,0,B|224:280|300:280|340:244|352:188,1,210,2|2,0:0|0:0,0:0:0
332,116,24569,5,4,0:0:0
164,100,25077,2,0,B|108:128,1,60,2|0,0:0|0:0,0:0:0
68,120,25459,2,0,B|40:180|40:180|72:268|164:256,1,210,2|2,0:0|0:0,0:0:0
200,192,26603,5,4,0:0:0
332,296,27111,2,0,B|336:220|400:192,2,120,2|0|2,0:0|0:0|0:0,0:0:0
256,192,28637,12,4,30671,0:0:0
104,196,31688,6,0,B|176:180|192:108,1,120,0|2,0:0|0:0,0:0:0
336,36,32705,2,0,B|392:72|388:140,2,120,0|2|0,0:0|0:0|0:0,0:0:0
256,184,34230,2,0,B|272:236|324:248,1,90,2|0,0:0|0:0,0:0:0
356,236,34738,6,0,B|352:308|280:336,1,120,4|2,0:0|0:0,0:0:0
128,292,35755,1,0,0:0:0
76,132,36264,1,2,0:0:0
236,88,36772,6,0,B|360:48,1,120,4|2,0:0|0:0,0:0:0
436,196,37789,2,0,B|368:300,1,120,0|2,0:0|0:0,0:0:0
288,280,38552,1,0,0:0:0
256,204,38806,6,0,B|136:196,1,120,4|2,0:0|0:0,0:0:0
68,44,39823,2,0,B|108:96|184:80,1,120,0|2,0:0|0:0,0:0:0
336,36,40840,5,0,0:0:0
412,188,41349,1,2,0:0:0
336,340,41857,2,0,B|372:280|336:220,1,120,0|2,0:0|0:0,0:0:0
260,252,42620,1,0,0:0:0
244,336,42874,6,0,B|180:316|172:248,1,120,4|2,0:0|0:0,0:0:0
140,84,43891,2,0,B|204:104|212:172,2,120,0|2|4,0:0|0:0|0:0,0:0:0
8,192,45416,1,2,0:0:0
104,332,45925,2,0,B|160:296|152:220,1,120,0|2,0:0|0:0,0:0:0
88,176,46688,1,0,0:0:0
32,116,46942,6,0,B|52:56|124:32,1,120,4|2,0:0|0:0,0:0:0
256,128,47959,1,0,0:0:0
396,36,48467,1,2,0:0:0
412,204,48976,6,0,B|344:220|336:296,1,120,0|2,0:0|0:0,0:0:0
180,344,49993,2,0,B|248:328|256:252,1,120,0|2,0:0|0:0,0:0:0
208,192,50755,1,0,0:0:0
256,124,51010,6,0,B|324:92,1,60
344,20,51518,2,0,B|404:52|392:124,1,120,2|0,0:0|0:0,0:0:0
336,276,52535,6,0,B|292:324,1,60,2|0,0:0|0:0,0:0:0
212,336,53044,2,0,B|152:368|76:324|48:264|80:196,1,240,2|4,0:0|0:0,0:0:0
256,28,54823,1,0,0:0:0
324,76,55077,6,0,B|300:136|196:184|100:96,1,240,4|0,0:0|0:0,0:0:0
56,52,56349,1,0,0:0:0
24,132,56603,2,0,B|24:212,1,60
68,264,57111,6,0,B|104:312|104:312|164:336|244:288,1,180,4|0,0:0|0:0,0:0:0
256,224,58128,2,0,B|304:236|320:288,2,90
180,192,59145,5,4,0:0:0
256,44,59654,1,2,0:0:0
404,124,60162,1,0,0:0:0
404,292,60671,2,0,B|320:292,1,60,2|0,0:0|0:0,0:0:0
272,248,61179,5,4,0:0:0
188,104,61688,1,2,0:0:0
20,104,62196,2,0,B|96:156|88:276,1,180,0|2,0:0|0:0,0:0:0
144,328,63213,6,0,B|208:316|224:248,1,120,4|0,0:0|0:0,0:0:0
164,192,63976,1,0,0:0:0
164,152,64103,2,0,B|284:148|352:60,1,210,2|2,0:0|0:0,0:0:0
432,56,65247,6,0,B|464:116|436:172,1,120,4|0,0:0|0:0,0:0:0
356,192,66010,1,0,0:0:0
324,220,66137,2,0,B|280:240|272:296,1,90,2|2,0:0|0:0,0:0:0
196,316,66772,2,0,B|156:260,1,60,2|2,0:0|0:0,0:0:0
76,256,67281,6,0,B|40:220|40:220|52:144|120:112,1,180,4|0,0:0|0:0,0:0:0
148,136,68171,2,0,B|264:156|344:68,1,210,2|2,0:0|0:0,0:0:0
416,40,69315,5,4,0:0:0
328,184,69823,2,0,B|288:240,1,60
260,260,70205,2,0,B|228:220|168:216,1,90,2|2,0:0|0:0,0:0:0
108,256,70840,2,0,B|108:324,2,60,2|2|4,0:0|0:0|0:0,0:0:0
108,88,71857,6,0,B|200:48,1,90,0|2,0:0|0:0,0:0:0
256,104,72493,1,2,0:0:0
332,68,72747,2,0,B|368:96|368:160,1,90,2|2,0:0|0:0,0:0:0
292,180,73383,6,0,B|320:272|428:284,2,180,4|0|2,0:0|0:0|0:0,0:0:0
256,104,75162,1,2,0:0:0
184,60,75416,6,0,B|144:124,1,60,4|0,0:0|0:0,0:0:0
68,108,75925,2,0,B|56:156|88:200,1,90,0|2,0:0|0:0,0:0:0
164,224,76560,1,2,0:0:0
240,184,76815,2,0,B|284:252|264:336,1,150,2|4,0:0|0:0,0:0:0
420,260,77959,5,2,0:0:0
352,108,78467,2,0,P|380:83|422:68,2,75
256,192,79484,6,0,B|200:224|124:200,1,120,4|2,0:0|0:0,0:0:0
280,296,80501,2,0,B|336:264|412:288,1,120,0|2,0:0|0:0,0:0:0
456,224,81264,1,0,0:0:0
380,192,81518,6,0,B|352:124|384:60,2,120,0|2|4,0:0|0:0|0:0,0:0:0
256,76,83044,1,2,0:0:0
136,192,83552,6,0,B|204:192,2,60,4|0|2,0:0|0:0|0:0,0:0:0
256,312,84569,2,0,B|296:248|352:232,1,120,0|2,0:0|0:0,0:0:0
428,252,85332,1,0,0:0:0
488,192,85586,2,0,B|364:112,1,120,4|2,0:0|0:0,0:0:0
256,20,86603,6,0,B|212:88|256:160|256:160|256:252,1,240,2|4,0:0|0:0,0:0:0
256,192,101857,12,4,103891,0:0:0
256,276,104908,5,0,0:0:0
164,136,105416,2,0,B|136:192,1,60,2|0,0:0|0:0,0:0:0
60,220,105925,2,0,B|20:152|64:44|156:36,1,240
256,168,107450,2,0,B|308:144|308:88,1,90,2|0,0:0|0:0,0:0:0
332,64,107959,6,0,B|392:76|420:152,1,120,4|2,0:0|0:0,0:0:0
448,308,108976,2,0,B|388:296|360:220,2,120,0|2|4,0:0|0:0|0:0,0:0:0
284,348,110501,1,2,0:0:0
172,224,111010,2,0,B|116:252|96:284,1,90
76,312,111518,6,0,B|32:304|32:304|0:276|24:220,2,120,2|4|2,0:0|0:0|0:0,0:0:0
240,284,113044,1,0,0:0:0
160,136,113552,2,0,B|196:72,1,60,2|0,0:0|0:0,0:0:0
256,32,114060,6,0,B|272:76|272:76|344:108|400:56,1,180
476,32,115077,1,0,0:0:0
420,192,115586,2,0,B|420:264,1,60,2|0,0:0|0:0,0:0:0
388,328,116094,6,0,B|328:296|340:220,1,120,4|2,0:0|0:0,0:0:0
476,132,117111,1,0,0:0:0
344,28,117620,1,2,0:0:0
212,132,118128,6,0,B|140:136|112:60,1,120,4|2,0:0|0:0,0:0:0
204,216,119145,2,0,B|240:272|204:336,1,120,0|2,0:0|0:0,0:0:0
140,276,119908,1,0,0:0:0
76,332,120162,6,0,B|40:272|76:220,1,120,4|2,0:0|0:0,0:0:0
212,120,121179,1,0,0:0:0
364,192,121688,1,2,0:0:0
304,132,121942,1,0,0:0:0
284,212,122196,5,4,0:0:0
236,52,122705,1,2,0:0:0
392,116,123213,2,0,B|456:116,2,60,0|0|2,0:0|0:0|0:0,0:0:0
236,52,124230,6,0,B|224:124|288:156,1,120,4|2,0:0|0:0,0:0:0
356,192,124993,1,0,0:0:0
284,232,125247,2,0,B|244:284|264:348,2,120,0|2|4,0:0|0:0|0:0,0:0:0
448,188,126772,5,2,0:0:0
320,80,127281,1,4,0:0:0
256,324,128044,1,0,0:0:0
340,324,128298,6,0,B|340:256|340:256|296:180|180:184,1,240,4|0,0:0|0:0,0:0:0
124,232,129569,1,0,0:0:0
48,192,129823,2,0,B|48:108,1,60
112,76,130332,6,0,B|300:56,1,180,4|0,0:0|0:0,0:0:0
372,44,131349,2,0,B|400:76|392:132|340:156,2,120,0|0|4,0:0|0:0|0:0,0:0:0
256,168,132874,5,2,0:0:0
420,192,133383,2,0,B|368:232|364:300,1,120,0|2,0:0|0:0,0:0:0
288,332,134145,1,0,0:0:0
224,276,134399,6,0,B|168:304|104:276,1,120,4|2,0:0|0:0,0:0:0
124,112,135416,2,0,B|148:68|124:16,2,90,8|0|2,0:0|0:0|0:0,0:0:0
48,148,136433,6,0,B|64:216|136:224,1,120,4|0,0:0|0:0,0:0:0
208,188,137196,1,0,0:0:0
244,208,137323,2,0,B|312:208|352:152|348:84|316:40,1,210,2|2,0:0|0:0,0:0:0
256,104,138467,6,0,B|220:44|148:40,1,120,4|0,0:0|0:0,0:0:0
80,72,139230,1,0,0:0:0
52,104,139357,2,0,B|28:160|48:196,1,90,2|2,0:0|0:0,0:0:0
124,216,139993,2,0,B|112:280,1,60,2|2,0:0|0:0,0:0:0
160,344,140501,6,0,B|232:280|332:296,1,180,4|0,0:0|0:0,0:0:0
356,324,141391,2,0,B|424:232|376:120,1,210,2|2,0:0|0:0,0:0:0
308,76,142535,6,0,B|272:136,1,60,4|0,0:0|0:0,0:0:0
196,112,143044,2,0,B|164:172|208:240,1,120,0|2,0:0|0:0,0:0:0
256,288,143806,1,2,0:0:0
180,320,144060,2,0,B|112:320,2,60,2|2|4,0:0|0:0|0:0,0:0:0
72,192,145077,6,0,B|88:144|68:104,1,90,0|2,0:0|0:0,0:0:0
112,32,145713,1,2,0:0:0
180,80,145967,2,0,B|268:80,1,90,2|2,0:0|0:0,0:0:0
336,28,146603,6,0,B|396:56|408:132|376:204|292:212,1,240,4|2,0:0|0:0,0:0:0
232,172,147874,1,2,0:0:0
152,192,148128,2,0,B|152:264,1,60,2|2,0:0|0:0,0:0:0
180,332,148637,6,0,B|284:276|388:304,1,210,4|2,0:0|0:0,0:0:0
400,220,149781,1,2,0:0:0
480,192,150035,2,0,B|484:140|436:112,1,90,2|2,0:0|0:0,0:0:0
404,40,150671,6,0,B|344:68|344:140,1,120,4|0,0:0|0:0,0:0:0
280,192,151433,1,0,0:0:0
260,156,151560,2,0,B|220:124|220:124|144:156|144:252,1,210,2|2,0:0|0:0,0:0:0
96,320,152705,6,0,B|36:288|32:212,1,120,4|0,0:0|0:0,0:0:0
76,152,153467,1,0,0:0:0
88,112,153594,2,0,B|104:72|88:36,1,60,2|2,0:0|0:0,0:0:0
176,56,154103,2,0,B|220:88|268:72,1,90,2|2,0:0|0:0,0:0:0
332,32,154738,5,4,0:0:0
380,192,155247,2,0,B|380:256,1,60
360,288,155628,2,0,B|232:300|188:176,1,210,2|2,0:0|0:0,0:0:0
124,140,156772,6,0,B|68:176|68:252,1,120,4|0,0:0|0:0,0:0:0
120,308,157535,1,0,0:0:0
156,332,157662,2,0,B|208:364|208:364|284:372|344:304,1,210,2|2,0:0|0:0,0:0:0
424,300,158806,6,0,B|488:276|492:200,1,120,4|0,0:0|0:0,0:0:0
420,164,159569,1,0,0:0:0
384,184,159696,2,0,B|272:184|220:72,1,210,2|2,0:0|0:0,0:0:0
140,48,160840,6,0,B|88:76|88:76|60:136|112:196,1,180,4|0,0:0|0:0,0:0:0
92,228,161730,2,0,B|131:273|131:273|212:280|259:200,1,210,2|2,0:0|0:0,0:0:0
336,188,162874,6,0,B|380:236,1,60,4|0,0:0|0:0,0:0:0
384,316,163382,2,0,B|456:304|460:232,1,120,0|2,0:0|0:0,0:0:0
420,160,164145,1,2,0:0:0
376,88,164399,2,0,B|312:104|256:60,1,120,2|4,0:0|0:0,0:0:0
108,132,165416,6,0,B|132:192,1,60
100,220,165798,2,0,B|118:262|118:262|204:288|275:223,1,210,2|2,0:0|0:0,0:0:0
256,144,166942,5,4,0:0:0
416,192,167450,1,2,0:0:0
288,300,167959,2,0,B|176:300,1,90,2|0,0:0|0:0,0:0:0
116,300,168594,1,2,0:0:0
56,188,168976,6,0,B|124:156|124:88,1,120,4|2,0:0|0:0,0:0:0
284,48,169993,1,0,0:0:0
368,192,170501,1,2,0:0:0
256,320,171010,6,0,B|200:296|176:236,2,120,0|0|4,0:0|0:0|0:0,0:0:0
436,36,173044,5,4,0:0:0
436,204,173552,1,2,0:0:0
268,192,174060,2,0,B|208:116|96:132,1,180
52,192,175077,2,0,B|104:240|184:216,2,120,4|2|0,0:0|0:0|0:0,0:0:0
16,116,176349,6,0,B|56:56,2,60
52,192,177111,6,0,B|52:260|104:300,1,120,4|2,0:0|0:0,0:0:0
256,360,178128,2,0,B|316:328|324:264,1,120,0|2,0:0|0:0,0:0:0
256,112,179145,2,0,B|232:172|256:232,2,120,4|2|4,0:0|0:0|0:0,0:0:0
324,60,180416,5,0,0:0:0
388,116,180671,1,0,0:0:0
388,284,181179,6,0,B|308:264,1,60,4|0,0:0|0:0,0:0:0
296,192,181688,2,0,B|232:204|196:260,1,120,2|0,0:0|0:0,0:0:0
92,188,182577,5,0,0:0:0
132,168,182705,2,0,B|188:132|188:64,2,120,0|4|0,0:0|0:0|0:0,0:0:0
256,284,184230,1,0,0:0:0
432,80,185247,6,0,B|376:116|388:200,1,120,4|2,0:0|0:0,0:0:0
432,348,186264,1,0,0:0:0
368,292,186518,2,0,B|288:292,2,60,0|2|0,0:0|0:0|0:0,0:0:0
432,236,187281,6,0,B|368:132|216:148,1,240,2|0,0:0|0:0,0:0:0
152,188,188552,2,0,B|188:244|260:224,1,120
300,296,189315,1,2,0:0:0
140,348,189823,1,2,0:0:0
36,216,190332,1,0,0:0:0
100,164,190586,6,0,B|160:136|160:64,1,120
244,76,191349,2,0,B|316:92|368:36,2,120,2|2|0,0:0|0:0|0:0,0:0:0
256,244,192874,1,0,0:0:0
324,192,193128,6,0,B|392:192,1,60,0|4,0:0|0:0,0:0:0
280,324,193891,1,0,0:0:0
200,304,194145,2,0,B|160:264|164:196|208:168|244:164,1,180,2|0,0:0|0:0,0:0:0
364,52,195416,6,0,B|404:92|400:160|356:188|320:192,2,180,4|0|0,0:0|0:0|0:0,0:0:0
308,112,197196,2,0,B|232:112,1,60,0|4,0:0|0:0,0:0:0
256,192,197705,12,0,201518,0:0:0
