osu file format v11

[General]
AudioFilename: boot.mp3
AudioLeadIn: 0
PreviewTime: 63227
Countdown: 0
SampleSet: Soft
StackLeniency: 0.7
Mode: 0
LetterboxInBreaks: 1

[Editor]
DistanceSpacing: 1.5
BeatDivisor: 2
GridSize: 4

[Metadata]
Title:boot
TitleUnicode:boot
Artist:paraoka
ArtistUnicode:paraoka
Creator:Laurier
Version:Insane
Source:
Tags:val0108
BeatmapID:155632
BeatmapSetID:50479

[Difficulty]
HPDrainRate:6
CircleSize:4
OverallDifficulty:7
ApproachRate:9
SliderMultiplier:1.8
SliderTickRate:1

[Events]
//Background and Video events
0,0,"BG.jpg"
//Break Periods
2,87634,101257
//Storyboard Layer 0 (Background)
//Storyboard Layer 1 (Fail)
//Storyboard Layer 2 (Pass)
//Storyboard Layer 3 (Foreground)
//Storyboard Sound Samples
//Background Colour Transformations
3,100,163,162,255

[TimingPoints]
13383,254.237288135593,4,2,2,70,1,0
14209,-100,4,2,1,40,0,0
14399,-100,4,2,1,70,0,0
50628,-100,4,2,1,40,0,0
51010,-100,4,2,1,70,0,0
53298,-100,4,2,1,40,0,0
53552,-100,4,2,1,70,0,0
63213,-100,4,2,1,70,0,1
79484,-100,4,2,1,70,0,0
87366,-100,4,2,1,20,0,0
101857,-100,4,2,1,70,0,0
123976,-100,4,2,1,40,0,0
124230,-100,4,2,1,70,0,0
126582,-100,4,2,1,40,0,0
127027,-100,4,2,1,70,0,0
136433,-100,4,2,1,70,0,1
152450,-100,4,2,1,40,0,1
152705,-100,4,2,1,70,0,1
167069,-100,4,2,1,40,0,1
167323,-100,4,2,1,70,0,1
168976,-100,4,2,1,70,0,0
176349,-100,4,2,1,40,0,0
177111,-100,4,2,1,70,0,0
185247,-125,4,2,1,50,0,0
198467,-125,4,2,1,40,0,0
199484,-125,4,2,1,30,0,0
200501,-125,4,2,1,20,0,0
201518,-125,4,2,1,5,0,0

[Colours]
Combo1 : 255,179,142
Combo2 : 255,128,128
Combo3 : 255,172,255
Combo4 : 188,255,121

[HitObjects]
76,68,13382,1,8,0:0:0
176,112,13637,1,8,0:0:0
276,68,13891,1,8,0:0:0
376,112,14145,1,8,0:0:0
376,112,14209,1,8,0:0:0
376,112,14272,1,8,0:0:0
376,112,14336,1,8,0:0:0
376,112,14399,6,0,B|344:148|344:196,1,90,4|0,0:0|0:0,0:0:0
396,268,14654,2,0,B|428:232|424:180,1,90,8|0,0:0|0:0,0:0:0
316,264,14908,2,0,B|248:276|192:228|196:156,1,180,0|8,0:0|0:0,0:0:0
256,100,15289,1,2,0:0:0
80,304,15544,1,2,0:0:0
312,168,15798,5,2,0:0:0
256,100,15925,1,0,0:0:0
308,28,16052,1,0,0:0:0
396,52,16179,2,0,B|440:72|488:56,1,90,10|0,0:0|0:0,0:0:0
308,28,16433,6,0,B|216:4|128:44,1,180,4|8,0:0|0:0,0:0:0
88,120,16815,1,0,0:0:0
12,40,16942,1,0,0:0:0
4,148,17069,1,0,0:0:0
88,216,17196,1,8,0:0:0
192,188,17323,6,0,B|248:276|188:368,1,180,2|0,0:0|0:0,0:0:0
124,300,17705,2,0,B|100:340|52:352,1,90,10|0,0:0|0:0,0:0:0
88,120,17959,2,0,B|112:80|160:68,1,90,2|0,0:0|0:0,0:0:0
88,216,18213,2,0,B|64:256|16:268,1,90,10|0,0:0|0:0,0:0:0
224,112,18467,6,0,B|316:144|336:248,1,180,4|8,0:0|0:0,0:0:0
334,242,18849,1,0,0:0:0
384,116,18976,2,0,B|400:64|444:48,1,90
476,132,19230,1,8,0:0:0
308,72,19357,5,2,0:0:0
308,72,19484,1,0,0:0:0
420,188,19611,1,2,0:0:0
420,188,19738,1,8,0:0:0
360,340,19866,2,0,B|300:368|220:324|216:264,1,180,2|0,0:0|0:0,0:0:0
136,232,20247,2,0,B|100:268|96:316,1,90,10|0,0:0|0:0,0:0:0
312,256,20501,6,0,B|308:208|264:172,1,90,4|0,0:0|0:0,0:0:0
176,132,20755,1,8,0:0:0
136,232,20883,1,0,0:0:0
92,56,21010,2,0,B|176:20|272:24,1,180,0|8,0:0|0:0,0:0:0
400,44,21391,5,0,0:0:0
456,136,21518,1,2,0:0:0
356,176,21645,1,0,0:0:0
268,24,21772,2,0,B|244:116,1,90,10|0,0:0|0:0,0:0:0
244,360,22027,2,0,B|268:268,1,90,0|2,0:0|0:0,0:0:0
284,184,22281,1,8,0:0:0
284,184,22344,1,8,0:0:0
284,184,22408,1,8,0:0:0
304,96,22535,6,0,B|216:112|120:96,1,180,4|8,0:0|0:0,0:0:0
44,52,22916,1,0,0:0:0
112,200,23044,1,0,0:0:0
160,296,23171,1,0,0:0:0
256,248,23298,1,8,0:0:0
176,108,23425,6,0,B|248:56|344:44,1,180,2|0,0:0|0:0,0:0:0
476,48,23806,1,8,0:0:0
400,124,23933,1,2,0:0:0
400,124,24060,2,0,B|432:160|440:216,2,90,0|0|10,0:0|0:0|0:0,0:0:0
160,296,24569,6,0,B|108:224|104:116,1,180,4|8,0:0|0:0,0:0:0
108,36,24950,1,0,0:0:0
40,178,25077,2,0,B|40:268,1,90
200,176,25332,1,8,0:0:0
160,296,25459,2,0,B|252:304|340:268,1,180,2|0,0:0|0:0,0:0:0
380,192,25840,5,10,0:0:0
316,128,25967,2,0,B|308:80,2,45,0|0|10,0:0|0:0|0:0,0:0:0
336,268,26221,1,0,0:0:0
408,100,26349,2,0,B|444:64,2,45,10|0|0,0:0|0:0|0:0,0:0:0
284,204,26603,6,0,B|240:228|188:224,1,90,4|0,0:0|0:0,0:0:0
108,124,26857,2,0,B|152:100|204:104,1,90,8|0,0:0|0:0,0:0:0
108,216,27111,2,0,B|92:308|8:360,1,180,0|8,0:0|0:0,0:0:0
40,168,27493,5,2,0:0:0
300,96,27747,1,2,0:0:0
336,364,28001,2,0,B|380:388|424:364,1,90,2|0,0:0|0:0,0:0:0
460,284,28255,1,2,0:0:0
368,284,28383,1,8,0:0:0
356,284,28446,1,0,0:0:0
344,284,28510,1,0,0:0:0
332,284,28573,1,0,0:0:0
320,284,28637,6,0,B|272:280|232:312,1,90,4|8,0:0|0:0,0:0:0
160,360,28891,1,8,0:0:0
84,312,29018,1,8,0:0:0
160,264,29145,1,2,0:0:0
160,264,29272,1,0,0:0:0
28,156,29399,1,10,0:0:0
28,156,29527,1,8,0:0:0
120,192,29654,6,0,B|212:192|308:160,1,180,4|0,0:0|0:0,0:0:0
248,8,30035,2,0,B|232:52|248:108,1,90,4|0,0:0|0:0,0:0:0
368,316,30289,2,0,B|412:224|364:136,1,180,4|0,0:0|0:0,0:0:0
256,288,30671,6,0,B|208:304|188:352,1,90,4|0,0:0|0:0,0:0:0
120,192,30925,1,8,0:0:0
144,280,31052,1,0,0:0:0
200,208,31179,2,0,B|204:108|132:36,1,180,0|8,0:0|0:0,0:0:0
284,152,31560,1,0,0:0:0
312,240,31688,2,0,B|364:224|376:172,1,90
332,52,31942,5,8,0:0:0
332,52,32069,1,0,0:0:0
400,112,32196,2,0,B|444:124|492:112,1,90
312,240,32450,2,0,B|312:292|344:328,1,90,8|0,0:0|0:0,0:0:0
256,352,32705,6,0,B|240:260|172:188,1,180,0|8,0:0|0:0,0:0:0
88,192,33086,1,0,0:0:0
12,356,33213,2,0,B|68:380|120:352|144:304|128:248,1,180,0|8,0:0|0:0,0:0:0
88,192,33594,1,0,0:0:0
132,64,33721,2,0,B|180:44|224:64,1,90
280,128,33976,2,0,B|328:148|367:126,1,90,8|0,0:0|0:0,0:0:0
424,248,34230,2,0,B|480:216|492:128|452:88,1,180,0|8,0:0|0:0,0:0:0
376,48,34611,1,0,0:0:0
348,208,34738,6,0,B|328:256|352:296,1,90,4|0,0:0|0:0,0:0:0
216,316,34993,1,8,0:0:0
216,316,35120,1,0,0:0:0
352,296,35247,2,0,B|304:216|212:180,1,180,0|8,0:0|0:0,0:0:0
156,248,35628,1,0,0:0:0
36,184,35755,2,0,B|60:276,1,90
120,336,36010,5,8,0:0:0
36,184,36137,1,0,0:0:0
68,52,36264,2,0,B|108:84|104:136,1,90
188,168,36518,2,0,B|192:220|152:252,1,90,8|0,0:0|0:0,0:0:0
176,88,36772,6,0,B|220:64|220:64|292:64|324:128,1,180,4|8,0:0|0:0,0:0:0
288,212,37154,1,0,0:0:0
368,52,37281,2,0,B|416:132,1,90
476,192,37535,2,0,B|460:284,1,90,8|0,0:0|0:0,0:0:0
396,340,37789,5,0,0:0:0
384,204,37916,2,0,B|364:248,2,45,0|0|8,0:0|0:0|0:0,0:0:0
284,296,38171,1,0,0:0:0
212,348,38298,5,0,0:0:0
196,260,38425,1,0,0:0:0
140,188,38552,1,8,0:0:0
140,100,38679,1,0,0:0:0
140,100,38806,6,0,B|44:100,1,90,4|0,0:0|0:0,0:0:0
64,260,39060,2,0,B|76:212|52:172,1,90,8|0,0:0|0:0,0:0:0
64,260,39315,2,0,B|100:300|100:300|168:308|204:244,1,180,0|8,0:0|0:0,0:0:0
256,148,39696,1,0,0:0:0
256,40,39823,5,0,0:0:0
256,344,40077,2,0,B|280:300|328:288,1,90,8|0,0:0|0:0,0:0:0
392,348,40332,2,0,B|440:320|452:232|412:188,1,180,0|8,0:0|0:0,0:0:0
324,204,40713,1,0,0:0:0
256,260,40840,5,0,0:0:0
256,260,40967,1,0,0:0:0
188,204,41094,2,0,B|96:204,1,90,8|0,0:0|0:0,0:0:0
140,284,41349,2,0,B|212:220|188:116,1,180,0|8,0:0|0:0,0:0:0
108,84,41730,1,0,0:0:0
232,32,41857,5,0,0:0:0
232,32,41984,1,0,0:0:0
304,88,42111,2,0,B|304:184,1,90,8|0,0:0|0:0,0:0:0
344,260,42366,2,0,B|452:232|464:128,1,180,0|8,0:0|0:0,0:0:0
424,12,42747,1,0,0:0:0
424,12,42874,6,0,B|352:72|364:180,1,180,4|8,0:0|0:0,0:0:0
344,260,43255,1,0,0:0:0
236,324,43383,2,0,B|204:301|200:232|248:189|292:193,1,180,0|8,0:0|0:0,0:0:0
424,216,43764,1,0,0:0:0
480,144,43891,6,0,B|468:88|416:72,1,90
272,36,44145,2,0,B|284:92|336:108,1,90,8|0,0:0|0:0,0:0:0
352,192,44399,2,0,B|260:224|172:192,1,180,0|8,0:0|0:0,0:0:0
164,104,44781,1,0,0:0:0
64,192,44908,6,0,B|40:236|64:284,2,90,4|0|8,0:0|0:0|0:0,0:0:0
76,104,45289,1,0,0:0:0
156,60,45416,2,0,B|196:156|140:236,1,180,0|8,0:0|0:0,0:0:0
60,340,45798,1,0,0:0:0
196,340,45925,5,0,0:0:0
196,340,46052,2,0,B|160:316,2,45,0|0|8,0:0|0:0|0:0,0:0:0
256,276,46306,1,0,0:0:0
256,188,46433,2,0,B|304:192|304:192|376:212|372:296,1,180,0|8,0:0|0:0,0:0:0
372,291,46751,1,0,0:0:0
372,291,46815,1,0,0:0:0
460,268,46942,6,0,B|460:176,1,90,4|0,0:0|0:0,0:0:0
460,52,47196,1,8,0:0:0
460,178,47323,1,0,0:0:0
360,88,47450,2,0,B|316:108|272:88,1,90
184,104,47705,2,0,B|184:52|224:24,1,90,8|0,0:0|0:0,0:0:0
100,88,47959,6,0,B|120:184|60:264,1,180,0|8,0:0|0:0,0:0:0
108,336,48340,1,0,0:0:0
108,336,48467,2,0,B|152:312|160:264,1,90
208,192,48721,2,0,B|208:132,2,45,8|0|0,0:0|0:0|0:0,0:0:0
256,268,48976,6,0,B|300:248|308:200,1,90,4|0,0:0|0:0,0:0:0
304,108,49230,1,8,0:0:0
304,108,49294,1,0,0:0:0
304,108,49357,1,0,0:0:0
156,40,49484,6,0,B|168:86|213:103,1,90
304,108,49738,1,8,0:0:0
304,108,49802,1,0,0:0:0
304,108,49866,1,0,0:0:0
452,44,49993,6,0,B|452:136,1,90,2|0,0:0|0:0,0:0:0
368,164,50247,2,0,B|352:252,1,90,10|0,0:0|0:0,0:0:0
336,340,50501,1,2,0:0:0
256,180,50628,6,8,B|256:132,5,45
228,68,51010,6,0,B|176:72|152:116,1,90,4|0,0:0|0:0,0:0:0
100,236,51264,2,0,B|152:232|176:188,1,90,8|0,0:0|0:0,0:0:0
88,160,51518,1,0,0:0:0
20,216,51645,1,8,0:0:0
20,304,51772,1,8,0:0:0
88,364,51899,1,0,0:0:0
156,304,52027,6,0,B|240:260|332:256,1,180,4|0,0:0|0:0,0:0:0
480,356,52535,1,0,0:0:0
432,280,52662,1,8,0:0:0
484,208,52789,1,8,0:0:0
424,140,52916,1,0,0:0:0
332,140,53044,6,0,B|240:140,1,90,4|0,0:0|0:0,0:0:0
172,84,53298,2,8,B|132:104,3,45
100,136,53552,2,0,B|136:228|68:312,2,180,0|8|4,0:0|0:0|0:0,0:0:0
256,36,54823,5,8,0:0:0
256,36,54950,1,0,0:0:0
364,120,55077,6,0,B|400:152|400:152|416:216|372:280,1,180,4|0,0:0|0:0,0:0:0
192,296,55459,2,0,B|201:248|201:248|249:202|326:209,1,180,2|0,0:0|0:0,0:0:0
284,128,55840,1,0,0:0:0
284,288,55967,1,2,0:0:0
60,52,56221,5,2,0:0:0
60,52,56476,1,2,0:0:0
284,288,56730,2,0,B|300:340|352:356,2,90,2|0|0,0:0|0:0|0:0,0:0:0
256,204,57111,6,0,B|196:212|164:288|188:352,1,180,4|0,0:0|0:0,0:0:0
68,284,57493,2,0,B|68:336|112:368,1,90,2|0,0:0|0:0,0:0:0
124,228,57747,2,0,B|124:176|80:144,1,90,2|0,0:0|0:0,0:0:0
8,192,58001,1,2,0:0:0
88,52,58128,6,0,B|184:52,1,90,0|2,0:0|0:0,0:0:0
264,28,58383,1,0,0:0:0
264,28,58510,2,0,B|312:104,1,90,2|0,0:0|0:0,0:0:0
460,172,58764,1,0,0:0:0
300,196,58891,1,8,0:0:0
404,72,59018,1,0,0:0:0
396,232,59145,6,0,B|408:280|452:296,2,90,4|0|8,0:0|0:0|0:0,0:0:0
376,144,59527,1,0,0:0:0
324,276,59654,1,0,0:0:0
208,340,59781,1,0,0:0:0
188,236,59908,2,0,B|188:144,1,90,8|0,0:0|0:0,0:0:0
100,44,60162,6,0,B|80:92|100:136,1,90
212,60,60416,2,0,B|256:28|312:44,1,90,8|0,0:0|0:0,0:0:0
384,72,60671,2,0,B|408:32,2,45,8|0|0,0:0|0:0|0:0,0:0:0
444,192,60925,2,0,B|444:240,2,45,8|0|0,0:0|0:0|0:0,0:0:0
360,156,61179,5,4,0:0:0
280,192,61306,1,0,0:0:0
276,280,61433,1,8,0:0:0
360,156,61560,6,0,B|280:88,1,90
208,136,61815,2,0,B|160:120|148:64,2,90,0|8|0,0:0|0:0|0:0,0:0:0
280,192,62196,5,0,0:0:0
276,280,62323,1,2,0:0:0
200,232,62450,1,2,0:0:0
280,192,62577,1,2,0:0:0
376,344,62705,1,2,0:0:0
376,344,62959,1,2,0:0:0
480,192,63213,6,0,B|436:172|420:124,1,90,4|0,0:0|0:0,0:0:0
372,52,63467,2,0,B|324:68|312:120,1,90,8|0,0:0|0:0,0:0:0
324,276,63721,2,0,B|240:232|240:120,1,180,0|8,0:0|0:0,0:0:0
256,40,64103,1,2,0:0:0
256,40,64230,1,0,0:0:0
136,100,64357,2,0,B|136:192,1,90,2|8,0:0|0:0,0:0:0
52,160,64611,2,0,B|36:108|36:108|60:36|124:20,1,180,2|0,0:0|0:0,0:0:0
52,160,64993,2,0,B|32:208|56:252,1,90,10|0,0:0|0:0,0:0:0
132,208,65247,5,4,0:0:0
100,340,65374,1,0,0:0:0
132,208,65501,1,8,0:0:0
100,340,65628,1,0,0:0:0
208,260,65755,2,0,B|232:216|212:168,2,90,0|0|8,0:0|0:0|0:0,0:0:0
164,104,66137,6,0,B|264:72|328:156,1,180,2|0,0:0|0:0,0:0:0
368,308,66518,2,0,B|324:292|312:240,1,90,10|0,0:0|0:0,0:0:0
396,208,66772,1,2,0:0:0
460,148,66899,1,0,0:0:0
396,84,67027,2,0,B|344:84|312:40,1,90,10|0,0:0|0:0,0:0:0
396,84,67281,6,0,B|224:168,1,180,4|8,0:0|0:0,0:0:0
164,104,67662,1,0,0:0:0
28,220,67789,2,0,B|64:256|64:256|136:248|164:176,1,180,0|8,0:0|0:0,0:0:0
72,80,68171,6,8,B|60:128|88:164,1,90,2|0,0:0|0:0,0:0:0
212,296,68425,2,0,B|252:264|248:212,1,90,2|8,0:0|0:0,0:0:0
164,104,68679,2,0,B|248:128|348:116,1,180,2|0,0:0|0:0,0:0:0
396,44,69060,2,0,B|440:72|436:124,1,90,10|0,0:0|0:0,0:0:0
368,180,69315,5,4,0:0:0
297,232,69442,1,0,0:0:0
350,303,69569,1,8,0:0:0
420,250,69696,1,0,0:0:0
368,180,69823,2,0,B|328:160|320:108,2,90,0|0|8,0:0|0:0|0:0,0:0:0
350,303,70205,6,0,B|304:328|304:328|248:344|184:280,1,180,2|0,0:0|0:0,0:0:0
180,108,70586,2,0,B|208:148|192:204,1,90,10|0,0:0|0:0,0:0:0
116,236,70840,1,0,0:0:0
52,172,70967,2,0,B|24:136,2,45,8|0|8,0:0|0:0|0:0,0:0:0
116,236,71221,1,0,0:0:0
96,76,71349,6,0,B|192:44,1,90,4|0,0:0|0:0,0:0:0
236,116,71603,2,0,B|328:116,1,90,8|0,0:0|0:0,0:0:0
392,56,71857,2,0,B|432:84|432:132,1,90
372,196,72111,1,8,0:0:0
232,280,72238,6,0,B|244:232|288:208,1,90,2|0,0:0|0:0,0:0:0
444,244,72493,2,0,B|416:284|356:280,1,90,2|8,0:0|0:0,0:0:0
348,112,72747,2,0,B|408:180|364:288,1,180,2|0,0:0|0:0,0:0:0
232,280,73128,2,0,B|140:280,1,90,10|0,0:0|0:0,0:0:0
40,192,73383,5,4,0:0:0
132,192,73510,1,0,0:0:0
40,192,73637,1,8,0:0:0
188,92,73764,1,0,0:0:0
256,152,73891,2,0,B|300:176|300:232,2,90,0|0|8,0:0|0:0|0:0,0:0:0
272,64,74272,6,0,B|332:48|332:48|396:60|412:136,1,180,2|0,0:0|0:0,0:0:0
476,192,74654,2,0,B|456:236|408:244,1,90,10|0,0:0|0:0,0:0:0
232,280,74908,2,0,B|252:236|300:228,1,90,2|0,0:0|0:0,0:0:0
172,192,75162,2,0,B|128:168,2,45,10|0|0,0:0|0:0|0:0,0:0:0
56,120,75416,6,0,B|80:72|136:64,2,90,4|0|8,0:0|0:0|0:0,0:0:0
56,212,75798,1,0,0:0:0
72,300,75925,2,0,B|128:306|173:260|177:199|159:174,1,180,0|8,0:0|0:0,0:0:0
256,48,76306,6,0,B|252:96|200:112,1,90,2|0,0:0|0:0,0:0:0
336,112,76560,2,0,B|340:64|392:48,1,90,2|8,0:0|0:0,0:0:0
480,32,76815,2,0,B|500:80|500:80|492:148|412:176,1,180,2|0,0:0|0:0,0:0:0
336,204,77196,1,8,0:0:0
256,164,77323,2,0,B|256:112,2,45,0|0|4,0:0|0:0|0:0,0:0:0
204,240,77577,5,0,0:0:0
128,192,77705,1,8,0:0:0
52,240,77832,1,0,0:0:0
204,240,77959,2,0,B|288:284,1,90,0|2,0:0|0:0,0:0:0
424,52,78340,1,2,0:0:0
424,52,78467,6,0,B|412:100|424:140,2,90,4|0|8,0:0|0:0|0:0,0:0:0
336,156,78849,2,0,B|352:204|400:224,1,90,4|0,0:0|0:0,0:0:0
480,192,79103,1,4,0:0:0
48,192,79357,1,8,0:0:0
48,192,79421,1,8,0:0:0
48,192,79484,6,0,B|104:120,1,90,4|0,0:0|0:0,0:0:0
220,52,79738,2,0,B|200:164,1,90,8|0,0:0|0:0,0:0:0
140,204,79993,1,0,0:0:0
212,260,80120,1,0,0:0:0
284,208,80247,2,0,B|328:232|332:288,1,90,8|0,0:0|0:0,0:0:0
452,344,80501,6,0,B|476:304|476:304|484:232|428:176,1,180,0|8,0:0|0:0,0:0:0
360,132,80882,1,0,0:0:0
220,52,81010,2,0,B|220:100|264:124,2,90,0|0|8,0:0|0:0|0:0,0:0:0
84,64,81391,1,0,0:0:0
220,52,81518,6,0,B|152:232,1,180,4|8,0:0|0:0,0:0:0
72,192,81899,1,0,0:0:0
120,320,82027,2,0,B|172:336|208:300,1,90
312,220,82281,2,0,B|344:260|336:304,1,90,8|0,0:0|0:0,0:0:0
420,340,82535,5,4,0:0:0
464,260,82662,1,0,0:0:0
420,180,82789,1,8,0:0:0
456,100,82916,1,0,0:0:0
412,20,83044,2,0,B|460:16,4,45,2|0|2|0|0,0:0|0:0|0:0|0:0|0:0,0:0:0
104,112,83552,6,0,B|104:164|152:204|208:196|240:152,1,180,4|8,0:0|0:0,0:0:0
256,72,83933,1,0,0:0:0
376,136,84060,2,0,B|424:224|360:308,1,180,0|8,0:0|0:0,0:0:0
272,368,84442,1,0,0:0:0
272,368,84569,2,0,B|248:268|320:196,1,180,0|8,0:0|0:0,0:0:0
376,136,84950,1,0,0:0:0
376,136,85077,1,0,0:0:0
120,52,85332,1,8,0:0:0
256,284,85586,5,4,0:0:0
396,52,85840,1,8,0:0:0
396,52,86094,2,0,B|424:152|344:216,1,180,0|8,0:0|0:0,0:0:0
256,60,86603,5,2,0:0:0
200,132,86730,1,0,0:0:0
188,220,86857,1,2,0:0:0
108,256,86984,1,0,0:0:0
108,256,87111,6,0,B|284:292,1,180,2|0,0:0|0:0,0:0:0
256,192,101857,12,4,103891,0:0:0
40,280,104145,6,0,B|84:308|84:356,1,90,8|0,0:0|0:0,0:0:0
140,232,104399,2,0,B|101:236|61:196|57:136|99:97,1,180,0|8,0:0|0:0,0:0:0
184,140,104781,1,0,0:0:0
260,92,104908,2,0,B|340:152,1,90
415,176,105162,2,0,B|400:88,1,90,8|0,0:0|0:0,0:0:0
504,192,105416,2,0,B|396:352,1,180,0|8,0:0|0:0,0:0:0
332,284,105798,1,0,0:0:0
256,172,105925,6,0,B|236:220|180:220,1,90
184,140,106179,1,8,0:0:0
184,140,106306,1,0,0:0:0
56,92,106433,2,0,B|37:145|37:145|53:213|120:251,1,180,0|8,0:0|0:0,0:0:0
184,292,106815,1,0,0:0:0
20,344,106942,6,0,B|68:360|108:336,1,90
184,292,107196,1,8,0:0:0
184,292,107323,1,0,0:0:0
304,348,107450,2,0,B|340:264|428:196,1,180,0|8,0:0|0:0,0:0:0
356,84,107832,1,0,0:0:0
413,207,107959,6,0,B|308:196,1,90,4|0,0:0|0:0,0:0:0
208,60,108213,2,0,B|259:72|287:116,1,90,8|0,0:0|0:0,0:0:0
260,288,108467,2,0,B|208:280|172:240|176:176|212:140,1,180,0|8,0:0|0:0,0:0:0
208,60,108849,1,0,0:0:0
208,60,108976,5,0,0:0:0
132,320,109230,1,8,0:0:0
96,192,109357,1,0,0:0:0
52,64,109484,2,0,B|16:100|24:156,1,90
68,320,109738,2,0,B|104:284|96:228,1,90,8|0,0:0|0:0,0:0:0
52,64,109993,6,0,B|132:108|232:88,1,180,4|8,0:0|0:0,0:0:0
304,44,110374,1,0,0:0:0
256,172,110501,1,0,0:0:0
304,248,110628,1,0,0:0:0
380,200,110755,1,8,0:0:0
332,124,110882,1,0,0:0:0
444,44,111010,5,0,0:0:0
444,132,111137,2,0,B|496:152,2,45,8|0|0,0:0|0:0|0:0,0:0:0
380,200,111391,1,0,0:0:0
432,324,111518,2,0,B|396:348|396:348|324:360|260:308,1,180,0|8,0:0|0:0,0:0:0
256,44,111899,1,0,0:0:0
256,44,112027,6,0,B|236:88|180:92,1,90,4|0,0:0|0:0,0:0:0
96,68,112281,2,0,B|56:100|60:152,1,90,8|0,0:0|0:0,0:0:0
136,192,112535,2,0,B|156:240|144:288|92:324|28:320,1,180,0|8,0:0|0:0,0:0:0
52,228,112916,1,0,0:0:0
196,340,113044,6,0,B|292:340,1,90
292,252,113298,2,0,B|376:216,1,90,8|0,0:0|0:0,0:0:0
444,332,113552,2,0,B|488:292|500:240|476:180|424:164,1,180,0|8,0:0|0:0,0:0:0
368,128,113933,1,0,0:0:0
428,60,114060,5,4,0:0:0
428,60,114188,1,0,0:0:0
296,80,114315,2,0,B|272:124|292:168,1,90,8|0,0:0|0:0,0:0:0
168,64,114569,2,0,B|144:108|144:108|148:180|220:216,1,180,0|8,0:0|0:0,0:0:0
292,252,114950,1,0,0:0:0
148,360,115077,6,0,B|116:272,1,90
32,244,115332,2,0,B|32:148,1,90,8|0,0:0|0:0,0:0:0
168,64,115586,2,0,B|220:40|220:40|284:48|316:112,1,180,0|8,0:0|0:0,0:0:0
256,176,115967,1,0,0:0:0
392,60,116094,2,0,B|416:100|400:148,1,90,4|0,0:0|0:0,0:0:0
336,208,116349,5,8,0:0:0
336,208,116476,1,0,0:0:0
280,332,116603,2,0,B|220:296|212:208|268:164,1,180,0|8,0:0|0:0,0:0:0
416,236,116984,2,0,B|400:284|348:288,2,90
396,148,117366,5,8,0:0:0
148,44,117620,1,0,0:0:0
52,296,117874,2,0,B|80:256|72:208,1,90,8|0,0:0|0:0,0:0:0
36,128,118128,6,0,B|80:112|80:112|152:120|180:196,1,180,4|8,0:0|0:0,0:0:0
148,276,118510,1,0,0:0:0
256,356,118637,2,0,B|256:268,1,90
344,248,118891,2,0,B|300:168,1,90,8|0,0:0|0:0,0:0:0
256,92,119145,1,0,0:0:0
332,44,119272,1,0,0:0:0
408,92,119399,2,0,B|460:164,1,90,8|0,0:0|0:0,0:0:0
432,252,119654,2,0,B|432:300,6,45,2|0|0|0|10|0|0,0:0|0:0|0:0|0:0|0:0|0:0|0:0,0:0:0
344,248,120162,6,0,B|296:240|256:276,1,90,4|0,0:0|0:0,0:0:0
160,184,120416,2,0,B|148:232|184:272,1,90,8|0,0:0|0:0,0:0:0
252,152,120671,2,0,B|240:96|196:64|132:72|100:104,1,180,0|8,0:0|0:0,0:0:0
72,176,121052,1,0,0:0:0
111,94,121179,6,0,B|176:24,2,90,0|0|8,0:0|0:0|0:0,0:0:0
20,100,121560,1,0,0:0:0
72,176,121688,2,0,B|88:220|60:268,1,90,0|0,0:0|0:0,0:0:0
20,344,121942,1,8,0:0:0
108,328,122069,1,0,0:0:0
168,208,122196,6,0,B|252:172|356:184,1,180,4|8,0:0|0:0,0:0:0
344,182,122514,1,0,0:0:0
344,182,122577,1,0,0:0:0
408,248,122705,1,0,0:0:0
256,96,122959,2,0,B|256:44,2,45,8|0|0,0:0|0:0|0:0,0:0:0
256,352,123213,5,4,0:0:0
408,248,123467,1,8,0:0:0
296,108,123721,1,0,0:0:0
152,216,123976,2,0,B|104:216,3,45,8|8|8|8,0:0|0:0|0:0|0:0,0:0:0
68,156,124230,6,0,B|112:136|116:80,1,90,4|0,0:0|0:0,0:0:0
184,28,124484,2,0,B|232:36|252:88,1,90,8|0,0:0|0:0,0:0:0
248,172,124738,1,0,0:0:0
240,264,124866,1,0,0:0:0
328,272,124993,1,8,0:0:0
340,184,125120,1,0,0:0:0
412,68,125247,6,0,B|456:88|456:88|488:144|456:216,1,180,4|8,0:0|0:0,0:0:0
368,232,125628,1,0,0:0:0
296,176,125755,2,0,B|296:124|336:96,1,90
256,20,126010,2,0,B|256:72|216:100,1,90,8|0,0:0|0:0,0:0:0
136,64,126264,6,0,B|64:136|104:232,1,180,4|8,0:0|0:0,0:0:0
102,229,126582,1,8,0:0:0
102,229,126645,1,8,0:0:0
102,229,126709,1,8,0:0:0
102,229,126772,1,8,0:0:0
420,156,127027,1,8,0:0:0
368,232,127154,1,0,0:0:0
320,308,127281,1,4,0:0:0
256,116,128044,5,0,0:0:0
256,116,128171,1,0,0:0:0
220,244,128298,6,0,B|172:160|68:160,1,180,2|0,0:0|0:0,0:0:0
108,32,128679,2,0,B|156:116|260:116,1,180,2|0,0:0|0:0,0:0:0
320,52,129060,1,0,0:0:0
368,228,129188,1,2,0:0:0
368,228,129442,1,2,0:0:0
28,348,129696,2,0,B|64:312|64:256,1,90,2|0,0:0|0:0,0:0:0
44,180,129950,1,0,0:0:0
128,144,130077,1,2,0:0:0
160,228,130205,1,0,0:0:0
256,324,130332,6,0,B|308:144,1,180,2|0,0:0|0:0,0:0:0
256,24,130713,2,0,B|220:64|236:116,1,90,2|0,0:0|0:0,0:0:0
320,80,130967,1,2,0:0:0
396,128,131094,2,0,B|409:171|373:211,1,90,0|2,0:0|0:0,0:0:0
440,276,131349,2,0,B|400:312|400:312|336:328|272:276,1,180,2|0,0:0|0:0,0:0:0
252,152,131730,2,0,B|200:164|164:208|164:272|204:320,1,180,2|0,0:0|0:0,0:0:0
244,364,132111,1,8,0:0:0
320,220,132238,1,0,0:0:0
356,136,132366,6,0,B|404:156|412:208,2,90,4|0|8,0:0|0:0|0:0,0:0:0
336,48,132747,1,0,0:0:0
252,152,132874,1,0,0:0:0
184,92,133001,1,0,0:0:0
92,192,133128,2,0,B|92:284,2,90,8|0|0,0:0|0:0|0:0,0:0:0
52,112,133510,5,0,0:0:0
172,176,133637,1,8,0:0:0
172,176,133764,1,0,0:0:0
208,260,133891,2,0,B|208:304,2,45,8|0|0,0:0|0:0|0:0,0:0:0
292,228,134145,2,0,B|328:192,2,45,8|0|0,0:0|0:0|0:0,0:0:0
412,292,134399,6,0,B|440:196,1,90,4|0,0:0|0:0,0:0:0
488,132,134654,1,8,0:0:0
488,132,134781,2,0,B|416:64,1,90
340,108,135035,1,0,0:0:0
256,56,135162,1,8,0:0:0
340,108,135289,1,0,0:0:0
180,108,135416,6,0,B|192:152|164:196,1,90,2|0,0:0|0:0,0:0:0
76,196,135671,1,2,0:0:0
104,280,135798,1,0,0:0:0
132,364,135925,1,2,0:0:0
76,196,136179,5,2,0:0:0
436,192,136433,6,0,B|420:240|368:252,1,90,4|0,0:0|0:0,0:0:0
304,192,136688,1,8,0:0:0
260,272,136815,1,0,0:0:0
304,192,136942,2,0,B|268:164|264:108|304:52|352:60,1,180,0|8,0:0|0:0,0:0:0
216,56,137323,6,0,B|208:108|160:128,1,90,2|0,0:0|0:0,0:0:0
120,204,137577,2,0,B|80:180|80:128,1,90,2|8,0:0|0:0,0:0:0
196,196,137832,2,0,B|220:244|220:244|212:308|132:336,1,180,2|0,0:0|0:0,0:0:0
56,300,138213,1,10,0:0:0
28,212,138340,1,0,0:0:0
124,60,138467,6,0,B|160:92|160:144,1,90,4|0,0:0|0:0,0:0:0
300,60,138721,2,0,B|284:104|236:120,1,90,8|0,0:0|0:0,0:0:0
76,132,138976,1,0,0:0:0
200,232,139103,1,0,0:0:0
76,132,139230,1,8,0:0:0
200,232,139357,6,0,B|244:188|300:196|336:232|332:280,1,180,2|0,0:0|0:0,0:0:0
308,360,139738,2,0,B|260:340|256:288,1,90,10|0,0:0|0:0,0:0:0
256,128,139993,1,2,0:0:0
396,212,140120,1,0,0:0:0
256,292,140247,2,0,B|216:320|168:304,1,90,10|0,0:0|0:0,0:0:0
156,124,140501,6,0,B|168:216|80:288,1,180,4|8,0:0|0:0,0:0:0
8,324,140882,1,0,0:0:0
8,324,141010,2,0,B|0:228|84:160,1,180,0|8,0:0|0:0,0:0:0
156,124,141391,2,0,B|172:76|152:32,1,90,2|0,0:0|0:0,0:0:0
240,56,141645,1,2,0:0:0
256,144,141772,1,8,0:0:0
356,56,141899,2,0,B|400:92|400:92|416:156|368:212,1,180,2|0,0:0|0:0,0:0:0
264,288,142281,2,0,B|259:236|302:208,1,90,10|0,0:0|0:0,0:0:0
349,282,142535,5,4,0:0:0
384,364,142662,1,0,0:0:0
464,324,142789,1,8,0:0:0
428,244,142916,1,0,0:0:0
349,282,143044,2,0,B|304:308|304:308|236:320|168:284,1,180,0|8,0:0|0:0,0:0:0
68,148,143425,6,0,B|168:144|220:232,1,180,2|0,0:0|0:0,0:0:0
256,148,143806,2,0,B|280:100|256:56,1,90,10|0,0:0|0:0,0:0:0
180,100,144060,1,2,0:0:0
352,44,144188,2,0,B|392:24,2,45,0|0|10,0:0|0:0|0:0,0:0:0
368,132,144442,1,0,0:0:0
468,220,144569,6,0,B|368:224|312:316,1,180,4|8,0:0|0:0,0:0:0
256,244,144950,1,0,0:0:0
184,192,145077,2,0,B|156:236|160:288|192:328|244:332,1,180,0|8,0:0|0:0,0:0:0
320,192,145459,6,0,B|352:152|332:104,1,90,2|0,0:0|0:0,0:0:0
264,52,145713,2,0,B|232:92|252:140,1,90,2|8,0:0|0:0,0:0:0
264,52,145967,2,0,B|224:24|224:24|156:20|96:76,1,180,2|0,0:0|0:0,0:0:0
112,232,146349,2,0,B|116:176|76:144,1,90,10|0,0:0|0:0,0:0:0
28,220,146603,5,4,0:0:0
108,328,146730,1,0,0:0:0
196,332,146857,1,8,0:0:0
196,244,146984,1,0,0:0:0
260,180,147111,2,0,B|296:216|280:268,2,90,0|0|8,0:0|0:0|0:0,0:0:0
160,88,147493,6,0,B|348:36,1,180,2|0,0:0|0:0,0:0:0
440,120,147874,2,0,B|444:64|412:32,1,90,10|0,0:0|0:0,0:0:0
360,108,148128,2,0,B|344:152,2,45,10|0|0,0:0|0:0|0:0,0:0:0
428,224,148382,1,2,0:0:0
256,356,148637,6,0,B|240:304|184:296,1,90,4|0,0:0|0:0,0:0:0
120,348,148891,2,0,B|84:312|96:260,1,90,8|0,0:0|0:0,0:0:0
136,92,149145,2,0,B|184:104|208:148|208:200|156:236,1,180,0|8,0:0|0:0,0:0:0
136,92,149527,2,0,B|224:56,1,90,2|0,0:0|0:0,0:0:0
272,132,149781,2,0,B|356:164,1,90,2|8,0:0|0:0,0:0:0
396,244,150035,2,0,B|448:228|468:180|456:124|416:100,1,180,2|0,0:0|0:0,0:0:0
396,244,150416,2,0,B|428:332,1,90,10|0,0:0|0:0,0:0:0
336,332,150671,6,0,B|300:304|248:316,1,90,4|0,0:0|0:0,0:0:0
176,364,150925,1,8,0:0:0
204,232,151052,2,0,B|204:184,2,45,0|0|8,0:0|0:0|0:0,0:0:0
128,280,151306,1,0,0:0:0
52,232,151433,1,8,0:0:0
132,92,151560,6,0,B|172:56|172:56|240:48|292:104,1,180,2|0,0:0|0:0,0:0:0
376,84,151942,2,0,B|396:128|376:176,1,90,10|0,0:0|0:0,0:0:0
316,236,152196,2,0,B|288:276,3,45,2|0|0|0,0:0|0:0|0:0|0:0,0:0:0
256,304,152450,2,0,B|208:304,3,45,8|8|8|8,0:0|0:0|0:0|0:0,0:0:0
168,244,152705,6,0,B|188:196|168:152,1,90,4|0,0:0|0:0,0:0:0
92,112,152959,2,0,B|72:160|92:204,1,90,8|0,0:0|0:0,0:0:0
0,192,153213,2,0,B|-12:256|20:300|72:312|116:300,1,180,0|8,0:0|0:0,0:0:0
168,244,153594,5,2,0:0:0
168,244,153721,1,0,0:0:0
256,140,153849,1,2,0:0:0
256,140,153976,1,8,0:0:0
340,168,154103,2,0,B|344:216|344:216|320:276|236:292,1,180,2|0,0:0|0:0,0:0:0
172,156,154484,2,0,B|164:108|204:76,1,90,10|0,0:0|0:0,0:0:0
292,56,154738,5,4,0:0:0
380,84,154866,1,0,0:0:0
464,112,154993,2,0,B|488:156|464:208,1,90,8|0,0:0|0:0,0:0:0
396,252,155247,2,0,B|372:208|396:156,2,90,0|0|8,0:0|0:0|0:0,0:0:0
296,344,155628,6,0,B|304:244|232:184,1,180,2|0,0:0|0:0,0:0:0
148,76,156010,2,0,B|100:96|92:156,1,90,10|0,0:0|0:0,0:0:0
20,192,156264,2,0,B|40:232,3,45,8|0|0|0,0:0|0:0|0:0|0:0,0:0:0
20,280,156518,2,0,B|64:304,2,45,10|0|0,0:0|0:0|0:0,0:0:0
132,296,156772,6,0,B|148:248|188:224,1,90,4|0,0:0|0:0,0:0:0
256,100,157027,2,0,B|284:136|280:184,1,90,8|0,0:0|0:0,0:0:0
256,272,157281,2,0,B|292:304|292:304|360:304|392:228,1,180,0|8,0:0|0:0,0:0:0
384,68,157662,6,0,B|368:112|388:156,1,90,2|0,0:0|0:0,0:0:0
472,188,157916,2,0,B|488:236|460:280,2,90,2|8|2,0:0|0:0|0:0,0:0:0
132,68,158425,1,2,0:0:0
132,68,158552,2,0,B|100:104|96:156,1,90,10|0,0:0|0:0,0:0:0
92,240,158806,5,4,0:0:0
140,316,158933,1,0,0:0:0
216,268,159060,1,8,0:0:0
168,192,159188,1,0,0:0:0
140,316,159315,2,0,B|176:352|176:352|240:368|300:312,1,180,0|8,0:0|0:0,0:0:0
316,156,159696,6,0,B|312:216|368:268|440:256,1,180,2|0,0:0|0:0,0:0:0
476,100,160077,2,0,B|440:132|440:184,1,90,10|0,0:0|0:0,0:0:0
364,68,160332,2,0,B|320:44,2,45,2|0|0,0:0|0:0|0:0,0:0:0
232,92,160586,2,0,B|180:92,2,45,8|0|0,0:0|0:0|0:0,0:0:0
232,180,160840,6,0,B|220:228|176:248,1,90,4|0,0:0|0:0,0:0:0
92,280,161094,2,0,B|81:235|113:195,1,90,8|0,0:0|0:0,0:0:0
156,336,161349,1,0,0:0:0
56,88,161603,1,8,0:0:0
132,40,161730,6,0,B|224:80,1,90,2|0,0:0|0:0,0:0:0
300,48,161984,2,0,B|336:136,1,90,2|8,0:0|0:0,0:0:0
352,312,162238,2,0,B|304:312|256:272|252:220|276:160,1,180,2|0,0:0|0:0,0:0:0
416,252,162620,2,0,B|452:288|436:336,1,90,10|0,0:0|0:0,0:0:0
344,236,162874,5,4,0:0:0
448,152,163001,1,0,0:0:0
344,236,163128,2,0,B|252:236,1,90,8|0,0:0|0:0,0:0:0
168,268,163382,1,0,0:0:0
136,136,163510,1,0,0:0:0
224,144,163637,2,0,B|264:112|264:56,1,90,8|0,0:0|0:0,0:0:0
348,32,163891,5,2,0:0:0
348,32,164018,1,0,0:0:0
372,164,164145,1,10,0:0:0
372,164,164272,1,0,0:0:0
448,116,164399,1,2,0:0:0
412,276,164527,2,0,B|356:304,2,45,0|0|10,0:0|0:0|0:0,0:0:0
284,232,164781,1,0,0:0:0
284,232,164908,6,0,B|248:268|248:320,1,90,4|0,0:0|0:0,0:0:0
192,160,165162,2,0,B|204:208|180:256,1,90,8|0,0:0|0:0,0:0:0
112,196,165416,2,0,B|88:156|88:156|96:88|168:56,1,180,0|8,0:0|0:0,0:0:0
300,40,165798,6,0,B|284:88|232:96,1,90,2|0,0:0|0:0,0:0:0
368,108,166052,2,0,B|384:60|436:52,1,90,2|8,0:0|0:0,0:0:0
368,108,166306,2,0,B|396:156|396:156|400:224|348:276,1,180,2|0,0:0|0:0,0:0:0
220,244,166688,6,0,B|192:280|200:336,2,90,10|0|4,0:0|0:0|0:0,0:0:0
292,192,167069,1,8,0:0:0
292,192,167132,1,8,0:0:0
292,192,167196,1,8,0:0:0
256,108,167323,2,0,B|216:84|216:84|148:96|120:172,1,180,2|0,0:0|0:0,0:0:0
132,260,167705,1,8,0:0:0
32,352,167832,6,0,B|72:260|28:172,1,180,2|0,0:0|0:0,0:0:0
64,48,168213,1,8,0:0:0
64,48,168340,2,0,B|152:84|248:60,1,180,4|4,0:0|0:0,0:0:0
328,80,168721,2,0,B|368:56,2,45,10|0|0,0:0|0:0|0:0,0:0:0
256,196,168976,6,0,B|272:236|272:236|344:256|416:200,1,180,4|8,0:0|0:0,0:0:0
456,136,169357,1,0,0:0:0
440,296,169484,2,0,B|392:304|356:344,1,90
276,360,169738,2,0,B|224:340|200:296,1,90,8|0,0:0|0:0,0:0:0
72,304,169993,2,0,B|40:252|56:204|88:172|140:172,1,180,0|8,0:0|0:0,0:0:0
144,260,170374,1,0,0:0:0
60,100,170501,1,0,0:0:0
408,192,170755,1,8,0:0:0
408,192,170882,1,0,0:0:0
316,192,171010,6,0,B|296:236|320:280,1,90,4|0,0:0|0:0,0:0:0
220,188,171264,2,0,B|240:144|216:100,1,90,8|0,0:0|0:0,0:0:0
140,144,171518,1,0,0:0:0
60,100,171645,1,0,0:0:0
76,236,171772,2,0,B|100:280|76:328,1,90,8|0,0:0|0:0,0:0:0
168,344,172027,5,4,0:0:0
240,292,172154,1,0,0:0:0
248,204,172281,1,8,0:0:0
320,148,172408,1,0,0:0:0
280,68,172535,2,0,B|180:52,1,90
191,53,172726,1,8,0:0:0
191,53,172789,1,8,0:0:0
64,180,173044,5,4,0:0:0
332,192,173298,1,8,0:0:0
32,316,173552,1,0,0:0:0
256,32,173806,1,8,0:0:0
256,32,174060,6,0,B|192:104|232:208,1,180,4|8,0:0|0:0,0:0:0
292,264,174442,1,0,0:0:0
380,240,174569,2,0,B|428:220|472:240,2,90,0|0|8,0:0|0:0|0:0,0:0:0
352,324,174950,1,0,0:0:0
324,192,175077,5,4,0:0:0
92,56,175332,1,8,0:0:0
92,56,175586,2,0,B|128:144|92:236,1,180,0|8,0:0|0:0,0:0:0
328,96,176094,1,0,0:0:0
256,356,176349,5,8,0:0:0
256,340,176603,1,8,0:0:0
256,324,176857,1,8,0:0:0
256,308,177111,6,0,B|304:232,1,90,4|0,0:0|0:0,0:0:0
268,148,177366,2,0,B|368:148,1,90,8|0,0:0|0:0,0:0:0
436,192,177620,2,0,B|464:152|464:100|432:64|380:56,2,180,0|8|4,0:0|0:0|0:0,0:0:0
168,192,178382,2,0,B|144:144|172:100,1,90,8|0,0:0|0:0,0:0:0
248,148,178637,2,0,B|276:184|276:184|264:248|184:288,1,180,0|8,0:0|0:0,0:0:0
108,252,179018,1,0,0:0:0
108,252,179145,5,4,0:0:0
256,28,179399,1,8,0:0:0
40,188,179654,1,0,0:0:0
308,192,179908,1,8,0:0:0
308,192,180162,6,0,B|388:152,1,90,2|0,0:0|0:0,0:0:0
456,212,180416,2,0,B|476:120,1,90,2|0,0:0|0:0,0:0:0
456,36,180671,2,0,B|292:112,1,180,2|0,0:0|0:0,0:0:0
132,192,181179,5,4,0:0:0
132,192,181433,1,8,0:0:0
388,280,181688,1,0,0:0:0
388,280,181942,1,8,0:0:0
208,296,182196,1,0,0:0:0
256,32,182577,5,0,0:0:0
212,112,182705,2,0,B|212:160|252:188,1,90,0|0,0:0|0:0,0:0:0
340,196,182959,2,0,B|332:252|292:272,1,90,8|0,0:0|0:0,0:0:0
208,296,183213,6,0,B|152:212|52:184,1,180,4|8,0:0|0:0,0:0:0
340,196,183721,2,0,B|368:243|368:243|424:284|496:264,2,180,0|8|2,0:0|0:0|0:0,0:0:0
132,272,185247,6,0,B|188:220|180:136,1,144,4|2,0:0|0:0,0:0:0
152,76,185628,2,0,B|84:96,1,72,0|2,0:0|0:0,0:0:0
208,24,186010,1,2,0:0:0
208,24,186137,2,0,B|268:76|352:48,1,144,2|0,0:0|0:0,0:0:0
416,48,186518,1,2,0:0:0
436,192,186772,1,2,0:0:0
300,144,187027,1,2,0:0:0
300,144,187154,1,0,0:0:0
256,244,187281,6,0,B|184:220|112:244,1,144,2|0,0:0|0:0,0:0:0
60,292,187662,1,2,0:0:0
60,292,187789,2,0,B|24:256|24:256|16:208|56:168,1,144,2|0,0:0|0:0,0:0:0
124,156,188171,1,2,0:0:0
240,336,188425,1,2,0:0:0
240,336,188552,2,0,B|320:336|352:256,2,144,0|2|0,0:0|0:0|0:0,0:0:0
184,288,189188,1,2,0:0:0
184,288,189315,6,0,B|184:140,1,144,2|0,0:0|0:0,0:0:0
144,84,189696,1,2,0:0:0
240,32,189823,2,0,B|308:68|308:152,1,144,2|0,0:0|0:0,0:0:0
260,204,190205,1,2,0:0:0
436,80,190459,1,2,0:0:0
436,80,190586,2,0,B|420:152|472:220,2,144,2|0|0,0:0|0:0|0:0,0:0:0
380,36,191221,1,2,0:0:0
380,36,191349,5,2,0:0:0
352,176,191603,2,0,B|352:252,1,72,2|0,0:0|0:0,0:0:0
404,296,191857,2,0,B|372:340|372:340|328:352|276:320,1,144,2|0,0:0|0:0,0:0:0
256,260,192238,2,0,B|284:188|256:112,1,144,2|0,0:0|0:0,0:0:0
180,44,192620,2,0,B|152:116|180:192,2,144,2|2|0,0:0|0:0|0:0,0:0:0
428,192,193382,5,4,0:0:0
368,324,193637,2,0,B|288:324,1,72,2|0,0:0|0:0,0:0:0
228,344,193891,2,0,B|188:312|188:312|168:268|200:224,1,144,2|0,0:0|0:0,0:0:0
260,184,194272,2,0,B|252:104|188:64,1,144,2|0,0:0|0:0,0:0:0
124,100,194654,1,2,0:0:0
380,52,194908,1,2,0:0:0
380,52,195162,1,2,0:0:0
428,104,195289,1,0,0:0:0
412,176,195416,6,0,B|364:232|368:312,1,144,2|0,0:0|0:0,0:0:0
296,328,195798,1,2,0:0:0
296,328,195925,2,0,B|148:292,1,144,2|0,0:0|0:0,0:0:0
124,232,196306,2,0,B|140:192|140:192|132:144|76:112,1,144,2|0,0:0|0:0,0:0:0
188,108,196688,2,0,B|216:180|296:196,2,144,2|0|2,0:0|0:0|0:0,0:0:0
228,48,197323,1,0,0:0:0
256,192,197450,12,0,201518,0:0:0
