osu file format v11

[General]
AudioFilename: boot.mp3
AudioLeadIn: 0
PreviewTime: 63227
Countdown: 0
SampleSet: Soft
StackLeniency: 0.7
Mode: 0
LetterboxInBreaks: 1

[Editor]
Bookmarks: 44413
DistanceSpacing: 1.5
BeatDivisor: 4
GridSize: 4

[Metadata]
Title:boot
TitleUnicode:boot
Artist:paraoka
ArtistUnicode:paraoka
Creator:Laurier
Version:0108
Source:
Tags:val0108
BeatmapID:171256
BeatmapSetID:50479

[Difficulty]
HPDrainRate:6
CircleSize:4
OverallDifficulty:7
ApproachRate:9
SliderMultiplier:1.8
SliderTickRate:1

[Events]
//Background and Video events
0,0,"BG.jpg"
//Break Periods
2,87820,101257
//Storyboard Layer 0 (Background)
//Storyboard Layer 1 (Fail)
//Storyboard Layer 2 (Pass)
//Storyboard Layer 3 (Foreground)
//Storyboard Sound Samples
//Background Colour Transformations
3,100,163,162,255

[TimingPoints]
13383,254.237288135593,4,2,2,70,1,0
14209,-100,4,2,1,40,0,0
14399,-100,4,2,1,70,0,0
54823,-133.333333333333,4,2,1,70,0,0
58891,-100,4,2,1,70,0,0
62196,-100,4,2,1,20,0,0
62959,-100,4,2,1,70,0,0
63213,-100,4,2,1,70,0,1
79484,-100,4,2,1,70,0,0
86603,-100,4,2,1,20,0,0
87366,-100,4,2,1,70,0,0
101857,-100,4,2,1,70,0,0
128044,-133.333333333333,4,2,1,70,0,0
132111,-100,4,2,1,70,0,0
135416,-100,4,2,1,20,0,0
136179,-100,4,2,1,70,0,0
136433,-100,4,2,1,70,0,1
168976,-100,4,2,1,70,0,0
176349,-100,4,2,1,10,0,0
177111,-100,4,2,1,70,0,0
180289,-200,4,2,1,10,0,0
181179,-100,4,2,1,70,0,0
182450,-100,4,2,1,10,0,0
183213,-100,4,2,1,70,0,0
185247,-125,4,2,1,50,0,0
198467,-125,4,2,1,40,0,0
199484,-125,4,2,1,30,0,0
200501,-125,4,2,1,20,0,0
201518,-125,4,2,1,5,0,0

[Colours]
Combo1 : 255,179,142
Combo2 : 255,128,128
Combo3 : 255,172,255
Combo4 : 188,255,121

[HitObjects]
100,72,13382,1,0,0:0:0
248,172,13637,1,0,0:0:0
88,256,13891,1,0,0:0:0
52,160,14145,5,0,0:0:0
64,108,14209,1,8,0:0:0
100,72,14272,1,8,0:0:0
144,64,14336,1,8,0:0:0
196,72,14399,2,0,B|256:64|256:64|320:120|388:76,1,180,4|8,0:0|0:0,0:0:0
336,4,14781,1,0,0:0:0
232,152,14908,2,0,B|184:168|120:152,1,90
80,220,15162,1,8,0:0:0
157,258,15289,6,0,B|210:265|278:243|334:183,1,180
196,72,15671,1,8,0:0:0
232,152,15798,2,0,P|308:96|388:124,1,180
158,259,16179,2,0,B|130:215|142:171,1,90,8|0,0:0|0:0,0:0:0
320,197,16433,2,0,B|348:241|336:285,1,90
264,331,16688,2,0,B|292:287|356:279,1,90,8|0,0:0|0:0,0:0:0
372,368,16942,1,0,0:0:0
456,264,17069,1,0,0:0:0
412,136,17196,1,8,0:0:0
324,112,17323,2,0,B|332:68|372:36|432:24|488:80,1,180
412,136,17705,5,8,0:0:0
320,196,17832,1,0,0:0:0
272,108,17959,1,8,0:0:0
176,236,18086,1,0,0:0:0
135,72,18213,2,0,B|148:16|188:4,1,90,8|8,0:0|0:0,0:0:0
272,108,18467,6,0,B|192:160,1,90,4|0,0:0|0:0,0:0:0
24,192,18721,2,0,B|104:140,1,90,8|0,0:0|0:0,0:0:0
24,96,18976,1,0,0:0:0
112,248,19103,2,0,B|32:292,1,90,0|8,0:0|0:0,0:0:0
116,356,19357,6,0,B|184:356|184:356|204:380|204:380|300:380,1,180
378,232,19738,1,0,0:0:0
456,276,19866,2,0,P|374:317|293:267,1,180
223,205,20247,2,0,B|212:252|168:276,1,90,8|0,0:0|0:0,0:0:0
308,188,20501,2,0,B|340:152|400:132,1,90
496,248,20755,1,8,0:0:0
408,224,20883,1,0,0:0:0
468,156,21010,2,0,B|432:56,1,90
72,200,21264,2,0,B|132:280,1,90,8|0,0:0|0:0,0:0:0
204,228,21518,5,0,0:0:0
256,124,21645,1,0,0:0:0
308,228,21772,1,8,0:0:0
256,100,21899,1,0,0:0:0
188,240,22027,1,8,0:0:0
256,68,22154,1,0,0:0:0
324,240,22281,1,8,0:0:0
256,32,22408,1,8,0:0:0
256,32,22535,6,0,B|160:48,1,90,4|0,0:0|0:0,0:0:0
256,32,22789,2,0,B|352:48,1,90,8|0,0:0|0:0,0:0:0
448,120,23044,1,0,0:0:0
344,204,23171,2,0,B|248:220,1,90,0|8,0:0|0:0,0:0:0
184,272,23425,2,0,B|220:332|280:348|364:312,1,180
436,228,23806,1,8,0:0:0
312,176,23933,2,0,P|264:88|312:4,1,180
384,216,24315,2,0,B|356:260|308:272,1,90,8|0,0:0|0:0,0:0:0
52,324,24569,6,0,B|72:372|152:380,1,90
256,264,24823,2,0,B|256:160,1,90,8|0,0:0|0:0,0:0:0
459,325,25077,2,0,B|440:372|390:375,1,90
256,336,25332,1,8,0:0:0
208,212,25459,6,0,B|208:124|208:124|260:32,1,180
304,212,25840,2,0,B|304:324,1,90,8|0,0:0|0:0,0:0:0
160,160,26094,2,0,B|160:52,1,90
360,252,26349,2,0,B|360:360,1,90,8|8,0:0|0:0,0:0:0
104,116,26603,6,0,B|104:12,1,90,4|0,0:0|0:0,0:0:0
21,61,26857,1,8,0:0:0
21,150,26984,1,0,0:0:0
88,208,27111,2,0,B|88:312,2,90,0|0|8,0:0|0:0|0:0,0:0:0
21,150,27493,2,0,B|84:124|144:120|224:140,1,180
256,200,27874,1,8,0:0:0
324,260,28001,2,0,B|376:280|436:256,1,90
424,176,28255,2,0,B|472:116|468:44|388:-4,1,180,8|0,0:0|0:0,0:0:0
332,52,28637,5,4,0:0:0
256,96,28764,1,8,0:0:0
180,52,28891,1,0,0:0:0
104,100,29018,1,8,0:0:0
180,144,29145,1,0,0:0:0
256,96,29272,1,8,0:0:0
336,140,29399,1,8,0:0:0
408,100,29527,1,8,0:0:0
332,52,29654,6,0,B|248:228,1,180,0|8,0:0|0:0,0:0:0
180,52,30035,2,0,B|192:160,1,90,8|0,0:0|0:0,0:0:0
68,156,30289,2,0,B|212:288,1,180,8|0,0:0|0:0,0:0:0
216,292,30607,1,0,0:0:0
232,308,30671,1,4,0:0:0
472,240,30925,6,0,B|420:192|356:204|356:204|304:152,1,180,8|0,0:0|0:0,0:0:0
396,124,31306,1,0,0:0:0
396,280,31433,1,8,0:0:0
460,60,31560,2,0,B|408:16|332:36|308:96,1,180
224,60,31942,2,0,B|212:108|244:160,1,90,8|0,0:0|0:0,0:0:0
148,160,32196,2,0,B|160:212|216:236,1,90
152,304,32450,2,0,B|200:328|244:312,1,90,8|0,0:0|0:0,0:0:0
304,380,32705,6,0,B|336:332|312:276,1,90
324,168,32959,1,8,0:0:0
256,228,33086,1,0,0:0:0
208,4,33213,2,0,B|176:52|200:108,1,90
188,216,33467,1,8,0:0:0
256,156,33594,1,0,0:0:0
316,88,33721,6,0,B|416:88,2,90,0|0|8,0:0|0:0|0:0,0:0:0
152,208,34103,1,0,0:0:0
268,128,34230,2,0,B|368:128,2,90,0|0|8,0:0|0:0|0:0,0:0:0
112,196,34611,1,0,0:0:0
216,288,34738,1,0,0:0:0
216,96,34993,6,0,B|172:72|172:72|128:76,1,90,8|0,0:0|0:0,0:0:0
132,308,35247,2,0,B|172:312|172:312|216:288,1,90
176,192,35501,1,8,0:0:0
92,228,35628,2,0,B|32:264|24:344|92:392,1,180
176,192,36010,2,0,B|148:144|88:140,1,90,8|0,0:0|0:0,0:0:0
28,100,36264,2,0,B|56:140|116:144,1,90
188,16,36518,2,0,B|132:24|112:72,1,90,8|8,0:0|0:0,0:0:0
196,100,36772,5,0,0:0:0
196,100,37027,1,2,0:0:0
432,232,37281,1,0,0:0:0
432,232,37535,1,2,0:0:0
396,8,37789,5,0,0:0:0
324,60,37916,1,8,0:0:0
356,92,37980,1,8,0:0:0
400,104,38044,1,8,0:0:0
412,196,38171,1,0,0:0:0
348,284,38298,1,8,0:0:0
304,284,38361,1,8,0:0:0
260,272,38425,1,8,0:0:0
228,240,38488,1,8,0:0:0
212,200,38552,1,8,0:0:0
236,92,38679,1,0,0:0:0
312,180,38806,1,4,0:0:0
108,96,39060,6,0,B|40:172,1,90,8|0,0:0|0:0,0:0:0
4,240,39315,1,0,0:0:0
164,296,39442,1,0,0:0:0
48,360,39569,1,8,0:0:0
84,272,39696,6,0,B|116:200|120:128|104:80,1,180
36,44,40077,2,0,B|72:4|136:16,1,90,8|0,0:0|0:0,0:0:0
256,102,40332,2,0,B|256:202,1,90
476,44,40586,2,0,B|440:4|376:16,1,90,8|0,0:0|0:0,0:0:0
160,116,40840,6,0,B|128:196|128:196|176:308,1,180,0|8,0:0|0:0,0:0:0
256,192,41221,1,0,0:0:0
128,36,41349,2,0,B|96:116|96:116|144:228,1,180,0|8,0:0|0:0,0:0:0
256,148,41730,1,0,0:0:0
352,268,41857,6,0,B|384:188|384:188|336:76,1,180,0|8,0:0|0:0,0:0:0
256,192,42238,1,0,0:0:0
384,348,42366,2,0,B|416:268|416:268|368:156,1,180,0|8,0:0|0:0,0:0:0
256,236,42747,1,0,0:0:0
256,236,42874,1,0,0:0:0
92,332,43128,6,0,B|40:240,1,90,8|0,0:0|0:0,0:0:0
92,52,43383,2,0,B|40:144,1,90
136,192,43637,1,8,0:0:0
196,272,43764,2,0,B|240:192|240:192|192:108,1,180
232,32,44145,6,0,B|296:120,1,90,8|0,0:0|0:0,0:0:0
232,352,44399,2,0,B|296:264,1,90,0|8,0:0|0:0,0:0:0
352,192,44654,2,0,B|444:192,1,90,8|8,0:0|0:0,0:0:0
472,88,44908,5,8,0:0:0
472,88,45162,1,10,0:0:0
40,88,45416,1,8,0:0:0
40,88,45671,1,10,0:0:0
256,112,45925,5,0,0:0:0
300,192,46052,1,8,0:0:0
256,208,46116,1,8,0:0:0
212,192,46179,1,8,0:0:0
124,216,46306,1,0,0:0:0
172,292,46433,1,8,0:0:0
212,312,46497,1,8,0:0:0
256,316,46560,1,8,0:0:0
300,308,46624,1,8,0:0:0
340,288,46688,1,8,0:0:0
388,216,46815,1,0,0:0:0
364,128,46942,6,0,B|432:52|432:52|480:44|504:80,1,180,4|8,0:0|0:0,0:0:0
460,156,47323,1,0,0:0:0
388,216,47450,2,0,B|336:224|300:184,1,90,0|8,0:0|0:0,0:0:0
124,216,47705,2,0,B|176:224|212:184,1,90,8|8,0:0|0:0,0:0:0
256,0,47959,2,0,B|212:28|212:28|280:64|252:144,1,180,0|8,0:0|0:0,0:0:0
172,104,48340,1,0,0:0:0
84,128,48467,2,0,B|32:36,1,90,0|8,0:0|0:0,0:0:0
0,308,48721,2,0,B|44:229,1,90,8|8,0:0|0:0,0:0:0
176,307,48976,6,0,B|115:331|62:335|-14:303,1,180,0|8,0:0|0:0,0:0:0
92,160,49357,1,0,0:0:0
172,104,49484,2,0,B|192:148|180:204,1,90
260,268,49738,2,0,B|312:264|360:296,1,90,8|8,0:0|0:0,0:0:0
276,180,49993,2,0,B|416:36,1,180,0|8,0:0|0:0,0:0:0
456,124,50374,1,0,0:0:0
464,212,50501,2,0,B|356:172,1,90
256,96,50755,5,8,0:0:0
244,92,50819,1,8,0:0:0
232,88,50883,1,8,0:0:0
220,84,50946,1,8,0:0:0
208,80,51010,2,0,B|152:64|152:64|120:124|20:120,1,180,0|8,0:0|0:0,0:0:0
68,32,51391,1,0,0:0:0
51,120,51518,2,0,B|47:208|131:208|103:296,1,180,8|0,0:0|0:0,0:0:0
404,284,52027,2,0,B|380:208|464:208|460:120,1,180,8|8,0:0|0:0,0:0:0
256,36,52535,2,0,B|216:100|304:144|244:232,1,180,8|8,0:0|0:0,0:0:0
256,192,53044,12,0,54569,0:0:0
256,300,54823,5,0,0:0:0
256,232,54950,1,0,0:0:0
256,164,55077,2,0,B|200:116|120:108,1,135.000005149842,4|2,0:0|0:0,0:0:0
88,160,55459,2,0,B|68:200|92:248,1,67.5000025749208,0|0,0:0|0:0,0:0:0
168,320,55713,2,0,B|188:280|164:232,1,67.5000025749208,2|0,0:0|0:0,0:0:0
339,254,55967,2,0,B|324:280|344:320,1,67.5000025749208,2|0,0:0|0:0,0:0:0
428,225,56221,2,0,B|444:200|424:160,1,67.5000025749208,2|0,0:0|0:0,0:0:0
325,41,56476,2,0,B|312:72|324:108,1,67.5000025749208,2|0,0:0|0:0,0:0:0
300,172,56730,5,0,0:0:0
256,228,56857,1,8,0:0:0
212,172,56984,1,8,0:0:0
188,108,57111,6,0,B|200:72|186:41,1,67.5000025749208,4|0,0:0|0:0,0:0:0
116,80,57366,1,2,0:0:0
112,160,57493,2,0,B|72:152|48:112,1,67.5000025749208
48,44,57747,1,2,0:0:0
48,44,57874,2,0,B|72:8|120:0,1,67.5000025749208,2|0,0:0|0:0,0:0:0
256,80,58128,2,0,B|316:112|316:112|388:104,1,135.000005149842,2|0,0:0|0:0,0:0:0
332,24,58510,1,2,0:0:0
256,280,58891,5,0,0:0:0
256,280,59018,1,0,0:0:0
172,248,59145,6,0,B|137:209|143:164,1,90,4|8,0:0|0:0,0:0:0
52,200,59399,1,8,0:0:0
101,301,59527,2,0,B|120:260|176:246,1,90,0|8,0:0|0:0,0:0:0
52,200,59781,1,8,0:0:0
194,92,59908,2,0,B|227:118|222:175,1,90,0|8,0:0|0:0,0:0:0
52,200,60162,1,8,0:0:0
176,335,60289,2,0,B|144:379|101:381,1,90,0|8,0:0|0:0,0:0:0
52,200,60544,1,8,0:0:0
108,128,60671,2,0,B|92:84,2,45,8|8|8,0:0|0:0|0:0,0:0:0
256,280,60925,5,0,0:0:0
256,280,61052,1,0,0:0:0
340,248,61179,6,0,B|374:209|368:164,1,90,4|8,0:0|0:0,0:0:0
460,187,61433,1,8,0:0:0
411,301,61560,2,0,B|391:260|335:246,1,90,0|8,0:0|0:0,0:0:0
460,187,61815,1,8,0:0:0
336,335,61942,2,0,B|367:379|429:383,1,90,8|8,0:0|0:0,0:0:0
460,188,62196,5,0,0:0:0
296,168,62323,1,0,0:0:0
320,8,62450,1,0,0:0:0
480,28,62577,1,0,0:0:0
392,104,62705,1,0,0:0:0
392,104,62959,6,0,B|432:100,6,22.5
392,104,63213,6,0,B|360:56|292:68,1,90,4|0,0:0|0:0,0:0:0
256,244,63467,2,0,B|304:212|292:144,1,90,8|0,0:0|0:0,0:0:0
204,176,63721,1,0,0:0:0
40,168,63849,1,0,0:0:0
100,320,63976,1,8,0:0:0
112,232,64103,2,0,B|140:144|140:144|108:60,1,180
40,4,64484,1,8,0:0:0
108,62,64611,2,0,B|152:32|212:48,1,90
328,40,64866,1,0,0:0:0
420,140,64993,2,0,B|308:156,1,90,8|0,0:0|0:0,0:0:0
356,312,65247,5,0,0:0:0
356,312,65374,1,0,0:0:0
264,304,65501,2,0,B|248:192,1,90,8|0,0:0|0:0,0:0:0
184,160,65755,1,0,0:0:0
264,112,65882,2,0,B|252:23,1,90,0|8,0:0|0:0,0:0:0
184,160,66137,6,0,B|276:128|364:136,1,180
424,72,66518,1,8,0:0:0
361,135,66645,1,0,0:0:0
500,72,66772,1,8,0:0:0
360,212,66899,1,0,0:0:0
496,148,67027,1,8,0:0:0
436,212,67154,1,8,0:0:0
512,220,67281,6,0,B|480:316,1,90,4|0,0:0|0:0,0:0:0
400,332,67535,1,8,0:0:0
336,268,67662,1,0,0:0:0
260,220,67789,2,0,B|216:208|156:224,1,90
92,264,68044,1,8,0:0:0
144,336,68171,2,0,B|208:364|268:364|340:332,1,180
324,204,68552,1,8,0:0:0
416,104,68679,2,0,B|352:76|292:76|220:108,1,180
179,265,69060,2,0,B|133:247|77:267,1,90,8|0,0:0|0:0,0:0:0
56,344,69315,6,0,B|12:308|8:256,1,90
52,108,69569,1,8,0:0:0
72,196,69696,1,8,0:0:0
136,132,69823,1,0,0:0:0
12,68,69950,1,0,0:0:0
48,244,70077,1,8,0:0:0
188,116,70205,6,0,B|260:76|260:76|360:76,1,180
224,200,70586,2,0,B|120:200,1,90,8|0,0:0|0:0,0:0:0
312,112,70840,2,0,B|408:112,1,90,8|8,0:0|0:0,0:0:0
176,240,71094,2,0,B|80:240,1,90,8|0,0:0|0:0,0:0:0
364,148,71349,6,0,B|464:148|464:148|504:184|504:244,1,180,4|8,0:0|0:0,0:0:0
480,304,71730,1,0,0:0:0
416,240,71857,1,0,0:0:0
288,196,71984,2,0,B|272:248|296:296,1,90,0|8,0:0|0:0,0:0:0
416,240,72238,2,0,B|424:40,1,180
288,52,72620,1,8,0:0:0
180,120,72747,2,0,B|172:320,1,180
336,384,73128,2,0,B|340:284,1,90,8|0,0:0|0:0,0:0:0
260,172,73383,5,0,0:0:0
208,244,73510,1,0,0:0:0
132,196,73637,1,8,0:0:0
180,120,73764,1,8,0:0:0
264,88,73891,5,0,0:0:0
132,196,74018,2,0,B|88:224|82:268,1,90,0|8,0:0|0:0,0:0:0
165,327,74272,2,0,B|200:244|284:268|272:356,1,180
88,384,74654,1,8,0:0:0
16,240,74781,1,0,0:0:0
92,288,74908,1,8,0:0:0
80,128,75035,1,0,0:0:0
132,200,75162,1,8,0:0:0
164,40,75289,1,8,0:0:0
200,124,75416,6,0,B|244:100|244:100|264:52,2,90,4|0|8,0:0|0:0|0:0,0:0:0
88,56,75798,1,0,0:0:0
24,117,75925,2,0,B|112:153|212:121,1,180,0|8,0:0|0:0,0:0:0
91,276,76306,2,0,B|97:213|81:157|25:117,1,180
184,228,76688,1,8,0:0:0
176,316,76815,2,0,B|148:356|88:368,1,90,0|8,0:0|0:0,0:0:0
92,276,77069,2,0,B|140:228|192:208|288:220,1,180,8|8,0:0|0:0,0:0:0
344,240,77450,6,0,B|452:240,1,90,12|0,0:0|0:0,0:0:0
492,312,77705,2,0,B|384:312,1,90,8|0,0:0|0:0,0:0:0
168,144,77959,2,0,B|60:144,1,90,8|0,0:0|0:0,0:0:0
20,72,78213,2,0,B|128:72,1,90,8|0,0:0|0:0,0:0:0
360,192,78467,1,8,0:0:0
256,276,78594,1,0,0:0:0
152,192,78721,1,8,0:0:0
256,108,78849,1,8,0:0:0
256,108,79103,2,0,B|264:128|264:128|240:148|240:148|272:176|272:176|256:216|256:216|256:280,1,180,0|8,0:0|0:0,0:0:0
256,276,79421,1,8,0:0:0
256,296,79484,6,0,B|224:356|224:356|156:376|92:352,1,180,4|8,0:0|0:0,0:0:0
160,280,79866,1,8,0:0:0
72,260,79993,2,0,B|104:200|104:200|172:180|236:204,1,180,0|8,0:0|0:0,0:0:0
214,197,80374,1,8,0:0:0
256,88,80501,2,0,B|288:28|288:28|356:8|420:32,1,180,0|8,0:0|0:0,0:0:0
352,104,80882,1,8,0:0:0
440,124,81010,2,0,B|408:184|408:184|340:204|276:180,1,180,0|8,0:0|0:0,0:0:0
297,186,81391,1,8,0:0:0
168,120,81518,6,0,B|124:92|124:40,1,90
52,192,81772,2,0,B|148:192,1,90,8|8,0:0|0:0,0:0:0
168,264,82027,2,0,B|124:292|124:344,1,90
256,328,82281,2,0,B|256:208,1,90,8|8,0:0|0:0,0:0:0
256,58,82535,2,0,B|256:262,1,180,0|8,0:0|0:0,0:0:0
256,238,82916,1,8,0:0:0
344,120,83044,2,0,B|388:92|388:40,1,90,0|8,0:0|0:0,0:0:0
460,192,83298,2,0,B|364:192,1,90,8|8,0:0|0:0,0:0:0
344,264,83552,6,0,B|388:292|388:344,1,90,4|0,0:0|0:0,0:0:0
124,338,83806,2,0,B|124:292|168:264,1,90,8|8,0:0|0:0,0:0:0
320,176,84060,2,0,B|280:192|248:256,1,90
212,336,84315,2,0,B|256:356|256:356|316:324,1,90,8|8,0:0|0:0,0:0:0
258,238,84569,2,0,B|234:197|194:177,1,90
64,128,84823,2,0,B|108:108|128:64,1,90,8|8,0:0|0:0,0:0:0
384,68,85077,2,0,B|398:106|448:127,1,90
320,176,85332,2,0,B|276:196|248:256,1,90,8|8,0:0|0:0,0:0:0
172,92,85586,5,4,0:0:0
340,92,85840,1,4,0:0:0
80,164,86094,1,4,0:0:0
432,164,86349,1,4,0:0:0
172,240,86603,5,0,0:0:0
340,92,86730,1,0,0:0:0
172,92,86857,1,0,0:0:0
340,240,86984,1,0,0:0:0
255,163,87111,2,0,B|298:222|202:254|256:332,1,180,0|8,0:0|0:0,0:0:0
256,336,87429,1,8,0:0:0
256,340,87493,1,8,0:0:0
256,344,87556,1,8,0:0:0
256,348,87620,1,12,0:0:0
256,192,101857,12,4,103891,0:0:0
464,72,104145,6,0,B|416:108|352:108|288:64,1,180,8|0,0:0|0:0,0:0:0
208,48,104527,1,0,0:0:0
272,148,104654,1,8,0:0:0
184,132,104781,2,0,B|116:104|124:36|124:36|48:56,1,180
24,140,105162,2,0,B|124:184,1,90,8|0,0:0|0:0,0:0:0
160,248,105416,2,0,B|82:293,1,90
192,380,105671,2,0,B|232:280,1,90,8|0,0:0|0:0,0:0:0
256,192,105925,6,0,B|319:232|387:228|447:176,1,180,0|8,0:0|0:0,0:0:0
359,112,106306,1,0,0:0:0
256,192,106433,2,0,B|279:132|275:64|223:12,1,180,0|8,0:0|0:0,0:0:0
147,76,106815,1,0,0:0:0
255,192,106942,2,0,B|192:152|124:156|64:208,1,180,0|8,0:0|0:0,0:0:0
128,280,107323,1,0,0:0:0
256,193,107450,2,0,B|216:256|220:324|272:384,1,180,0|8,0:0|0:0,0:0:0
336,304,107832,1,8,0:0:0
336,304,107959,1,0,0:0:0
372,128,108213,6,0,B|408:108|408:108|456:116,1,90,8|0,0:0|0:0,0:0:0
456,268,108467,2,0,B|408:276|408:276|372:256,1,90
308,192,108721,1,8,0:0:0
308,192,108849,2,0,B|232:164|176:244|100:180,1,180
131,199,109230,2,0,B|152:152|120:96,1,90,8|0,0:0|0:0,0:0:0
8,275,109484,2,0,B|48:251|96:272,1,90,0|8,0:0|0:0,0:0:0
216,336,109738,2,0,B|176:359|128:339,1,90,8|0,0:0|0:0,0:0:0
52,356,109993,5,8,0:0:0
52,356,110247,1,10,0:0:0
108,76,110501,1,8,0:0:0
108,76,110755,1,10,0:0:0
300,268,111010,5,0,0:0:0
236,205,111137,1,8,0:0:0
213,245,111200,1,8,0:0:0
211,290,111264,1,8,0:0:0
146,352,111391,1,0,0:0:0
72,300,111518,1,8,0:0:0
62,257,111582,1,8,0:0:0
70,209,111645,1,8,0:0:0
85,164,111709,1,8,0:0:0
114,130,111772,1,8,0:0:0
204,119,111899,1,0,0:0:0
140,227,112027,1,4,0:0:0
284,120,112281,6,0,B|308:80|356:68,1,90,8|0,0:0|0:0,0:0:0
452,184,112535,2,0,B|428:224|380:236,1,90
316,300,112789,1,8,0:0:0
292,212,112916,2,0,B|368:208|408:256|420:340,1,180
236,276,113298,2,0,B|200:236|216:176,1,90,8|0,0:0|0:0,0:0:0
270,129,113552,2,0,B|306:169|290:229,1,90
108,108,113806,2,0,B|148:72|208:88,1,90,8|0,0:0|0:0,0:0:0
108,108,114060,6,0,B|152:172|68:208|120:300,1,180,0|8,0:0|0:0,0:0:0
256,192,114442,1,0,0:0:0
404,276,114569,2,0,B|360:212|444:176|392:84,1,180,0|8,0:0|0:0,0:0:0
256,72,114950,1,0,0:0:0
180,268,115077,2,0,B|256:316|256:316|336:264,1,180,0|8,0:0|0:0,0:0:0
256,192,115459,1,0,0:0:0
332,116,115586,2,0,B|256:68|256:68|176:120,1,180,0|8,0:0|0:0,0:0:0
128,192,115967,1,8,0:0:0
384,192,116094,1,4,0:0:0
256,192,116349,5,8,0:0:0
128,64,116603,1,0,0:0:0
68,232,116857,1,8,0:0:0
152,160,116984,2,0,B|212:104|212:104|312:80,1,180
352,160,117366,2,0,B|452:160,1,90,8|0,0:0|0:0,0:0:0
505,223,117620,1,8,0:0:0
505,312,117747,1,8,0:0:0
441,375,117874,1,8,0:0:0
351,375,118001,1,8,0:0:0
287,311,118128,5,8,0:0:0
287,311,118382,1,10,0:0:0
224,72,118637,1,8,0:0:0
224,72,118891,1,10,0:0:0
256,192,119145,5,0,0:0:0
177,149,119272,1,8,0:0:0
168,192,119336,1,8,0:0:0
176,237,119399,1,8,0:0:0
124,312,119527,1,0,0:0:0
48,280,119654,1,8,0:0:0
26,242,119717,1,8,0:0:0
21,194,119781,1,8,0:0:0
23,146,119844,1,8,0:0:0
41,105,119908,1,8,0:0:0
122,75,120035,1,0,0:0:0
88,192,120162,6,0,B|293:191,1,180,4|8,0:0|0:0,0:0:0
316,112,120544,1,0,0:0:0
368,236,120671,2,0,B|162:236,1,180,0|8,0:0|0:0,0:0:0
140,316,121052,1,0,0:0:0
268,284,121179,2,0,B|368:284,1,90
416,164,121433,1,8,0:0:0
496,204,121560,1,0,0:0:0
447,283,121688,2,0,B|468:332|448:376,1,90,0|8,0:0|0:0,0:0:0
320,200,121942,2,0,B|299:151|319:107,1,90,8|8,0:0|0:0,0:0:0
426,54,122196,6,0,B|314:210,1,180,0|8,0:0|0:0,0:0:0
268,272,122577,1,0,0:0:0
350,285,122705,2,0,B|396:268|408:220,1,90
161,98,122959,2,0,B|116:116|104:164,1,90,8|8,0:0|0:0,0:0:0
221,319,123213,6,0,B|256:236,1,90,8|0,0:0|0:0,0:0:0
290,64,123467,2,0,B|256:148,1,90,8|0,0:0|0:0,0:0:0
152,264,123721,1,8,0:0:0
76,312,123849,1,0,0:0:0
16,244,123976,1,8,0:0:0
20,232,124039,1,8,0:0:0
24,220,124103,1,8,0:0:0
28,208,124166,1,8,0:0:0
32,196,124230,6,0,B|80:72|80:72|140:48,1,180,0|8,0:0|0:0,0:0:0
180,124,124611,1,0,0:0:0
248,68,124738,2,0,B|284:112|264:176,1,90,0|8,0:0|0:0,0:0:0
248,68,124993,2,0,B|272:20|336:4,1,90,8|8,0:0|0:0,0:0:0
388,54,125247,2,0,B|432:72|432:72|480:196,1,180,8|8,0:0|0:0,0:0:0
256,352,125755,2,0,B|248:316|264:264|264:264|248:264|248:264|264:228|256:160,1,180,8|8,0:0|0:0,0:0:0
256,192,126264,12,0,127789,0:0:0
256,84,128044,5,0,0:0:0
256,152,128171,1,0,0:0:0
256,220,128298,2,0,B|200:268|120:276,1,135.000005149842,4|2,0:0|0:0,0:0:0
88,224,128679,2,0,B|68:184|92:136,1,67.5000025749208
168,64,128933,2,0,B|188:104|164:152,1,67.5000025749208,2|0,0:0|0:0,0:0:0
339,130,129188,2,0,B|324:104|344:64,1,67.5000025749208,2|0,0:0|0:0,0:0:0
428,159,129442,2,0,B|444:184|424:224,1,67.5000025749208,2|0,0:0|0:0,0:0:0
325,343,129696,2,0,B|312:312|324:276,1,67.5000025749208,2|0,0:0|0:0,0:0:0
300,212,129950,5,0,0:0:0
256,156,130077,1,8,0:0:0
212,212,130205,1,8,0:0:0
188,276,130332,6,0,B|200:312|186:343,1,67.5000025749208
116,304,130586,1,0,0:0:0
112,224,130713,2,0,B|72:232|48:272,1,67.5000025749208,2|0,0:0|0:0,0:0:0
48,340,130967,1,2,0:0:0
48,340,131094,2,0,B|72:376|120:384,1,67.5000025749208,2|0,0:0|0:0,0:0:0
256,304,131349,2,0,B|316:272|316:272|388:280,1,135.000005149842,2|0,0:0|0:0,0:0:0
332,360,131730,1,2,0:0:0
256,192,132111,5,0,0:0:0
256,192,132238,1,0,0:0:0
212,112,132366,6,0,B|168:96|120:104,1,90,4|8,0:0|0:0,0:0:0
44,148,132620,1,8,0:0:0
124,264,132747,2,0,B|168:280|216:272,1,90,0|8,0:0|0:0,0:0:0
256,192,133001,1,8,0:0:0
300,112,133128,2,0,B|344:96|392:104,1,90,0|8,0:0|0:0,0:0:0
468,148,133382,1,8,0:0:0
388,264,133510,2,0,B|344:280|296:272,1,90,0|8,0:0|0:0,0:0:0
256,192,133764,1,8,0:0:0
256,104,133891,2,0,B|256:0,1,90,8|8,0:0|0:0,0:0:0
172,44,134145,5,8,0:0:0
72,192,134272,1,0,0:0:0
172,340,134399,2,8,B|212:308,2,45,4|8|8,0:0|0:0|0:0,0:0:0
104,192,134654,1,0,0:0:0
172,44,134781,2,8,B|212:76,2,45,8|8|8,0:0|0:0|0:0,0:0:0
140,192,135035,1,0,0:0:0
229,192,135162,2,0,B|319:192,1,90,8|8,0:0|0:0,0:0:0
380,272,135416,5,0,0:0:0
380,112,135544,1,0,0:0:0
440,334,135671,1,0,0:0:0
440,52,135798,1,0,0:0:0
476,192,135925,1,0,0:0:0
476,192,136179,6,0,B|512:192,6,22.5
476,192,136433,6,0,B|288:192,1,180,4|8,0:0|0:0,0:0:0
256,108,136815,1,0,0:0:0
212,188,136942,2,0,B|208:236|264:288,2,90,0|0|8,0:0|0:0|0:0,0:0:0
66,261,137323,2,0,B|138:249|201:251|274:277,1,180
184,336,137705,1,8,0:0:0
92,176,137832,2,0,B|184:104,1,90
256,108,138086,1,0,0:0:0
104,64,138213,2,0,B|37:-4,1,90,8|0,0:0|0:0,0:0:0
16,112,138467,5,0,0:0:0
168,224,138594,1,0,0:0:0
40,272,138721,1,8,0:0:0
156,88,138849,1,0,0:0:0
92,176,138976,5,0,0:0:0
168,224,139103,2,0,B|272:208,1,90,0|8,0:0|0:0,0:0:0
432,160,139357,2,0,B|408:104|348:76|268:96,1,180
332,168,139738,1,8,0:0:0
472,276,139866,1,0,0:0:0
328,248,139993,1,8,0:0:0
400,312,140120,1,0,0:0:0
312,336,140247,1,8,0:0:0
312,336,140374,1,8,0:0:0
312,336,140501,6,0,B|440:172,1,180,4|8,0:0|0:0,0:0:0
384,112,140882,1,0,0:0:0
308,64,141010,2,0,B|264:36|200:44,2,90,0|0|8,0:0|0:0|0:0,0:0:0
308,64,141391,2,0,B|256:120|248:160|264:236,1,180
340,160,141772,1,8,0:0:0
176,224,141899,2,0,B|176:272|220:297,1,90
332,236,142154,1,0,0:0:0
168,360,142281,2,0,B|220:392|251:366,1,90,8|0,0:0|0:0,0:0:0
320,312,142535,5,0,0:0:0
232,156,142662,1,0,0:0:0
144,148,142789,2,0,B|96:172|88:224,1,90,8|8,0:0|0:0,0:0:0
176,224,143044,1,0,0:0:0
322,167,143171,1,0,0:0:0
196,72,143298,1,8,0:0:0
144,148,143425,6,0,B|216:176|280:148|296:56,1,180
100,80,143806,2,0,B|56:108|56:164,1,90,8|0,0:0|0:0,0:0:0
96,236,144060,1,8,0:0:0
104,372,144188,1,8,0:0:0
104,372,144251,1,8,0:0:0
104,372,144315,2,0,B|148:344|148:288,1,90,8|8,0:0|0:0,0:0:0
56,296,144569,6,0,B|104:344|168:360|224:344,1,180,4|8,0:0|0:0,0:0:0
256,260,144950,1,0,0:0:0
332,304,145077,1,0,0:0:0
384,232,145205,2,0,B|416:196|476:212,1,90,0|8,0:0|0:0,0:0:0
384,232,145459,2,0,B|336:176|340:120|340:120|264:88,1,180
260,184,145840,1,8,0:0:0
428,152,145967,2,0,B|476:56,1,90
416,0,146221,1,0,0:0:0
326,17,146349,2,0,B|278:113,1,90,8|0,0:0|0:0,0:0:0
200,128,146603,5,0,0:0:0
68,100,146730,1,0,0:0:0
160,200,146857,1,8,0:0:0
148,56,146984,1,0,0:0:0
72,184,147111,1,0,0:0:0
148,56,147238,2,0,B|196:60|240:20,1,90,0|8,0:0|0:0,0:0:0
200,128,147493,2,0,B|232:120|256:144|256:144|292:176|292:176|324:204|380:192,1,180
160,200,147874,2,0,B|184:244|252:232,1,90,8|0,0:0|0:0,0:0:0
72,184,148128,2,0,B|64:236|112:284,1,90,8|8,0:0|0:0,0:0:0
68,100,148382,2,0,B|20:108|-8:168,1,90,8|8,0:0|0:0,0:0:0
16,340,148637,6,0,B|80:372|80:372|132:336|200:340,1,180,4|8,0:0|0:0,0:0:0
268,320,149018,1,0,0:0:0
208,252,149145,2,0,B|244:224|304:232,2,90,0|0|8,0:0|0:0|0:0,0:0:0
268,320,149527,2,0,B|460:360,1,180
416,272,149908,1,8,0:0:0
392,184,150035,2,0,B|200:144,1,180
388,96,150416,2,0,B|492:120,1,90,8|0,0:0|0:0,0:0:0
392,184,150671,6,0,B|328:264,1,90
120,200,150925,2,0,B|184:120,1,90,8|8,0:0|0:0,0:0:0
256,88,151179,1,0,0:0:0
256,192,151306,1,0,0:0:0
256,296,151433,1,8,0:0:0
168,296,151560,6,0,B|116:324|36:296|24:208,1,180
120,200,151942,2,0,B|160:180|220:208,1,90,8|8,0:0|0:0,0:0:0
272,264,152196,1,0,0:0:0
292,252,152260,1,0,0:0:0
312,240,152323,1,0,0:0:0
332,228,152387,1,0,0:0:0
352,216,152450,1,8,0:0:0
372,204,152514,1,8,0:0:0
392,192,152577,1,8,0:0:0
412,180,152641,1,8,0:0:0
432,168,152705,6,0,B|456:120|436:76,1,90,4|0,0:0|0:0,0:0:0
80,168,152959,2,0,B|56:120|76:76,1,90,8|0,0:0|0:0,0:0:0
144,24,153213,1,8,0:0:0
312,92,153340,1,0,0:0:0
140,148,153467,1,8,0:0:0
248,4,153594,2,0,B|212:72|216:120|256:180,1,180
251,173,153976,1,8,0:0:0
251,173,154103,2,0,B|286:226|290:274|254:342,1,180
176,300,154484,2,0,B|96:244,1,90,8|0,0:0|0:0,0:0:0
36,312,154738,5,8,0:0:0
160,192,154866,1,0,0:0:0
136,12,154993,1,8,0:0:0
0,120,155120,1,0,0:0:0
160,192,155247,1,8,0:0:0
160,192,155374,2,0,B|256:192,1,90,0|8,0:0|0:0,0:0:0
288,112,155628,6,0,B|328:72|328:72|388:40|472:64,1,180
356,216,156010,2,0,B|444:188,1,90,8|0,0:0|0:0,0:0:0
436,320,156264,1,0,0:0:0
416,328,156327,1,0,0:0:0
392,332,156391,1,0,0:0:0
368,332,156455,1,0,0:0:0
348,324,156518,1,8,0:0:0
328,312,156582,1,8,0:0:0
312,296,156645,1,8,0:0:0
300,276,156709,1,8,0:0:0
296,256,156772,6,0,B|304:200|260:160,1,90,4|0,0:0|0:0,0:0:0
112,148,157027,2,0,B|140:116|196:124,1,90,8|0,0:0|0:0,0:0:0
180,204,157281,1,8,0:0:0
32,308,157408,1,0,0:0:0
212,304,157535,1,8,0:0:0
60,204,157662,2,0,P|112:272|116:376,1,180
60,204,158044,1,8,0:0:0
104,28,158171,1,0,0:0:0
272,92,158298,2,0,B|272:44|240:0,1,90,8|0,0:0|0:0,0:0:0
152,160,158552,2,0,B|152:208|184:252,1,90,8|0,0:0|0:0,0:0:0
148,328,158806,5,8,0:0:0
0,244,158933,1,8,0:0:0
152,160,159060,1,0,0:0:0
52,312,159188,1,0,0:0:0
92,104,159315,2,0,B|72:16,2,90,8|0|8,0:0|0:0|0:0,0:0:0
242,58,159696,2,0,B|206:126|162:138|70:94,1,180
152,40,160077,1,8,0:0:0
260,160,160205,1,0,0:0:0
320,92,160332,5,0,0:0:0
348,76,160395,1,0,0:0:0
380,68,160459,1,0,0:0:0
412,72,160522,1,0,0:0:0
440,88,160586,1,8,0:0:0
460,112,160649,1,8,0:0:0
472,140,160713,1,8,0:0:0
476,172,160777,1,8,0:0:0
472,204,160840,6,0,B|452:256|476:304,1,90,4|0,0:0|0:0,0:0:0
336,352,161094,2,0,B|352:304|340:256,1,90,8|0,0:0|0:0,0:0:0
256,104,161349,1,8,0:0:0
212,228,161476,2,0,B|256:248|256:248|296:228,1,90,0|8,0:0|0:0,0:0:0
40,180,161730,2,0,B|60:128|41:92,1,90,0|8,0:0|0:0,0:0:0
176,32,161984,2,0,B|160:80|170:120,1,90,0|8,0:0|0:0,0:0:0
341,120,162238,2,0,B|352:80|336:32,1,90,0|8,0:0|0:0,0:0:0
256,104,162493,1,0,0:0:0
256,192,162620,2,0,B|256:296,1,90,8|0,0:0|0:0,0:0:0
192,344,162874,5,8,0:0:0
88,200,163001,1,0,0:0:0
72,380,163128,1,8,0:0:0
184,240,163255,1,0,0:0:0
12,288,163382,2,0,B|120:276,2,90,8|0|8,0:0|0:0|0:0,0:0:0
72,380,163764,2,0,B|88:192,1,180
112,116,164145,5,8,0:0:0
32,68,164272,1,0,0:0:0
240,116,164399,1,8,0:0:0
180,48,164527,1,0,0:0:0
320,40,164654,1,8,0:0:0
332,72,164717,1,8,0:0:0
340,108,164781,1,8,0:0:0
336,144,164844,1,8,0:0:0
320,176,164908,6,0,B|300:216|312:284,2,90,4|0|8,0:0|0:0|0:0,0:0:0
396,228,165289,1,0,0:0:0
400,316,165416,2,0,B|360:356|280:368|216:300,1,180,8|8,0:0|0:0,0:0:0
396,228,165798,2,0,B|452:228|484:272,1,90,0|8,0:0|0:0,0:0:0
404,140,166052,2,0,B|396:84|436:36,1,90,0|8,0:0|0:0,0:0:0
320,180,166306,2,0,B|273:198|221:182,1,90,0|8,0:0|0:0,0:0:0
148,24,166560,2,0,B|108:112|108:112|144:204,1,180
236,108,166942,5,4,0:0:0
312,60,167069,1,8,0:0:0
356,60,167132,1,8,0:0:0
400,60,167196,1,8,0:0:0
472,112,167323,1,8,0:0:0
412,180,167450,1,0,0:0:0
412,180,167577,1,0,0:0:0
472,248,167705,1,8,0:0:0
472,248,167832,1,8,0:0:0
408,312,167959,6,0,B|316:340,1,90,8|0,0:0|0:0,0:0:0
244,292,168213,1,0,0:0:0
268,92,168340,1,8,0:0:0
268,92,168594,1,8,0:0:0
190,45,168721,1,8,0:0:0
168,48,168785,1,8,0:0:0
148,52,168849,1,8,0:0:0
128,56,168912,1,8,0:0:0
104,60,168976,6,0,B|56:120|52:180|76:236,1,180,4|8,0:0|0:0,0:0:0
164,236,169357,1,8,0:0:0
107,302,169484,2,0,B|64:320|20:300,1,90
128,164,169738,2,0,B|171:146|215:166,1,90,8|8,0:0|0:0,0:0:0
333,228,169993,2,0,B|284:267|229:268|145:228,1,180,0|8,0:0|0:0,0:0:0
216,168,170374,1,8,0:0:0
304,124,170501,2,0,B|328:80|316:32,1,90
208,260,170755,2,0,B|184:304|196:352,1,90,8|8,0:0|0:0,0:0:0
288,316,171010,6,0,B|352:336|384:320,1,90
224,68,171264,2,0,B|160:48|128:64,1,90,8|8,0:0|0:0,0:0:0
404,216,171518,2,0,B|400:160|436:132,1,90
108,168,171772,2,0,B|112:224|76:252,1,90,8|8,0:0|0:0,0:0:0
20,180,172027,5,0,0:0:0
144,88,172154,1,0,0:0:0
256,192,172281,1,8,0:0:0
256,216,172344,1,8,0:0:0
256,240,172408,1,8,0:0:0
492,204,172535,5,0,0:0:0
368,296,172662,1,0,0:0:0
256,192,172789,1,8,0:0:0
256,168,172853,1,8,0:0:0
256,144,172916,1,8,0:0:0
256,120,172980,1,8,0:0:0
256,96,173044,6,0,B|256:0,1,90,4|0,0:0|0:0,0:0:0
256,288,173298,2,0,B|256:384,1,90,8|8,0:0|0:0,0:0:0
320,156,173552,2,0,B|320:48,1,90
192,228,173806,2,0,B|192:336,1,90,8|8,0:0|0:0,0:0:0
192,156,174060,2,0,B|92:156,1,90
320,228,174315,2,0,B|420:228,1,90,8|8,0:0|0:0,0:0:0
144,100,174569,2,0,B|40:100,1,90
368,284,174823,2,0,B|472:284,1,90,8|8,0:0|0:0,0:0:0
368,100,175077,5,4,0:0:0
368,100,175332,1,4,0:0:0
144,284,175586,1,4,0:0:0
144,284,175840,1,4,0:0:0
256,192,176094,1,8,0:0:0
40,96,176349,5,0,0:0:0
72,60,176603,1,0,0:0:0
120,44,176857,1,0,0:0:0
340,112,177111,6,0,B|364:156|444:156,1,90,4|0,0:0|0:0,0:0:0
172,272,177366,2,0,B|148:228|68:228,1,90,8|8,0:0|0:0,0:0:0
332,263,177620,2,0,B|312:308|320:352,1,90
179,120,177874,2,0,B|200:76|192:32,1,90,8|8,0:0|0:0,0:0:0
112,72,178128,6,0,B|88:120|112:172,1,90,8|0,0:0|0:0,0:0:0
400,312,178382,2,0,B|424:264|400:212,1,90,8|8,0:0|0:0,0:0:0
136,336,178637,2,0,B|184:360|236:336,1,90,8|0,0:0|0:0,0:0:0
376,48,178891,2,0,B|328:24|276:48,1,90,8|0,0:0|0:0,0:0:0
112,72,179145,5,4,0:0:0
112,72,179399,1,4,0:0:0
400,312,179654,1,4,0:0:0
400,312,179908,1,4,0:0:0
256,192,180162,1,8,0:0:0
256,104,180289,5,0,0:0:0
152,192,180416,1,0,0:0:0
256,280,180544,1,0,0:0:0
360,192,180671,2,0,B|464:192,1,90
450,192,181179,6,0,B|472:148|472:148|456:100,1,90,4|0,0:0|0:0,0:0:0
62,192,181433,2,0,B|40:236|40:236|56:284,1,90,4|0,0:0|0:0,0:0:0
376,132,181688,2,0,B|360:88|360:88|379:49,1,90,4|0,0:0|0:0,0:0:0
136,252,181942,2,0,B|152:296|152:296|132:334,1,90,4|0,0:0|0:0,0:0:0
256,192,182196,1,8,0:0:0
472,288,182450,5,0,0:0:0
440,324,182705,1,0,0:0:0
392,340,182959,1,0,0:0:0
72,118,183213,6,0,B|116:128|160:104,1,90,4|0,0:0|0:0,0:0:0
361,219,183467,2,0,B|345:259|356:308,1,90,4|0,0:0|0:0,0:0:0
439,118,183721,2,0,B|396:128|352:104,1,90,4|0,0:0|0:0,0:0:0
150,219,183976,2,0,B|166:259|156:308,1,90,4|0,0:0|0:0,0:0:0
256,192,184230,1,8,0:0:0
256,192,185247,6,0,B|284:156|232:104|256:32,1,144,4|2,0:0|0:0,0:0:0
172,16,185628,1,0,0:0:0
172,16,185755,2,0,B|84:16|28:88,1,144,2|0,0:0|0:0,0:0:0
88,144,186137,2,0,B|148:164|172:192|204:256,1,144,2|0,0:0|0:0,0:0:0
124,276,186518,5,0,0:0:0
256,152,186772,1,0,0:0:0
388,276,187027,1,0,0:0:0
388,276,187154,1,0,0:0:0
388,276,187281,6,0,B|352:340|352:340|276:312,1,144,4|0,0:0|0:0,0:0:0
256,232,187662,1,0,0:0:0
124,108,187789,2,0,B|160:44|160:44|236:72,1,144,2|0,0:0|0:0,0:0:0
256,152,188171,1,2,0:0:0
424,100,188425,1,0,0:0:0
424,100,188552,2,0,B|356:80|336:56|324:0,2,144
476,32,189188,1,2,0:0:0
504,112,189315,6,0,B|460:284,1,144,4|0,0:0|0:0,0:0:0
396,160,189696,1,0,0:0:0
404,276,189823,2,0,B|272:184,1,144,2|0,0:0|0:0,0:0:0
396,160,190205,1,0,0:0:0
396,160,190459,1,0,0:0:0
292,124,190586,2,0,B|428:56,2,144,2|0|0,0:0|0:0|0:0,0:0:0
396,160,191221,1,2,0:0:0
343,52,191349,6,0,B|292:32|244:28|184:40,1,144,4|0,0:0|0:0,0:0:0
148,104,191730,1,0,0:0:0
212,160,191857,2,0,B|272:320,1,144,2|0,0:0|0:0,0:0:0
344,324,192238,1,2,0:0:0
172,312,192493,1,0,0:0:0
172,312,192620,2,0,B|116:336|80:336|32:312,2,144,2|0|0,0:0|0:0|0:0,0:0:0
104,256,193255,1,2,0:0:0
104,256,193382,6,0,B|104:88,1,144,4|0,0:0|0:0,0:0:0
36,60,193764,1,0,0:0:0
104,112,193891,2,0,B|156:72|192:68|256:80,1,144,2|0,0:0|0:0,0:0:0
256,160,194272,1,2,0:0:0
256,160,194527,1,2,0:0:0
273,77,194654,2,0,B|320:68|356:72|408:112,1,144
476,60,195035,1,0,0:0:0
476,60,195162,1,2,0:0:0
476,60,195289,1,2,0:0:0
408,112,195416,6,0,B|408:256,1,144,4|0,0:0|0:0,0:0:0
328,288,195798,1,2,0:0:0
274,220,195925,2,0,B|274:76,1,144,2|0,0:0|0:0,0:0:0
204,176,196306,2,0,B|204:320,1,144,2|0,0:0|0:0,0:0:0
152,164,196688,2,0,B|152:68,1,72,2|0,0:0|0:0,0:0:0
124,192,196942,2,0,B|124:280,1,72,2|0,0:0|0:0,0:0:0
92,192,197196,2,0,B|20:192,1,72,2|2,0:0|0:0,0:0:0
256,192,197450,12,0,201518,0:0:0
