osu file format v12

[General]
AudioFilename: .mp3
AudioLeadIn: 1500
PreviewTime: 52960
Countdown: 0
SampleSet: None
StackLeniency: 0.7
Mode: 0
LetterboxInBreaks: 1
WidescreenStoryboard: 1

[Editor]
Bookmarks: 12879,25541,38593,65866,81645,94677,107944,121970,163233,176515,190541
DistanceSpacing: 1.3
BeatDivisor: 4
GridSize: 4

[Metadata]
Title:Rampage
TitleUnicode:ランペイジ
Artist:paraoka
ArtistUnicode:paraoka
Creator:kiri09
Version:09 AR10
Source:
Tags:haru*nya
BeatmapID:294088
BeatmapSetID:113359

[Difficulty]
HPDrainRate:6
CircleSize:4
OverallDifficulty:8
ApproachRate:10
SliderMultiplier:1.6
SliderTickRate:2

[Events]
//Background and Video events
0,0,"bg.jpg",0,0
//Break Periods
2,69183,81175
2,137734,147993
//Storyboard Layer 0 (Background)
//Storyboard Layer 1 (Fail)
//Storyboard Layer 2 (Pass)
//Storyboard Layer 3 (Foreground)
//Storyboard Sound Samples
//Background Colour Transformations
3,100,163,162,255

[TimingPoints]
412,194.805194805195,4,1,0,50,1,0
12879,-100,4,1,0,60,0,0
25541,-133.333333333333,4,1,0,40,0,0
47165,-100,4,1,0,60,0,0
50282,-100,4,1,0,50,0,0
51061,-100,4,1,0,60,0,0
51840,-100,4,1,0,50,0,0
52619,-100,4,1,0,70,0,0
53009,-100,4,1,0,80,0,0
53399,-100,4,1,0,70,0,1
65476,-133.333333333333,4,1,0,60,0,0
65866,-100,4,1,0,70,0,1
68983,-100,4,1,0,70,0,0
81431,194.805194805195,4,1,0,80,1,0
81625,-133.333333333333,4,1,0,40,0,0
103249,-100,4,1,0,60,0,0
106366,-100,4,1,0,50,0,0
107242,-100,4,1,0,60,0,0
107924,-100,4,1,0,50,0,0
108703,-100,4,1,0,70,0,0
109093,-100,4,1,0,80,0,0
109482,-100,4,1,0,70,0,1
121560,-133.333333333333,4,1,0,60,0,0
121950,-100,4,1,0,70,0,1
125067,-100,4,1,0,60,0,0
148443,-100,4,1,0,40,0,0
149564,-100,4,1,0,80,0,0
149987,194.805194805195,4,1,0,60,1,0
150181,-133.333333333333,4,1,0,40,0,0
171805,-100,4,1,0,60,0,0
174922,-100,4,1,0,50,0,0
175701,-100,4,1,0,60,0,0
176480,-100,4,1,0,50,0,0
177259,-100,4,1,0,70,0,0
177649,-100,4,1,0,80,0,0
178038,-100,4,1,0,70,0,1
190116,-133.333333333333,4,1,0,60,0,0
190506,-100,4,1,0,70,0,1
196740,-100,4,1,0,70,0,0

[Colours]
Combo1 : 255,117,255
Combo2 : 121,255,255
Combo3 : 255,200,227

[HitObjects]
244,208,412,2,0,P|160:200|88:164,1,160,2|0,0:0|0:0,0:0:0:0:
56,88,704,1,0,0:0:0:0:
136,52,801,2,0,P|220:60|292:96,1,160
356,148,1093,1,0,0:0:0:0:
380,232,1191,2,0,P|364:284|336:316,1,80
224,356,1386,2,0,P|240:304|256:284,1,80
244,196,1580,2,0,P|176:163|92:155,1,160
8,180,1873,1,0,0:0:0:0:
128,248,1970,6,0,P|188:308|288:352,1,160,2|0,0:0|0:0,0:0:0:0:
340,356,2262,1,0,0:0:0:0:
428,340,2360,2,0,P|468:308|484:276,1,80
461,151,2554,2,0,P|421:183|408:208,1,80
274,304,2749,2,0,P|314:272|330:240,1,80
380,80,2943,2,0,P|340:112|326:136,1,80
276,212,3139,2,0,P|204:244|124:252,1,160
36,232,3431,1,0,0:0:0:0:
48,84,3528,6,0,P|108:144|184:168,1,160,2|0,0:0|0:0,0:0:0:0:
268,168,3821,1,0,0:0:0:0:
340,116,3918,2,0,P|280:56|204:32,1,160
112,36,4210,1,0,0:0:0:0:
48,108,4308,2,0,P|108:168|184:192,1,160
268,168,4600,1,0,0:0:0:0:
340,116,4697,2,0,P|384:124|432:152,1,80
476,244,4892,5,0,0:0:0:0:
420,312,4989,1,0,0:0:0:0:
336,340,5087,2,0,P|252:332|180:276,1,160,2|0,0:0|0:0,0:0:0:0:
140,216,5379,1,0,0:0:0:0:
176,136,5476,2,0,P|260:144|332:200,1,160
300,272,5769,1,0,0:0:0:0:
116,336,5866,6,0,L|76:256,1,80
64,124,6061,2,0,L|104:204,1,80
224,308,6256,2,0,L|184:228,1,80
156,48,6450,2,0,L|196:128,1,80
252,196,6645,6,0,P|344:212|412:196,1,160,2|0,0:0|0:0,0:0:0:0:
480,148,6937,1,0,0:0:0:0:
512,64,7035,2,0,P|420:48|352:64,1,160
276,100,7327,1,0,0:0:0:0:
188,112,7424,2,0,P|148:108|108:92,1,80
0,148,7619,2,0,P|40:152|80:168,1,80
132,248,7814,6,0,P|156:320|228:368,1,160
312,368,8106,1,0,0:0:0:0:
392,332,8204,2,0,P|368:260|296:212,1,160,2|0,0:0|0:0,0:0:0:0:
212,212,8496,1,0,0:0:0:0:
148,156,8593,2,0,P|104:96|100:56,1,80
200,84,8788,2,0,P|244:144|248:184,1,80
116,196,8983,2,0,P|72:136|68:96,1,80
232,36,9178,2,0,P|276:96|280:136,1,80
228,164,9373,6,0,P|256:236|336:284,1,160
376,220,9665,1,0,0:0:0:0:
452,248,9762,2,0,P|424:320|344:368,1,160,2|0,0:0|0:0,0:0:0:0:
268,364,10054,1,0,0:0:0:0:
232,240,10152,2,0,P|260:168|340:120,1,160
416,112,10444,1,0,0:0:0:0:
496,244,10541,2,0,P|468:316|388:364,1,160
312,364,10834,1,0,0:0:0:0:
224,200,10931,2,0,P|252:128|332:80,1,160
404,68,11223,1,0,0:0:0:0:
448,200,11321,5,2,0:0:0:0:
448,200,11369,1,0,0:0:0:0:
448,200,11418,2,0,P|376:208|364:204,1,80
352,112,11613,2,0,P|290:149|277:151,1,80
196,148,11808,1,0,0:0:0:0:
112,88,11905,6,0,L|20:76,1,80,8|0,0:0|0:0,0:0:0:0:
72,148,12100,2,0,L|-8:168,1,80,8|0,0:0|0:0,0:0:0:0:
68,216,12295,2,0,L|0:272,1,80,8|0,0:0|0:0,0:0:0:0:
112,264,12489,2,0,L|164:248,3,40,0|0|0|0,0:0|0:0|0:0|0:0,0:0:0:0:
224,336,12684,2,0,L|172:352,3,40
240,248,12879,6,0,L|340:280,1,80,0|0,0:0|0:0,0:0:0:0:
460,244,13074,2,0,L|360:212,1,80,0|0,0:0|0:0,0:0:0:0:
376,140,13269,2,0,L|276:108,1,80
232,52,13463,1,0,0:0:0:0:
140,136,13561,2,0,P|176:172|228:180,1,80
232,52,13756,1,0,0:0:0:0:
80,68,13853,2,0,P|44:104|36:156,1,80,0|0,0:0|0:0,0:0:0:0:
32,236,14048,5,0,0:0:0:0:
96,296,14145,1,0,0:0:0:0:
184,296,14243,1,0,0:0:0:0:
256,244,14340,2,0,P|336:232|412:272,1,160,0|0,0:0|0:0,0:0:0:0:
388,352,14632,2,0,P|344:344|316:320,1,80
460,216,14827,5,0,0:0:0:0:
408,96,14924,1,0,0:0:0:0:
284,144,15022,1,0,0:0:0:0:
332,264,15119,1,0,0:0:0:0:
372,180,15217,2,0,P|356:96|296:40,1,160
220,28,15509,1,0,0:0:0:0:
88,76,15606,2,0,P|120:82|168:86,1,80
36,148,15801,2,0,P|67:153|115:157,1,80
24,232,15996,6,0,P|52:236|84:236,2,40
56,316,16191,1,0,0:0:0:0:
140,340,16288,1,0,0:0:0:0:
224,316,16386,2,0,P|256:240|240:136,1,160
212,84,16678,1,0,0:0:0:0:
384,84,16775,2,0,P|353:90|305:94,1,80
432,160,16970,2,0,P|401:166|353:170,1,80
452,248,17165,2,0,P|376:264|288:268,1,160
208,232,17457,1,0,0:0:0:0:
140,140,17554,6,0,L|52:116,1,80
32,44,17749,2,0,L|109:65,1,80,0|0,0:0|0:0,0:0:0:0:
260,152,17944,2,0,L|348:128,1,80
368,56,18139,2,0,L|280:80,1,80
425,180,18334,2,0,L|452:256,1,80
404,320,18528,2,0,L|376:240,1,80
260,168,18723,2,0,L|248:252,1,80
174,299,18918,2,0,L|180:260,2,40
120,80,19113,6,0,P|100:160|68:244,1,160
16,300,19405,1,0,0:0:0:0:
160,244,19502,2,0,P|228:288|312:312,1,160
392,316,19795,1,0,0:0:0:0:
468,272,19892,1,0,0:0:0:0:
504,192,19989,1,0,0:0:0:0:
492,104,20087,2,0,P|432:80|324:80,1,160
276,140,20379,2,0,P|212:136|188:128,1,80
120,80,20574,1,0,0:0:0:0:
252,48,20671,6,0,P|286:46|330:34,1,80
472,76,20866,2,0,P|428:88|380:88,1,80
248,168,21061,2,0,P|282:166|326:154,1,80
420,192,21256,1,0,0:0:0:0:
340,224,21353,1,0,0:0:0:0:
304,304,21450,2,0,P|272:332|220:348,1,80
120,256,21645,2,0,P|152:228|186:214,1,80
184,296,21840,2,0,P|152:324|100:340,1,80
0,248,22035,2,0,P|32:220|66:206,1,80
136,120,22230,6,0,L|144:72,3,40
220,72,22424,2,0,L|228:24,3,40
312,32,22619,1,0,0:0:0:0:
312,32,22814,1,0,0:0:0:0:
312,32,23009,2,0,L|392:64,1,80
356,136,23204,2,0,L|444:172,1,80
488,220,23399,5,0,0:0:0:0:
404,248,23496,1,0,0:0:0:0:
412,336,23593,1,0,0:0:0:0:
324,356,23691,1,0,0:0:0:0:
236,324,23788,6,0,L|132:324,1,80,8|0,0:0|0:0,0:0:0:0:
56,152,23983,2,0,L|156:152,1,80,8|0,0:0|0:0,0:0:0:0:
164,236,24178,1,8,0:0:0:0:
276,60,24373,6,0,L|380:60,1,80,8|0,0:0|0:0,0:0:0:0:
456,232,24568,2,0,L|356:232,1,80,8|0,0:0|0:0,0:0:0:0:
348,148,24763,1,8,0:0:0:0:
128,192,24957,6,0,P|256:276|380:192,1,320,8|4,0:0|0:0,0:0:0:0:
184,64,25541,6,0,P|156:72|116:76,2,60.0000022888184
48,120,25931,1,0,0:0:0:0:
32,240,26126,2,0,P|88:264|164:260,1,120.000004577637
260,224,26515,1,0,0:0:0:0:
344,308,26710,2,0,P|436:312|396:256,1,180.000006866455
424,208,27100,5,0,0:0:0:0:
492,112,27295,1,0,0:0:0:0:
320,144,27489,1,0,0:0:0:0:
492,112,27684,1,0,0:0:0:0:
492,112,28074,1,0,0:0:0:0:
400,32,28269,1,0,0:0:0:0:
400,32,28366,1,0,0:0:0:0:
400,32,28463,1,0,0:0:0:0:
236,72,28658,6,0,P|204:84|164:92,2,60.0000022888184
356,96,29048,1,0,0:0:0:0:
432,188,29243,1,0,0:0:0:0:
392,300,29437,1,0,0:0:0:0:
280,348,29632,1,0,0:0:0:0:
176,292,29827,2,0,P|112:248|184:224,1,180.000006866455
232,240,30217,5,0,0:0:0:0:
312,148,30412,1,0,0:0:0:0:
272,36,30606,1,0,0:0:0:0:
152,40,30801,2,0,L|68:200,1,180.000006866455
0,244,31191,2,0,L|252:288,1,240.000009155274
392,248,31775,6,0,L|468:260,2,60.0000022888184
288,312,32165,1,0,0:0:0:0:
184,252,32360,2,0,P|172:192|192:136,2,120.000004577637
256,76,32944,6,0,P|180:40|76:56,1,180.000006866455
32,76,33334,2,0,P|20:136|40:192,1,120.000004577637
116,284,33723,1,0,0:0:0:0:
224,232,33918,2,0,P|284:212|356:224,1,120.000004577637
388,252,34210,1,0,0:0:0:0:
400,312,34308,2,0,P|340:332|268:320,1,120.000004577637
236,292,34600,1,0,0:0:0:0:
224,232,34697,1,0,0:0:0:0:
464,168,34892,6,0,P|484:224|472:284,2,120.000004577637
400,64,35476,1,0,0:0:0:0:
356,176,35671,1,0,0:0:0:0:
284,80,35866,1,0,0:0:0:0:
244,192,36061,5,0,0:0:0:0:
244,192,36158,1,0,0:0:0:0:
244,192,36256,2,0,P|188:224|120:228,1,120.000004577637
76,208,36548,1,0,0:0:0:0:
36,160,36645,2,0,P|41:105|73:49,1,120.000004577637
132,40,36937,1,0,0:0:0:0:
184,72,37035,2,0,P|240:100|316:92,1,120.000004577637
352,60,37327,1,0,0:0:0:0:
416,52,37424,5,0,0:0:0:0:
480,72,37522,1,0,0:0:0:0:
500,132,37619,1,0,0:0:0:0:
480,192,37717,1,0,0:0:0:0:
420,216,37814,2,0,P|364:192|324:136,1,120.000004577637
92,168,38204,2,0,P|148:192|188:248,1,120.000004577637
272,136,38593,6,0,P|296:80|352:40,2,120.000004577637
464,100,39178,2,0,B|448:200|392:212|392:212|432:240|432:292|412:304,1,240.000009155274
312,356,39762,1,0,0:0:0:0:
196,268,39957,5,0,0:0:0:0:
196,268,40054,1,0,0:0:0:0:
196,268,40152,1,0,0:0:0:0:
368,200,40347,1,0,0:0:0:0:
368,200,40444,1,0,0:0:0:0:
368,200,40541,1,0,0:0:0:0:
220,88,40736,1,0,0:0:0:0:
220,88,40833,1,0,0:0:0:0:
220,88,40930,1,0,0:0:0:0:
344,92,41126,1,0,0:0:0:0:
344,92,41320,1,0,0:0:0:0:
144,212,41515,6,0,P|88:200|44:136,1,120.000004577637
24,36,41905,1,0,0:0:0:0:
132,88,42100,1,0,0:0:0:0:
12,260,42295,2,0,B|72:328|176:304|176:304|232:336,1,240.000009155274
348,320,42879,1,0,0:0:0:0:
440,240,43074,5,0,0:0:0:0:
476,192,43171,1,0,0:0:0:0:
468,132,43269,2,0,P|412:108|336:108,1,120.000004577637
316,152,43561,1,0,0:0:0:0:
260,172,43658,2,0,P|201:168|145:144,1,120.000004577637
145,144,44048,1,0,0:0:0:0:
0,52,44243,1,0,0:0:0:0:
145,144,44437,1,0,0:0:0:0:
40,204,44632,5,0,0:0:0:0:
156,52,44827,1,0,0:0:0:0:
236,224,45022,1,0,0:0:0:0:
328,144,45217,2,0,P|388:136|460:96,1,120.000004577637
456,52,45509,1,0,0:0:0:0:
400,32,45606,2,0,P|340:40|286:65,1,120.000004577637
248,112,45899,1,0,0:0:0:0:
212,160,45996,2,0,P|158:185|98:193,1,120.000004577637
40,184,46288,1,0,0:0:0:0:
0,232,46386,5,0,0:0:0:0:
8,292,46483,1,0,0:0:0:0:
56,328,46580,1,0,0:0:0:0:
116,324,46678,1,0,0:0:0:0:
164,288,46775,1,0,0:0:0:0:
220,268,46873,1,0,0:0:0:0:
280,276,46970,1,0,0:0:0:0:
332,308,47067,1,0,0:0:0:0:
380,344,47165,6,0,P|448:304|484:228,1,160,2|0,0:0|0:0,0:0:0:0:
484,144,47457,1,0,0:0:0:0:
408,100,47554,2,0,P|336:132|252:120,1,160,0|0,0:0|0:0,0:0:0:0:
184,68,47847,1,0,0:0:0:0:
104,100,47944,2,0,P|109:178|159:247,1,160,2|0,0:0|0:0,0:0:0:0:
244,256,48236,1,0,0:0:0:0:
16,280,48334,2,0,P|74:332|158:347,1,160,0|0,0:0|0:0,0:0:0:0:
220,292,48626,1,0,0:0:0:0:
292,340,48723,2,0,P|352:284|440:264,1,160,2|0,0:0|0:0,0:0:0:0:
496,320,49015,1,0,0:0:0:0:
496,320,49113,2,0,P|512:272|504:220,1,80
420,108,49308,5,0,0:0:0:0:
344,152,49405,1,0,0:0:0:0:
256,136,49502,2,0,P|216:108|192:68,1,80
56,52,49697,2,0,P|96:80|120:120,1,80
80,188,49892,1,0,0:0:0:0:
156,232,49989,1,0,0:0:0:0:
244,216,50087,2,0,P|284:184|300:136,1,80
288,48,50282,6,0,P|368:68|432:120,1,160,2|0,0:0|0:0,0:0:0:0:
468,196,50574,1,0,0:0:0:0:
432,276,50671,2,0,L|344:232,1,80,2|0,0:0|0:0,0:0:0:0:
284,284,50866,2,0,L|196:240,1,80,0|0,0:0|0:0,0:0:0:0:
124,128,51061,6,0,L|212:172,1,80,2|0,0:0|0:0,0:0:0:0:
343,155,51256,2,0,L|272:120,1,80,0|0,0:0|0:0,0:0:0:0:
80,268,51450,2,0,L|152:304,1,80,2|0,0:0|0:0,0:0:0:0:
431,268,51645,2,0,L|360:304,1,80,0|0,0:0|0:0,0:0:0:0:
256,224,51840,5,0,0:0:0:0:
256,160,52230,5,0,0:0:0:0:
256,96,52619,5,0,0:0:0:0:
256,32,53009,6,0,L|256:196,1,160
144,328,53399,6,0,P|92:316|48:300,1,80
88,216,53593,2,0,P|52:175|26:136,1,80
116,44,53788,2,0,P|151:84|177:123,1,80
232,156,53983,2,0,P|257:164|309:176,1,80
400,76,54178,2,0,P|374:67|322:55,1,80
452,144,54373,1,0,0:0:0:0:
412,212,54470,2,0,P|420:252|436:292,1,80
336,368,54665,6,0,P|328:328|312:288,2,80
216,272,54957,2,0,P|224:232|240:192,2,80
336,176,55249,2,0,P|328:136|312:96,2,80
208,56,55541,1,0,0:0:0:0:
132,100,55639,1,0,0:0:0:0:
48,72,55736,6,0,P|20:112|12:148,1,80
20,228,55931,1,0,0:0:0:0:
96,272,56028,1,0,0:0:0:0:
156,204,56126,2,0,P|224:156|312:144,1,160
388,152,56418,1,0,0:0:0:0:
400,352,56515,6,0,P|440:324|468:296,1,80
432,176,56710,2,0,P|392:204|364:232,1,80,0|0,0:0|0:0,0:0:0:0:
312,40,56905,2,0,P|334:61|374:89,1,80,0|0,0:0|0:0,0:0:0:0:
464,92,57100,1,0,0:0:0:0:
464,92,57197,1,0,0:0:0:0:
324,168,57295,5,0,0:0:0:0:
236,172,57392,1,0,0:0:0:0:
172,116,57489,1,0,0:0:0:0:
84,80,57587,1,0,0:0:0:0:
12,128,57684,2,0,P|80:176|192:176,1,160
64,344,58074,6,0,L|32:256,1,80
164,184,58269,2,0,L|196:272,1,80
64,344,58463,1,0,0:0:0:0:
76,324,58658,6,0,L|44:236,1,80
176,164,58853,2,0,L|208:252,1,80
76,324,59047,1,0,0:0:0:0:
88,300,59243,6,0,L|56:212,1,80
264,104,59437,2,0,L|296:192,1,80
380,48,59632,6,0,P|400:84|432:124,1,80
488,176,59827,2,0,P|457:199|421:219,1,80
340,188,60022,1,0,0:0:0:0:
328,276,60119,1,0,0:0:0:0:
248,236,60217,1,0,0:0:0:0:
236,324,60314,1,0,0:0:0:0:
104,164,60412,5,0,0:0:0:0:
156,92,60509,2,0,P|224:52|310:44,1,160
396,56,60801,1,0,0:0:0:0:
472,100,60899,1,0,0:0:0:0:
508,180,60996,1,0,0:0:0:0:
500,268,61093,1,0,0:0:0:0:
444,336,61191,6,0,P|400:316|368:288,1,80
320,228,61386,1,0,0:0:0:0:
320,228,61484,1,0,0:0:0:0:
360,36,61580,2,0,P|316:56|284:84,1,80
244,148,61775,1,0,0:0:0:0:
244,148,61873,1,0,0:0:0:0:
188,280,61970,6,0,P|172:232|168:192,1,80
324,104,62165,2,0,P|340:152|344:192,1,80
124,72,62360,2,0,P|172:56|212:52,1,80
388,312,62554,2,0,P|340:328|300:332,1,80
188,280,62749,6,0,P|196:208|280:216,1,160
440,148,63041,2,0,P|432:220|348:212,1,160
270,205,63334,1,0,0:0:0:0:
283,287,63431,2,0,P|184:225|157:111,1,240
158,111,63918,5,0,0:0:0:0:
76,148,64015,1,0,0:0:0:0:
36,228,64113,1,0,0:0:0:0:
36,228,64308,6,0,P|44:300|128:292,1,160
288,360,64600,2,0,P|280:288|196:296,1,160
148,232,64892,1,0,0:0:0:0:
176,156,64989,2,0,P|300:104|376:24,1,240
432,144,65476,6,0,P|384:180|324:168,1,120.000004577637
192,56,65866,5,8,0:0:0:0:
116,80,65963,1,0,0:0:0:0:
56,132,66061,1,8,0:0:0:0:
20,204,66158,1,0,0:0:0:0:
8,284,66256,1,8,0:0:0:0:
200,268,66450,5,8,0:0:0:0:
276,244,66547,1,0,0:0:0:0:
336,192,66645,1,8,0:0:0:0:
372,120,66742,1,0,0:0:0:0:
384,40,66840,1,8,0:0:0:0:
492,356,67035,5,8,0:0:0:0:
416,332,67132,1,0,0:0:0:0:
356,280,67230,1,8,0:0:0:0:
320,208,67327,1,0,0:0:0:0:
308,128,67425,1,8,0:0:0:0:
20,28,67619,5,8,0:0:0:0:
96,52,67716,1,0,0:0:0:0:
156,104,67814,1,8,0:0:0:0:
192,176,67911,1,0,0:0:0:0:
204,256,68009,1,8,0:0:0:0:
312,64,68204,6,0,P|352:80|404:80,1,80,8|0,0:0|0:0,0:0:0:0:
464,132,68399,2,0,B|432:204|288:276|216:100|64:200|44:296,1,480,8|4,0:0|0:0,0:0:0:0:
192,276,81625,6,0,P|156:276|112:264,2,60.0000022888184
308,248,82015,1,0,0:0:0:0:
140,176,82210,2,0,P|164:120|208:60,2,120.000004577637
372,88,82794,2,0,P|348:144|304:204,1,120.000004577637
220,268,83184,1,0,0:0:0:0:
108,224,83379,1,0,0:0:0:0:
36,320,83573,1,0,0:0:0:0:
84,96,83768,2,0,P|132:136|196:144,1,120.000004577637
244,124,84060,1,0,0:0:0:0:
304,116,84158,2,0,P|368:112|440:148,1,120.000004577637
468,168,84450,1,0,0:0:0:0:
492,224,84547,1,0,0:0:0:0:
328,272,84742,6,0,P|288:316|228:340,1,120.000004577637
112,332,85132,1,0,0:0:0:0:
236,260,85327,1,0,0:0:0:0:
72,224,85521,1,0,0:0:0:0:
248,144,85716,1,0,0:0:0:0:
32,112,85911,6,0,P|128:52|264:52,1,240.000009155274
300,84,86398,1,0,0:0:0:0:
312,144,86495,2,0,P|268:180|204:200,1,120.000004577637
152,180,86788,1,0,0:0:0:0:
92,188,86885,2,0,P|40:216|8:272,1,120.000004577637
4,328,87177,1,0,0:0:0:0:
64,340,87275,2,0,P|120:316|192:320,1,120.000004577637
320,344,87664,1,0,0:0:0:0:
444,216,87859,6,0,P|480:204|512:176,2,60.0000022888184
360,128,88249,1,0,0:0:0:0:
288,252,88443,1,0,0:0:0:0:
208,104,88638,1,0,0:0:0:0:
152,288,88833,1,0,0:0:0:0:
8,136,89028,6,0,P|104:208|224:224,1,240.000009155274
276,196,89515,1,0,0:0:0:0:
316,152,89612,2,0,P|336:96|316:32,1,120.000004577637
260,36,89904,1,0,0:0:0:0:
212,72,90002,2,0,P|192:128|212:192,1,120.000004577637
236,236,90294,1,0,0:0:0:0:
276,196,90392,2,0,P|328:164|400:156,1,120.000004577637
444,168,90684,1,0,0:0:0:0:
492,200,90781,1,0,0:0:0:0:
360,280,90976,6,0,P|386:333|433:368,2,120.000004577637
376,160,91560,1,0,0:0:0:0:
224,84,91755,1,0,0:0:0:0:
288,300,91950,1,0,0:0:0:0:
136,224,92145,5,0,0:0:0:0:
96,268,92242,1,0,0:0:0:0:
36,280,92340,2,0,P|0:232|0:160,1,120.000004577637
12,116,92632,1,0,0:0:0:0:
64,88,92729,2,0,P|120:120|184:120,1,120.000004577637
228,96,93021,1,0,0:0:0:0:
284,76,93119,2,0,P|343:79|394:110,1,120.000004577637
428,160,93411,5,0,0:0:0:0:
440,220,93508,1,0,0:0:0:0:
404,268,93606,1,0,0:0:0:0:
348,292,93703,1,0,0:0:0:0:
288,292,93801,1,0,0:0:0:0:
248,248,93898,1,0,0:0:0:0:
288,44,94093,1,0,0:0:0:0:
88,120,94288,1,0,0:0:0:0:
48,320,94482,5,0,0:0:0:0:
48,320,94580,1,0,0:0:0:0:
48,320,94677,2,0,P|104:348|184:352,2,120.000004577637
136,236,95262,2,0,B|187:202|187:202|240:192|264:308|360:288,1,240.000009155274
452,268,95846,1,0,0:0:0:0:
496,144,96041,5,0,0:0:0:0:
464,92,96138,1,0,0:0:0:0:
408,76,96236,1,0,0:0:0:0:
348,92,96333,1,0,0:0:0:0:
312,140,96431,2,0,P|280:156|244:160,2,60.0000022888184
148,72,96820,2,0,P|180:56|216:52,2,60.0000022888184
16,124,97210,2,0,P|48:140|84:144,1,60.0000022888184
184,172,97405,2,0,P|152:188|116:192,1,60.0000022888184,0|0,0:0|0:0,0:0:0:0:
76,220,97599,5,0,0:0:0:0:
116,332,97794,1,0,0:0:0:0:
232,356,97989,1,0,0:0:0:0:
336,296,98184,1,0,0:0:0:0:
176,240,98379,2,0,B|216:156|304:144|304:144|296:96|320:64,1,240.000009155274
424,24,98963,1,0,0:0:0:0:
496,124,99158,5,0,0:0:0:0:
496,124,99255,1,0,0:0:0:0:
496,124,99353,1,0,0:0:0:0:
352,196,99547,2,0,P|340:160|344:136,2,60.0000022888184
388,248,99840,1,0,0:0:0:0:
388,308,99937,1,0,0:0:0:0:
348,352,100034,1,0,0:0:0:0:
288,348,100132,2,0,P|236:316|168:320,2,120.000004577637
120,208,100716,5,0,0:0:0:0:
180,104,100911,1,0,0:0:0:0:
256,160,101106,2,0,L|288:104,1,60.0000022888184
324,60,101301,2,0,L|356:116,1,60.0000022888184
480,108,101495,2,0,L|424:140,1,60.0000022888184
468,180,101690,2,0,L|415:209,1,60.0000022888184
364,240,101885,5,0,0:0:0:0:
308,256,101982,1,0,0:0:0:0:
248,252,102080,1,0,0:0:0:0:
192,228,102177,1,0,0:0:0:0:
152,184,102275,1,0,0:0:0:0:
144,124,102372,1,0,0:0:0:0:
188,84,102469,6,0,P|220:96|248:132,1,60.0000022888184
80,128,102664,2,0,P|48:116|20:80,1,60.0000022888184
212,76,102859,2,0,P|244:88|272:124,1,60.0000022888184
52,136,103054,2,0,P|20:124|-8:88,1,60.0000022888184
120,56,103249,6,0,P|192:28|288:44,1,160,2|0,0:0|0:0,0:0:0:0:
356,72,103541,1,0,0:0:0:0:
488,172,103638,2,0,P|436:228|340:260,1,160,0|0,0:0|0:0,0:0:0:0:
272,252,103931,1,0,0:0:0:0:
200,200,104028,2,0,L|184:112,1,80,2|0,0:0|0:0,0:0:0:0:
96,72,104223,2,0,L|112:160,1,80
72,296,104418,2,0,L|56:208,1,80
260,60,104612,2,0,L|276:148,1,80
220,208,104807,6,0,P|140:192|72:136,1,160,2|0,0:0|0:0,0:0:0:0:
32,68,105099,1,0,0:0:0:0:
192,48,105197,2,0,P|200:128|164:208,1,160
104,260,105489,1,0,0:0:0:0:
0,312,105586,6,0,L|92:344,1,80
231,326,105781,2,0,L|156:300,1,80
312,292,105976,2,0,L|387:318,1,80
468,280,106171,2,0,L|494:204,1,80
428,148,106366,6,0,P|356:180|264:176,1,160,2|0,0:0|0:0,0:0:0:0:
212,116,106658,1,0,0:0:0:0:
140,64,106755,1,2,0:0:0:0:
52,76,106853,1,0,0:0:0:0:
0,148,106950,1,0,0:0:0:0:
28,232,107047,1,0,0:0:0:0:
96,176,107145,1,2,0:0:0:0:
184,188,107242,5,0,0:0:0:0:
236,260,107340,1,0,0:0:0:0:
296,324,107437,1,0,0:0:0:0:
384,328,107534,1,2,0:0:0:0:
464,292,107632,1,0,0:0:0:0:
428,148,107729,1,0,0:0:0:0:
336,264,107827,1,0,0:0:0:0:
256,136,107924,5,0,0:0:0:0:
256,200,108314,5,0,0:0:0:0:
256,264,108703,5,0,0:0:0:0:
256,328,109093,6,0,L|256:164,1,160
440,284,109482,6,0,P|400:260|364:220,1,80
304,112,109677,2,0,P|338:131|367:159,1,80
320,296,109872,1,0,0:0:0:0:
240,208,109969,1,0,0:0:0:0:
200,320,110067,1,0,0:0:0:0:
128,224,110164,1,0,0:0:0:0:
52,272,110262,2,0,P|36:312|36:364,2,80
0,152,110554,2,0,P|80:144|160:112,1,160
220,88,110846,1,0,0:0:0:0:
292,92,110943,1,0,0:0:0:0:
348,140,111041,6,0,P|372:172|392:212,1,80
164,244,111236,2,0,P|140:212|120:172,1,80
204,100,111431,2,0,P|236:76|276:56,1,80
308,284,111625,2,0,P|276:308|236:328,1,80
348,140,111820,5,0,0:0:0:0:
164,244,111918,1,0,0:0:0:0:
204,100,112015,1,0,0:0:0:0:
308,284,112112,1,0,0:0:0:0:
292,92,112210,1,0,0:0:0:0:
220,292,112307,1,0,0:0:0:0:
156,156,112405,1,0,0:0:0:0:
356,228,112502,1,0,0:0:0:0:
120,280,112599,6,0,P|180:332|264:368,1,160
340,376,112892,1,0,0:0:0:0:
468,280,112989,2,0,P|428:248|392:228,1,80
324,196,113184,1,0,0:0:0:0:
240,176,113281,1,0,0:0:0:0:
216,92,113379,2,0,P|260:52|288:36,1,80
396,80,113573,2,0,P|352:120|324:136,1,80
184,96,113768,2,0,P|228:56|256:40,1,80
432,72,113963,1,0,0:0:0:0:
372,204,114060,1,0,0:0:0:0:
288,152,114158,6,0,L|192:164,1,80
144,292,114353,2,0,L|240:280,1,80
288,152,114547,1,0,0:0:0:0:
304,136,114742,6,0,L|208:148,1,80
160,276,114937,2,0,L|256:264,1,80
304,136,115131,1,0,0:0:0:0:
320,120,115327,6,0,L|224:132,1,80
84,364,115521,2,0,L|180:352,1,80,0|0,0:0|0:0,0:0:0:0:
260,292,115716,6,0,P|304:308|344:312,1,80
412,360,115911,2,0,P|428:316|432:276,1,80
380,212,116106,2,0,P|385:172|399:135,1,80
468,80,116301,1,0,0:0:0:0:
304,136,116398,6,0,P|268:168|232:180,1,80
152,172,116593,1,0,0:0:0:0:
72,136,116690,1,0,0:0:0:0:
92,52,116788,2,0,P|148:60|180:76,1,80
184,260,116982,2,0,P|128:252|96:236,1,80
232,184,117177,5,0,0:0:0:0:
248,96,117275,1,0,0:0:0:0:
320,148,117372,2,0,L|336:56,1,80
416,100,117567,1,0,0:0:0:0:
504,208,117664,5,0,0:0:0:0:
488,296,117762,1,0,0:0:0:0:
416,244,117859,2,0,L|402:322,1,80
336,276,118054,6,0,P|284:300|244:300,1,80
176,108,118249,2,0,P|228:84|268:84,1,80
408,180,118443,2,0,P|401:140|382:105,1,80,0|0,0:0|0:0,0:0:0:0:
104,204,118638,2,0,P|110:243|129:278,1,80,0|0,0:0|0:0,0:0:0:0:
224,336,118833,6,0,P|288:304|240:236,1,160
224,96,119125,2,0,P|160:128|208:196,1,160
168,272,119418,1,0,0:0:0:0:
248,287,119515,2,0,P|322:222|419:206,1,200
420,206,120002,5,0,0:0:0:0:
468,132,120099,1,0,0:0:0:0:
440,48,120197,1,0,0:0:0:0:
440,48,120392,6,0,P|392:108|312:96,1,160
112,120,120684,2,0,P|160:60|240:72,1,160
284,132,120976,1,0,0:0:0:0:
216,176,121073,2,0,P|112:232|48:332,1,240
36,56,121560,6,0,P|56:112|112:160,1,120.000004577637
12,340,121950,5,8,0:0:0:0:
88,312,122047,1,0,0:0:0:0:
168,320,122145,1,8,0:0:0:0:
244,292,122242,1,0,0:0:0:0:
324,300,122340,1,8,0:0:0:0:
500,44,122534,5,8,0:0:0:0:
424,72,122631,1,0,0:0:0:0:
344,64,122729,1,8,0:0:0:0:
268,92,122826,1,0,0:0:0:0:
188,84,122924,1,8,0:0:0:0:
13,244,123119,5,8,0:0:0:0:
64,181,123216,1,0,0:0:0:0:
137,147,123314,1,8,0:0:0:0:
188,84,123411,1,0,0:0:0:0:
260,49,123509,1,8,0:0:0:0:
499,140,123703,5,8,0:0:0:0:
448,203,123800,1,0,0:0:0:0:
375,237,123898,1,8,0:0:0:0:
324,300,123995,1,0,0:0:0:0:
252,335,124093,1,8,0:0:0:0:
200,64,124288,6,0,P|160:80|108:80,1,80,8|0,0:0|0:0,0:0:0:0:
48,132,124483,2,0,B|80:204|224:276|296:100|448:200|468:296,1,480,8|4,0:0|0:0,0:0:0:0:
463,281,125456,6,0,B|360:256|336:140|336:140|212:236|120:72|120:72|0:232,1,640
132,300,126431,2,0,P|184:312|232:304,1,80
304,284,126625,2,0,B|376:288|404:216|380:160|380:160|448:108,1,240
300,200,127161,2,0,B|220:180|176:96|176:96|208:64,1,200
200,72,127502,5,0,0:0:0:0:
200,72,127599,1,0,0:0:0:0:
200,72,127697,1,0,0:0:0:0:
200,72,127794,1,0,0:0:0:0:
200,72,127892,1,0,0:0:0:0:
200,72,127989,1,0,0:0:0:0:
200,72,128086,1,0,0:0:0:0:
356,108,128184,6,0,L|272:116,1,80
156,276,128379,2,0,L|240:268,1,80
172,92,128573,2,0,L|179:171,1,80
340,292,128768,2,0,L|332:212,1,80
272,120,128963,6,0,L|304:28,1,80
240,264,129158,2,0,L|208:356,1,80
352,208,129353,2,0,L|444:240,1,80
160,176,129548,2,0,L|68:144,1,80
216,48,129742,5,0,0:0:0:0:
296,48,129840,1,0,0:0:0:0:
372,76,129937,1,0,0:0:0:0:
432,132,130034,1,0,0:0:0:0:
452,208,130132,1,0,0:0:0:0:
452,208,130327,6,0,P|388:264|304:292,1,160
60,176,130716,2,0,P|124:120|208:92,1,160
212,234,131008,2,0,P|181:209|160:176,1,80
299,149,131203,2,0,P|330:174|352:208,1,80
72,316,131495,6,0,L|160:288,2,80,2|0|0,0:0|0:0|0:0,0:0:0:0:
20,208,131788,1,0,0:0:0:0:
52,92,131885,1,0,0:0:0:0:
440,68,132080,6,0,L|352:96,2,80,2|0|0,0:0|0:0|0:0,0:0:0:0:
492,176,132373,1,0,0:0:0:0:
460,292,132470,1,0,0:0:0:0:
112,88,132664,6,0,L|140:176,2,80,2|0|0,0:0|0:0|0:0,0:0:0:0:
220,36,132957,1,0,0:0:0:0:
336,68,133054,1,0,0:0:0:0:
400,296,133249,6,0,L|372:208,2,80,2|0|0,0:0|0:0|0:0,0:0:0:0:
292,348,133542,1,0,0:0:0:0:
176,316,133639,1,0,0:0:0:0:
176,316,133833,5,2,0:0:0:0:
292,348,133931,1,0,0:0:0:0:
400,296,134028,1,0,0:0:0:0:
436,180,134125,1,0,0:0:0:0:
388,68,134223,1,0,0:0:0:0:
276,28,134320,1,0,0:0:0:0:
160,64,134418,6,0,L|76:96,2,80,2|0|0,0:0|0:0|0:0,0:0:0:0:
352,108,134710,2,0,L|436:140,2,80,2|0|0,0:0|0:0|0:0,0:0:0:0:
140,152,135002,2,0,L|56:184,2,80,2|0|0,0:0|0:0|0:0,0:0:0:0:
376,196,135294,2,0,L|460:228,2,80,2|0|0,0:0|0:0|0:0,0:0:0:0:
288,208,135586,5,2,0:0:0:0:
232,276,135684,1,0,0:0:0:0:
160,324,135781,1,0,0:0:0:0:
72,320,135879,1,0,0:0:0:0:
8,260,135976,6,0,P|28:176|72:112,2,160,2|2|0,0:0|0:0|0:0,0:0:0:0:
504,124,136560,2,0,P|484:208|440:272,2,160,2|2|0,0:0|0:0|0:0,0:0:0:0:
440,64,137047,1,0,0:0:0:0:
136,124,137145,6,0,L|224:64,1,80
376,260,137340,2,0,L|288:320,1,80
256,192,137534,1,4,0:0:0:0:
68,144,148443,5,0,0:0:0:0:
128,92,148638,5,0,0:0:0:0:
208,84,148833,5,0,0:0:0:0:
284,116,149028,5,0,0:0:0:0:
332,180,149223,5,0,0:0:0:0:
332,180,149612,5,0,0:0:0:0:
488,92,149987,5,4,0:0:0:0:
416,268,150181,2,0,P|452:256|480:240,2,60.0000022888184
256,268,150571,1,0,0:0:0:0:
156,336,150766,1,0,0:0:0:0:
124,220,150961,1,0,0:0:0:0:
24,284,151155,1,0,0:0:0:0:
0,124,151350,5,0,0:0:0:0:
40,80,151448,1,0,0:0:0:0:
96,64,151545,2,0,P|156:56|232:76,1,120.000004577637
264,100,151837,1,0,0:0:0:0:
320,120,151935,2,0,P|378:131|437:123,1,120.000004577637
496,144,152227,1,0,0:0:0:0:
508,204,152324,1,0,0:0:0:0:
264,284,152519,5,0,0:0:0:0:
340,68,152714,1,0,0:0:0:0:
416,208,152909,1,0,0:0:0:0:
492,116,153103,1,0,0:0:0:0:
376,92,153298,6,0,P|424:52|484:36,2,120.000004577637
264,44,153883,2,0,P|216:84|156:100,2,120.000004577637
64,48,154467,6,0,P|28:112|20:184,1,120.000004577637
32,276,154857,1,0,0:0:0:0:
32,276,154954,1,0,0:0:0:0:
32,276,155051,1,0,0:0:0:0:
144,168,155246,1,0,0:0:0:0:
288,232,155441,2,0,P|332:184|352:112,1,120.000004577637
344,72,155733,1,0,0:0:0:0:
404,56,155831,2,0,P|436:72|472:100,1,60.0000022888184
472,204,156025,2,0,P|440:188|404:160,1,60.0000022888184
340,264,156220,1,0,0:0:0:0:
148,84,156415,6,0,P|104:68|84:48,2,60.0000022888184
268,76,156805,1,0,0:0:0:0:
236,192,156999,1,0,0:0:0:0:
128,248,157194,1,0,0:0:0:0:
32,68,157389,1,0,0:0:0:0:
236,80,157584,2,0,P|280:124|316:184,1,120.000004577637
116,316,157974,2,0,P|72:272|36:212,1,120.000004577637
184,184,158363,5,0,0:0:0:0:
232,220,158461,1,0,0:0:0:0:
292,224,158558,2,0,P|356:216|412:192,1,120.000004577637
452,156,158850,1,0,0:0:0:0:
396,132,158948,2,0,P|360:80|352:12,1,120.000004577637
296,52,159240,1,0,0:0:0:0:
240,76,159337,1,0,0:0:0:0:
208,328,159532,5,0,0:0:0:0:
288,240,159727,1,0,0:0:0:0:
388,304,159922,2,0,P|448:284|504:244,1,120.000004577637
304,128,160311,2,0,P|244:148|188:188,1,120.000004577637
72,296,160701,1,0,0:0:0:0:
72,296,160798,1,0,0:0:0:0:
72,296,160896,1,0,0:0:0:0:
176,68,161090,5,0,0:0:0:0:
176,68,161187,1,0,0:0:0:0:
176,68,161285,2,0,P|236:84|304:80,1,120.000004577637
352,68,161577,1,0,0:0:0:0:
412,76,161675,2,0,P|448:96|464:116,1,60.0000022888184
432,228,161870,2,0,P|396:208|380:188,1,60.0000022888184
428,60,162064,2,0,P|464:80|480:100,1,60.0000022888184
416,244,162259,2,0,P|380:224|364:204,1,60.0000022888184
320,128,162454,2,0,P|272:164|196:184,2,120.000004577637
448,284,163038,5,0,0:0:0:0:
400,320,163136,1,0,0:0:0:0:
340,332,163233,2,0,P|280:328|220:304,2,120.000004577637
148,348,163818,2,0,B|116:296|148:228|208:220|208:220|256:200|268:152,1,240.000009155274
132,44,164402,1,0,0:0:0:0:
304,96,164597,5,0,0:0:0:0:
260,136,164694,1,0,0:0:0:0:
204,156,164792,1,0,0:0:0:0:
144,156,164889,1,0,0:0:0:0:
84,144,164987,2,0,L|20:164,1,60.0000022888184
0,268,165181,2,0,L|64:248,1,60.0000022888184
212,324,165376,2,0,L|148:304,1,60.0000022888184
304,192,165571,5,0,0:0:0:0:
404,256,165766,1,0,0:0:0:0:
304,192,165961,1,0,0:0:0:0:
484,116,166155,6,0,P|440:76|360:56,1,120.000004577637
360,176,166545,2,0,P|303:156|259:116,1,120.000004577637
160,48,166935,2,0,L|100:76,1,60.0000022888184
52,104,167129,1,0,0:0:0:0:
24,156,167227,1,0,0:0:0:0:
20,216,167324,1,0,0:0:0:0:
36,276,167422,1,0,0:0:0:0:
80,316,167519,1,0,0:0:0:0:
196,216,167714,6,0,L|208:144,2,60.0000022888184
220,272,168006,1,0,0:0:0:0:
272,300,168103,1,0,0:0:0:0:
332,312,168201,1,0,0:0:0:0:
392,304,168298,1,0,0:0:0:0:
496,240,168493,5,0,0:0:0:0:
456,128,168688,1,0,0:0:0:0:
456,128,168883,1,0,0:0:0:0:
456,128,169077,1,0,0:0:0:0:
320,208,169272,6,0,P|264:224|192:220,1,120.000004577637
132,68,169662,2,0,P|164:60|200:64,1,60.0000022888184
56,108,169857,2,0,P|88:111|121:127,1,60.0000022888184
228,188,170051,2,0,P|195:184|162:168,1,60.0000022888184
104,208,170246,1,0,0:0:0:0:
104,208,170441,5,0,0:0:0:0:
120,152,170538,1,0,0:0:0:0:
168,116,170636,1,0,0:0:0:0:
228,112,170733,1,0,0:0:0:0:
284,132,170831,1,0,0:0:0:0:
344,128,170928,1,0,0:0:0:0:
392,96,171025,2,0,P|420:72|428:32,1,60.0000022888184
452,168,171220,2,0,P|424:192|416:232,1,60.0000022888184
512,84,171415,1,0,0:0:0:0:
420,308,171610,2,0,L|356:328,1,60.0000022888184
304,340,171805,6,0,P|224:324|152:276,1,160,2|0,0:0|0:0,0:0:0:0:
112,216,172097,1,0,0:0:0:0:
28,80,172194,2,0,P|88:132|180:148,1,160
248,140,172487,1,0,0:0:0:0:
380,148,172584,2,0,L|360:228,1,80,2|0,0:0|0:0,0:0:0:0:
264,304,172779,2,0,L|284:224,1,80
264,80,172974,2,0,L|244:160,1,80
148,236,173169,2,0,L|168:156,1,80
40,280,173363,6,0,P|104:328|212:340,1,160,2|0,0:0|0:0,0:0:0:0:
260,336,173655,1,0,0:0:0:0:
336,308,173753,1,0,0:0:0:0:
356,56,173948,1,0,0:0:0:0:
436,72,174045,1,0,0:0:0:0:
492,128,174142,2,0,P|492:168|468:216,1,80
356,240,174337,2,0,P|356:200|380:152,1,80
504,276,174532,5,0,0:0:0:0:
408,256,174629,1,0,0:0:0:0:
372,164,174727,2,0,P|328:172|280:208,1,80
216,268,174922,2,0,P|148:216|116:132,1,160,2|0,0:0|0:0,0:0:0:0:
104,64,175214,1,0,0:0:0:0:
196,88,175311,6,0,L|276:108,1,80,2|0,0:0|0:0,0:0:0:0:
316,296,175506,2,0,L|236:276,1,80
396,132,175701,2,0,L|376:212,1,80,2|0,0:0|0:0,0:0:0:0:
116,252,175896,2,0,L|136:172,1,80
304,56,176090,2,0,L|226:36,1,80,2|0,0:0|0:0,0:0:0:0:
208,328,176285,2,0,L|285:347,1,80
256,120,176480,5,0,0:0:0:0:
256,184,176870,5,0,0:0:0:0:
256,248,177259,5,0,0:0:0:0:
256,312,177649,6,0,L|256:148,1,160
384,32,178038,6,0,P|344:60|320:96,1,80
388,136,178233,2,0,P|436:128|476:132,1,80
312,204,178428,1,0,0:0:0:0:
368,260,178525,1,0,0:0:0:0:
448,252,178623,2,0,P|464:280|472:344,1,80
300,316,178818,2,0,P|284:288|276:224,1,80
180,112,179012,1,0,0:0:0:0:
180,112,179110,1,0,0:0:0:0:
132,188,179207,6,0,P|92:204|48:208,1,80
56,64,179402,2,0,P|96:48|140:44,1,80
212,40,179597,1,0,0:0:0:0:
288,68,179694,1,0,0:0:0:0:
328,140,179792,1,0,0:0:0:0:
332,220,179889,1,0,0:0:0:0:
284,284,179987,6,0,L|364:320,1,80
192,188,180181,2,0,L|112:152,1,80
184,324,180376,2,0,L|264:360,1,80
96,240,180570,2,0,L|20:204,1,80
0,76,180766,1,0,0:0:0:0:
24,204,180863,1,0,0:0:0:0:
119,155,180961,1,0,0:0:0:0:
168,248,181058,1,0,0:0:0:0:
160,80,181155,6,0,P|204:80|248:92,1,80
372,144,181350,2,0,P|328:144|284:132,1,80,0|0,0:0|0:0,0:0:0:0:
456,52,181545,1,0,0:0:0:0:
456,52,181740,1,0,0:0:0:0:
456,52,181935,6,0,P|484:84|492:128,1,80
436,176,182129,2,0,P|396:208|384:244,1,80
416,308,182324,2,0,P|456:276|468:240,1,80
466,250,182519,1,0,0:0:0:0:
466,250,182616,1,0,0:0:0:0:
284,124,182714,6,0,L|336:196,1,80
276,316,182909,2,0,L|224:244,1,80
284,124,183103,1,0,0:0:0:0:
304,100,183298,6,0,L|356:172,1,80
296,292,183493,2,0,L|244:220,1,80
304,100,183687,1,0,0:0:0:0:
328,76,183883,6,0,L|380:148,1,80
184,308,184077,2,0,L|132:236,1,80
36,228,184272,6,0,P|16:136|60:60,1,160
112,40,184564,1,0,0:0:0:0:
192,40,184662,1,0,0:0:0:0:
244,100,184759,2,0,P|200:128|136:144,1,80
96,148,184954,1,0,0:0:0:0:
172,264,185051,6,0,P|204:232|228:192,1,80
344,160,185246,2,0,P|312:192|288:232,1,80
232,304,185441,1,0,0:0:0:0:
232,304,185538,1,0,0:0:0:0:
280,80,185636,1,0,0:0:0:0:
280,80,185733,1,0,0:0:0:0:
208,176,185831,6,0,P|128:192|40:184,1,160
0,124,186123,1,0,0:0:0:0:
80,272,186220,2,0,L|176:284,1,80
432,272,186415,2,0,L|336:284,1,80
52,256,186610,2,0,L|162:269,1,80
460,256,186805,2,0,L|349:269,1,80
24,236,186999,2,0,L|134:249,1,80
488,236,187194,2,0,L|377:249,1,80
240,196,187389,6,0,P|236:128|312:140,1,160
456,88,187681,2,0,P|460:156|384:144,1,160
308,134,187974,1,0,0:0:0:0:
336,204,188071,2,0,P|264:296|132:312,1,240
147,316,188558,5,0,0:0:0:0:
64,296,188655,1,0,0:0:0:0:
12,224,188753,1,0,0:0:0:0:
8,136,188850,1,0,0:0:0:0:
56,64,188948,6,0,P|128:60|104:136,1,160
156,268,189240,2,0,P|84:272|108:196,1,160
120,128,189532,1,0,0:0:0:0:
176,184,189629,2,0,P|288:140|364:44,1,240
424,244,190116,6,0,P|448:188|452:116,1,120.000004577637
188,264,190506,6,0,L|172:168,1,80,8|0,0:0|0:0,0:0:0:0:
324,120,190701,2,0,L|340:216,1,80,8|0,0:0|0:0,0:0:0:0:
256,192,190896,1,8,0:0:0:0:
160,280,191090,6,0,L|144:184,1,80,8|0,0:0|0:0,0:0:0:0:
352,104,191285,2,0,L|368:200,1,80,8|0,0:0|0:0,0:0:0:0:
256,192,191480,1,8,0:0:0:0:
132,296,191675,6,0,L|116:200,1,80,8|0,0:0|0:0,0:0:0:0:
380,88,191870,2,0,L|396:184,1,80,8|0,0:0|0:0,0:0:0:0:
256,192,192064,1,8,0:0:0:0:
104,312,192259,6,0,L|88:216,1,80,8|0,0:0|0:0,0:0:0:0:
408,72,192454,2,0,L|424:168,1,80,8|0,0:0|0:0,0:0:0:0:
256,192,192649,1,8,0:0:0:0:
76,328,192844,6,0,L|60:232,1,80,8|0,0:0|0:0,0:0:0:0:
436,56,193038,2,0,L|452:152,1,80,8|0,0:0|0:0,0:0:0:0:
256,192,193233,1,8,0:0:0:0:
420,336,193428,5,8,0:0:0:0:
332,356,193525,1,0,0:0:0:0:
284,280,193623,1,8,0:0:0:0:
340,212,193720,1,0,0:0:0:0:
424,244,193818,1,8,0:0:0:0:
104,260,194012,5,8,0:0:0:0:
192,280,194109,1,0,0:0:0:0:
240,204,194207,1,8,0:0:0:0:
184,136,194304,1,0,0:0:0:0:
100,168,194402,1,8,0:0:0:0:
480,84,194597,5,8,0:0:0:0:
392,64,194694,1,0,0:0:0:0:
344,140,194792,1,8,0:0:0:0:
400,208,194889,1,0,0:0:0:0:
484,176,194987,1,8,0:0:0:0:
148,336,195181,5,8,0:0:0:0:
236,356,195278,1,0,0:0:0:0:
284,280,195376,1,8,0:0:0:0:
228,212,195473,1,0,0:0:0:0:
144,244,195571,1,8,0:0:0:0:
4,52,195766,5,8,0:0:0:0:
92,32,195863,1,0,0:0:0:0:
140,108,195961,1,8,0:0:0:0:
84,176,196058,1,0,0:0:0:0:
0,144,196155,2,0,B|68:96|204:80|232:200|232:200|337:153|400:268,1,480,8|4,0:0|0:0,0:0:0:0:
