osu file format v14

[General]
AudioFilename: Platinum Garden.mp3
AudioLeadIn: 0
PreviewTime: 66792
Countdown: 0
SampleSet: Soft
StackLeniency: 0.7
Mode: 3
LetterboxInBreaks: 0
SpecialStyle: 0
WidescreenStoryboard: 1

[Editor]
Bookmarks: 6792,13108,25740,27714,28898,41529,54161,65608,66792,79424,92056,98371,104687
DistanceSpacing: 0.8
BeatDivisor: 4
GridSize: 8
TimelineZoom: 1.5

[Metadata]
Title:Platinum Garden
TitleUnicode:Platinum Garden
Artist:paraoka
ArtistUnicode:paraoka
Creator:Jesuren
Version:FLeVI's Hyper
Source:SPRING BGA PARTY
Tags:Falcon FLeVI diamant66 ML-ysg ぱらおか Paranoid Masaoka BMS psycho-function =original_soundtrack= C66 KOCD-0001 Comiket Zionia 2nd Second Impression Breakbeats Instrumental Electronic JesusMD24
BeatmapID:3009870
BeatmapSetID:1411391

[Difficulty]
HPDrainRate:7.5
CircleSize:4
OverallDifficulty:7.5
ApproachRate:5
SliderMultiplier:1.4
SliderTickRate:1

[Events]
//Background and Video events
0,0,"Platinum Garden - Background.jpg",0,0
//Break Periods
//Storyboard Layer 0 (Background)
//Storyboard Layer 1 (Fail)
//Storyboard Layer 2 (Pass)
//Storyboard Layer 3 (Foreground)
//Storyboard Sound Samples
Sample,13306,0,"Hat Open.wav",50
Sample,13503,0,"Tom3.wav",50
Sample,14095,0,"Tom3.wav",50
Sample,14687,0,"Tom3.wav",50
Sample,14885,0,"Hat Open.wav",50
Sample,15082,0,"Tom3.wav",50
Sample,15674,0,"Tom3.wav",50
Sample,16266,0,"Tom3.wav",50
Sample,16464,0,"Hat Open.wav",50
Sample,16661,0,"Tom3.wav",50
Sample,17253,0,"Tom3.wav",50
Sample,17845,0,"Tom3.wav",50
Sample,18042,0,"Hat Open.wav",50
Sample,18240,0,"Tom3.wav",50
Sample,18832,0,"Tom3.wav",50
Sample,19621,0,"Hat Open.wav",50
Sample,19819,0,"Tom3.wav",50
Sample,20411,0,"Tom3.wav",50
Sample,21003,0,"Tom3.wav",50
Sample,21200,0,"Hat Open.wav",50
Sample,21398,0,"Tom3.wav",50
Sample,21990,0,"Tom3.wav",50
Sample,22779,0,"Hat Open.wav",50
Sample,22977,0,"Tom3.wav",50
Sample,23569,0,"Tom3.wav",50
Sample,25148,0,"Tom3.wav",50
Sample,30674,0,"Hat Open.wav",50
Sample,31167,0,"Hat Open.wav",50
Sample,32253,0,"Hat Open.wav",50
Sample,32746,0,"Hat Open.wav",50
Sample,33832,0,"Hat Open.wav",50
Sample,34325,0,"Hat Open.wav",50
Sample,35411,0,"Hat Open.wav",50
Sample,35904,0,"Hat Open.wav",50
Sample,36990,0,"Hat Open.wav",50
Sample,37483,0,"Hat Open.wav",50
Sample,38569,0,"Hat Open.wav",50
Sample,39062,0,"Hat Open.wav",50
Sample,40542,0,"Hat Open.wav",50
Sample,40937,0,"Hat Open.wav",50
Sample,41332,0,"Hat Open.wav",50
Sample,43306,0,"Hat Open.wav",50
Sample,43799,0,"Hat Open.wav",50
Sample,44885,0,"Hat Open.wav",50
Sample,45378,0,"Hat Open.wav",50
Sample,46464,0,"Hat Open.wav",50
Sample,46957,0,"Hat Open.wav",50
Sample,48042,0,"Hat Open.wav",50
Sample,48536,0,"Hat Open.wav",50
Sample,49621,0,"Hat Open.wav",50
Sample,50115,0,"Hat Open.wav",50
Sample,51200,0,"Hat Open.wav",50
Sample,54161,0,"D5S.wav",45
Sample,54358,0,"G5S.wav",45
Sample,54950,0,"C7S.wav",45
Sample,55345,0,"F6S.wav",45
Sample,57516,0,"G5S.wav",45
Sample,58108,0,"C7S.wav",45
Sample,58503,0,"F6S.wav",45
Sample,60674,0,"G5S.wav",45
Sample,61464,0,"G7S.wav",45
Sample,61661,0,"F6S.wav",45
Sample,61858,0,"F7S.wav",45
Sample,63042,0,"G5S.wav",25
Sample,63832,0,"G5S.wav",45
Sample,64621,0,"G7S.wav",45
Sample,65016,0,"Tom1.wav",10
Sample,65016,0,"F7S.wav",45
Sample,66003,0,"Tom1.wav",50
Sample,66398,0,"Tom3.wav",70
Sample,66825,0,"C7S.wav",60
Sample,66990,0,"Hat Open.wav",50
Sample,68569,0,"Hat Open.wav",50
Sample,69161,0,"A5S.wav",30
Sample,69194,0,"A#5S_Bb5S.wav",60
Sample,69490,0,"G#5S_Ab5S.wav",60
Sample,69786,0,"D#5S_Eb5S.wav",60
Sample,70148,0,"Hat Open.wav",50
Sample,71727,0,"Hat Open.wav",50
Sample,73141,0,"C7S.wav",60
Sample,73306,0,"Hat Open.wav",50
Sample,74885,0,"Hat Open.wav",50
Sample,75477,0,"A5S.wav",70
Sample,75510,0,"A#5S_Bb5S.wav",60
Sample,75822,0,"G#5S_Ab5S.wav",60
Sample,76069,0,"G5S.wav",60
Sample,76464,0,"Hat Open.wav",50
Sample,76858,0,"D6S.wav",30
Sample,76891,0,"D#6S_Eb6S.wav",60
Sample,78437,0,"Hat Open.wav",50
Sample,78832,0,"Hat Open.wav",50
Sample,79227,0,"Hat Open.wav",50
Sample,79621,0,"Hat Open.wav",50
Sample,79621,0,"C#6S_Db6S_s.wav",45
Sample,80016,0,"G#6S_Ab6S_s.wav",45
Sample,80115,0,"Hat Open.wav",50
Sample,80246,0,"F6S_s.wav",45
Sample,80806,0,"D#6S_Eb6S_s.wav",45
Sample,81200,0,"Hat Open.wav",50
Sample,81200,0,"A5S_Bb5S_s.wav",45
Sample,81595,0,"G5S_Ab5S_s.wav",45
Sample,81990,0,"A#5S_Bb5S.wav",45
Sample,82779,0,"Hat Open.wav",50
Sample,82779,0,"C#6S_Db6S_s.wav",45
Sample,83174,0,"G#6S_Ab6S_s.wav",45
Sample,83273,0,"Hat Open.wav",50
Sample,83404,0,"F6S_s.wav",45
Sample,83964,0,"D#6S_Eb6S_s.wav",45
Sample,84358,0,"Hat Open.wav",50
Sample,84358,0,"A5S_Bb5S_s.wav",45
Sample,84753,0,"G5S_Ab5S_s.wav",45
Sample,85148,0,"A#5S_Bb5S.wav",45
Sample,85937,0,"Hat Open.wav",50
Sample,85937,0,"C#6S_Db6S_s.wav",45
Sample,86332,0,"G#6S_Ab6S_s.wav",45
Sample,86431,0,"Hat Open.wav",50
Sample,86562,0,"F6S_s.wav",45
Sample,87121,0,"D#6S_Eb6S_s.wav",45
Sample,87516,0,"Hat Open.wav",50
Sample,87516,0,"A5S_Bb5S_s.wav",45
Sample,87911,0,"G5S_Ab5S_s.wav",45
Sample,88306,0,"A#5S_Bb5S.wav",45
Sample,89095,0,"Hat Open.wav",50
Sample,89095,0,"C#6S_Db6S_s.wav",45
Sample,89490,0,"G#6S_Ab6S_s.wav",45
Sample,89589,0,"Hat Open.wav",50
Sample,89720,0,"F6S_s.wav",45
Sample,90279,0,"D#6S_Eb6S_s.wav",45
Sample,90674,0,"G#7S_Ab7S.wav",45
Sample,91464,0,"A7S.wav",25
Sample,91496,0,"A#7S_Bb7S.wav",45
Sample,92253,0,"Hat Open.wav",50
Sample,93832,0,"Hat Open.wav",50
Sample,95411,0,"Hat Open.wav",50
Sample,97385,0,"Hat Open.wav",50
Sample,97779,0,"Hat Open.wav",50
Sample,98174,0,"Hat Open.wav",50

[TimingPoints]
6793,394.736842105263,4,2,1,60,1,0
66792,-100,4,2,1,60,0,1
77450,-100,4,2,1,60,0,0
79424,-100,4,2,1,60,0,1
92056,-100,4,2,1,60,0,0

[HitObjects]
64,192,6792,1,2,0:0:0:0:
192,192,6792,1,0,0:0:0:0:
320,192,6990,1,2,0:0:0:30:soft-hitwhistle.wav
64,192,7187,1,8,0:0:0:0:
448,192,7187,1,0,0:0:0:0:
64,192,8766,1,8,0:0:0:0:
448,192,8766,1,0,0:0:0:0:
320,192,9062,1,8,0:0:0:30:soft-hitclap.wav
64,192,9556,1,8,0:0:0:0:
448,192,9556,1,0,0:0:0:0:
192,192,9753,1,2,0:0:0:0:
320,192,9950,1,2,0:0:0:0:
448,192,9950,1,0,0:0:0:0:
192,192,10148,1,2,0:0:0:30:soft-hitwhistle.wav
64,192,10345,1,8,0:0:0:0:
448,192,10345,1,0,0:0:0:0:
64,192,11529,1,8,0:0:0:0:
448,192,11529,1,0,0:0:0:0:
192,192,11825,1,8,0:0:0:30:soft-hitclap.wav
64,192,11924,1,8,0:0:0:0:
448,192,11924,1,0,0:0:0:0:
320,192,12220,1,8,0:0:0:30:soft-hitclap.wav
64,192,12319,1,8,0:0:0:0:
448,192,12319,1,0,0:0:0:0:
192,192,12516,1,2,0:0:0:0:
64,192,12714,1,8,0:0:0:0:
448,192,12714,1,0,0:0:0:0:
320,192,12812,1,0,0:0:0:0:
192,192,12911,1,0,0:0:0:0:
320,192,13010,1,0,0:0:0:0:
64,192,13108,1,6,0:0:0:0:
448,192,13108,1,0,0:0:0:50:Tom3.wav
320,192,13306,1,2,0:0:0:0:
64,192,13404,1,0,0:0:0:0:
192,192,13503,1,8,0:0:0:0:
448,192,13700,1,0,0:0:0:50:Hat Open.wav
320,192,13898,1,0,0:0:0:0:
64,192,13996,1,8,0:0:0:0:
192,192,14095,1,2,0:0:0:0:
448,192,14292,1,8,0:0:0:0:
64,192,14490,1,0,0:0:0:50:Hat Open.wav
320,192,14687,1,2,0:0:0:0:
192,192,14885,1,2,0:0:0:0:
448,192,14983,1,0,0:0:0:0:
64,192,15082,1,8,0:0:0:0:
320,192,15279,1,0,0:0:0:50:Hat Open.wav
192,192,15477,1,0,0:0:0:0:
448,192,15575,1,8,0:0:0:0:
64,192,15674,1,2,0:0:0:0:
320,192,15871,1,8,0:0:0:0:
192,192,16069,1,0,0:0:0:50:Hat Open.wav
448,192,16266,1,2,0:0:0:0:
192,192,16464,1,2,0:0:0:0:
320,192,16562,1,0,0:0:0:0:
64,192,16661,1,8,0:0:0:0:
448,192,16858,1,0,0:0:0:50:Hat Open.wav
192,192,17056,1,0,0:0:0:0:
320,192,17154,1,8,0:0:0:0:
64,192,17253,1,2,0:0:0:0:
448,192,17450,1,8,0:0:0:0:
320,192,17648,1,0,0:0:0:50:Hat Open.wav
64,192,17845,1,2,0:0:0:0:
320,192,18042,1,2,0:0:0:0:
192,192,18141,1,0,0:0:0:0:
448,192,18240,1,8,0:0:0:0:
64,192,18437,1,0,0:0:0:50:Hat Open.wav
320,192,18635,1,0,0:0:0:0:
192,192,18733,1,8,0:0:0:0:
448,192,18832,1,2,0:0:0:0:
64,192,19029,1,8,0:0:0:0:
320,192,19227,1,0,0:0:0:50:Hat Open.wav
64,192,19424,1,6,0:0:0:0:
448,192,19424,1,0,0:0:0:50:Tom3.wav
192,192,19621,1,2,0:0:0:0:
448,192,19720,1,0,0:0:0:0:
320,192,19819,1,8,0:0:0:0:
64,192,20016,1,0,0:0:0:50:Hat Open.wav
192,192,20214,1,0,0:0:0:0:
448,192,20312,1,8,0:0:0:0:
320,192,20411,1,2,0:0:0:0:
64,192,20608,1,8,0:0:0:0:
448,192,20806,1,0,0:0:0:50:Hat Open.wav
320,192,21003,1,2,0:0:0:0:
64,192,21200,1,2,0:0:0:0:
192,192,21299,1,0,0:0:0:0:
448,192,21398,1,8,0:0:0:0:
320,192,21595,1,0,0:0:0:50:Hat Open.wav
64,192,21792,1,0,0:0:0:0:
192,192,21891,1,8,0:0:0:0:
448,192,21990,1,2,0:0:0:0:
320,192,22187,1,8,0:0:0:0:
192,192,22385,1,0,0:0:0:50:Hat Open.wav
320,192,22582,1,6,0:0:0:0:
448,192,22582,1,0,0:0:0:50:Tom3.wav
64,192,22779,1,2,0:0:0:0:
320,192,22878,1,0,0:0:0:0:
192,192,22977,1,8,0:0:0:0:
448,192,23174,1,0,0:0:0:50:Hat Open.wav
64,192,23371,1,4,0:0:0:0:
192,192,23371,1,0,0:0:0:0:
320,192,23470,1,8,0:0:0:0:
192,192,23569,1,2,0:0:0:0:
448,192,23766,1,8,0:0:0:0:
320,192,23964,1,0,0:0:0:50:Hat Open.wav
64,192,24161,1,6,0:0:0:0:
192,192,24161,1,0,0:0:0:50:Tom3.wav
448,192,24358,1,8,0:0:0:0:
192,192,24457,1,0,0:0:0:0:
320,192,24556,1,12,0:0:0:0:
448,192,24556,1,0,0:0:0:50:Tom2.wav
320,192,24753,1,0,0:0:0:50:Tom2.wav
64,192,24950,1,4,0:0:0:0:
192,192,24950,1,8,0:0:0:0:
448,192,25049,1,8,0:0:0:0:
64,192,25148,1,2,0:0:0:0:
320,192,25345,1,12,0:0:0:0:
448,192,25345,1,0,0:0:0:50:Tom3.wav
192,192,25542,1,0,0:0:0:50:Tom3.wav
64,192,25740,1,4,0:0:0:0:
448,192,25740,1,2,0:0:0:0:
192,192,25937,128,0,26135:0:0:0:0:
64,192,26135,128,8,26332:0:0:0:0:
320,192,26332,128,0,26529:0:0:0:0:
448,192,26727,128,2,26924:0:0:0:0:
192,192,27121,128,0,27714:0:0:0:0:
64,192,27714,1,4,0:0:0:0:
448,192,27714,1,8,0:0:0:0:
448,192,27911,1,2,0:0:0:0:
192,192,28108,1,8,0:0:0:0:
320,192,28108,1,4,0:0:0:0:
192,192,28306,1,2,0:0:0:0:
64,192,28503,1,8,0:0:0:0:
448,192,28503,1,4,0:0:0:0:
64,192,28700,1,2,0:0:0:0:
192,192,28898,128,2,30477:0:0:0:0:
320,192,28898,1,4,0:0:0:0:
320,192,29095,1,2,0:0:0:0:
448,192,29292,1,8,0:0:0:0:
64,192,29490,1,0,0:0:0:0:
320,192,29589,1,8,0:0:0:0:
320,192,29786,1,8,0:0:0:0:
64,192,29885,1,2,0:0:0:0:
448,192,30082,1,8,0:0:0:0:
320,192,30279,1,0,0:0:0:50:Hat Open.wav
64,192,30477,1,2,0:0:0:0:
448,192,30477,128,0,32056:0:0:0:0:
64,192,30674,1,2,0:0:0:0:
320,192,30871,1,8,0:0:0:0:
64,192,31069,1,0,0:0:0:50:Hat Open.wav
192,192,31167,1,8,0:0:0:0:
192,192,31365,1,8,0:0:0:0:
64,192,31464,1,2,0:0:0:0:
320,192,31661,1,8,0:0:0:0:
192,192,31858,1,0,0:0:0:50:Hat Open.wav
64,192,32056,1,2,0:0:0:0:
320,192,32056,128,0,32352:0:0:0:0:
64,192,32253,1,2,0:0:0:0:
448,192,32352,1,0,0:0:0:0:
192,192,32450,1,8,0:0:0:0:
64,192,32648,128,0,34424:0:0:0:50:Hat Open.wav
448,192,32648,1,0,0:0:0:0:
320,192,32746,1,8,0:0:0:0:
320,192,32944,1,8,0:0:0:0:
448,192,33042,1,2,0:0:0:0:
192,192,33240,1,8,0:0:0:0:
320,192,33437,1,0,0:0:0:50:Hat Open.wav
448,192,33635,1,2,0:0:0:0:
448,192,33832,1,2,0:0:0:0:
192,192,34029,1,8,0:0:0:0:
320,192,34227,1,0,0:0:0:50:Hat Open.wav
448,192,34325,1,8,0:0:0:0:
192,192,34424,128,0,34720:0:0:0:0:
448,192,34523,1,8,0:0:0:0:
320,192,34621,1,2,0:0:0:0:
64,192,34720,128,0,35016:0:0:0:0:
448,192,34819,1,8,0:0:0:0:
320,192,35016,128,0,35214:0:0:0:50:Hat Open.wav
192,192,35214,1,2,0:0:0:0:
448,192,35214,128,0,36792:0:0:0:0:
192,192,35411,1,2,0:0:0:0:
320,192,35608,1,8,0:0:0:0:
64,192,35806,1,0,0:0:0:50:Hat Open.wav
192,192,35904,1,8,0:0:0:0:
192,192,36102,1,8,0:0:0:0:
64,192,36200,1,2,0:0:0:0:
320,192,36398,1,8,0:0:0:0:
64,192,36595,1,0,0:0:0:50:Hat Open.wav
192,192,36792,128,2,38371:0:0:0:0:
320,192,36792,1,0,0:0:0:0:
320,192,36990,1,2,0:0:0:0:
64,192,37187,1,8,0:0:0:0:
448,192,37385,1,0,0:0:0:50:Hat Open.wav
320,192,37483,1,8,0:0:0:0:
320,192,37681,1,8,0:0:0:0:
448,192,37779,1,2,0:0:0:0:
64,192,37977,1,8,0:0:0:0:
320,192,38174,1,0,0:0:0:50:Hat Open.wav
64,192,38371,128,2,38667:0:0:0:0:
448,192,38371,1,0,0:0:0:0:
448,192,38569,1,2,0:0:0:0:
192,192,38667,1,0,0:0:0:0:
320,192,38766,1,8,0:0:0:0:
64,192,38964,1,0,0:0:0:50:Hat Open.wav
448,192,38964,128,0,40740:0:0:0:0:
192,192,39062,1,8,0:0:0:0:
192,192,39260,1,8,0:0:0:0:
64,192,39358,1,2,0:0:0:0:
320,192,39556,1,8,0:0:0:0:
192,192,39753,1,0,0:0:0:50:Hat Open.wav
64,192,39950,1,2,0:0:0:0:
64,192,40148,1,8,0:0:0:0:
320,192,40345,1,8,0:0:0:0:
192,192,40542,1,2,0:0:0:0:
64,192,40740,1,8,0:0:0:0:
320,192,40740,1,0,0:0:0:0:
64,192,40937,1,2,0:0:0:0:
192,192,41135,1,8,0:0:0:0:
448,192,41135,1,0,0:0:0:0:
448,192,41332,1,2,0:0:0:0:
64,192,41529,128,2,43108:0:0:0:0:
320,192,41529,1,4,0:0:0:0:
320,192,41727,1,2,0:0:0:0:
448,192,41924,1,8,0:0:0:0:
192,192,42121,1,0,0:0:0:0:
320,192,42220,1,8,0:0:0:0:
320,192,42417,1,8,0:0:0:0:
192,192,42516,1,2,0:0:0:0:
448,192,42714,1,8,0:0:0:0:
320,192,42911,1,0,0:0:0:50:Hat Open.wav
192,192,43108,1,2,0:0:0:0:
448,192,43108,128,0,44687:0:0:0:0:
192,192,43306,1,2,0:0:0:0:
64,192,43503,1,8,0:0:0:0:
320,192,43700,1,0,0:0:0:50:Hat Open.wav
192,192,43799,1,8,0:0:0:0:
192,192,43996,1,8,0:0:0:0:
320,192,44095,1,2,0:0:0:0:
64,192,44292,1,8,0:0:0:0:
192,192,44490,1,0,0:0:0:50:Hat Open.wav
64,192,44687,128,2,44983:0:0:0:0:
320,192,44687,1,0,0:0:0:0:
320,192,44885,1,2,0:0:0:0:
192,192,44983,1,0,0:0:0:0:
448,192,45082,1,8,0:0:0:0:
64,192,45279,1,0,0:0:0:50:Hat Open.wav
320,192,45279,128,0,47056:0:0:0:0:
192,192,45378,1,8,0:0:0:0:
192,192,45575,1,8,0:0:0:0:
64,192,45674,1,2,0:0:0:0:
448,192,45871,1,8,0:0:0:0:
64,192,46069,1,0,0:0:0:50:Hat Open.wav
192,192,46266,1,2,0:0:0:0:
192,192,46464,1,2,0:0:0:0:
448,192,46661,1,8,0:0:0:0:
192,192,46858,1,0,0:0:0:50:Hat Open.wav
64,192,46957,1,8,0:0:0:0:
448,192,47056,128,0,47352:0:0:0:0:
64,192,47154,1,8,0:0:0:0:
192,192,47253,1,2,0:0:0:0:
320,192,47352,128,0,47648:0:0:0:0:
64,192,47450,1,8,0:0:0:0:
192,192,47648,128,0,47845:0:0:0:50:Hat Open.wav
64,192,47845,1,2,0:0:0:0:
448,192,47845,128,0,49424:0:0:0:0:
64,192,48042,1,2,0:0:0:0:
320,192,48240,1,8,0:0:0:0:
64,192,48437,1,0,0:0:0:50:Hat Open.wav
192,192,48536,1,8,0:0:0:0:
192,192,48733,1,8,0:0:0:0:
64,192,48832,1,2,0:0:0:0:
320,192,49029,1,8,0:0:0:0:
192,192,49227,1,0,0:0:0:50:Hat Open.wav
64,192,49424,128,2,51003:0:0:0:0:
320,192,49424,1,0,0:0:0:0:
320,192,49621,1,2,0:0:0:0:
192,192,49819,1,8,0:0:0:0:
448,192,50016,1,0,0:0:0:50:Hat Open.wav
320,192,50115,1,8,0:0:0:0:
320,192,50312,1,8,0:0:0:0:
448,192,50411,1,2,0:0:0:0:
192,192,50608,1,8,0:0:0:0:
320,192,50806,1,0,0:0:0:50:Hat Open.wav
192,192,51003,128,2,51299:0:0:0:0:
448,192,51003,1,4,0:0:0:0:
448,192,51200,1,2,0:0:0:0:
64,192,51299,1,0,0:0:0:0:
320,192,51398,1,8,0:0:0:0:
192,192,51595,1,0,0:0:0:50:Hat Open.wav
448,192,51595,128,0,53371:0:0:0:0:
64,192,51792,1,4,0:0:0:0:
320,192,51792,1,0,0:0:0:0:
192,192,51990,1,2,0:0:0:0:
64,192,52187,1,8,0:0:0:0:
320,192,52385,1,0,0:0:0:50:Hat Open.wav
64,192,52582,1,2,0:0:0:0:
192,192,52582,1,4,0:0:0:0:
64,192,52779,1,8,0:0:0:0:
192,192,52977,1,8,0:0:0:0:
320,192,52977,1,4,0:0:0:0:
320,192,53174,1,0,0:0:0:0:
64,192,53371,1,8,0:0:0:0:
192,192,53371,1,0,0:0:0:0:
320,192,53569,1,2,0:0:0:0:
64,192,53766,1,8,0:0:0:0:
448,192,53766,1,0,0:0:0:0:
192,192,53865,1,0,0:0:0:50:Hat Open.wav
320,192,53964,1,0,0:0:0:10:Tom3.wav
448,192,54062,1,0,0:0:0:30:Tom3.wav
64,192,54161,1,6,0:0:0:0:
192,192,54161,1,0,0:0:0:50:Tom3.wav
320,192,54358,1,0,0:0:0:50:Hat Open.wav
192,192,54457,1,0,0:0:0:0:
64,192,54556,1,8,0:0:0:0:
448,192,54556,1,0,0:0:0:45:D6S.wav
320,192,54753,1,6,0:0:0:0:
448,192,54753,1,0,0:0:0:45:G6S.wav
192,192,54950,1,0,0:0:0:50:Hat Open.wav
320,192,55049,1,0,0:0:0:0:
64,192,55148,1,8,0:0:0:0:
448,192,55148,1,0,0:0:0:45:G7S.wav
64,192,55345,128,12,55740:0:0:0:0:
192,192,55345,1,0,0:0:0:50:Tom2.wav
320,192,55542,1,0,0:0:0:45:F7S.wav
192,192,55740,1,0,0:0:0:50:Tom1.wav
448,192,55740,1,0,0:0:0:0:
64,192,56135,1,0,0:0:0:45:C7S.wav
320,192,56529,1,6,0:0:0:0:
448,192,56529,1,0,0:0:0:45:C8S.wav
192,192,56727,1,0,0:0:0:45:G5S.wav
320,192,56825,1,2,0:0:0:0:
64,192,56924,1,8,0:0:0:0:
448,192,56924,1,0,0:0:0:50:Tom1.wav
192,192,57121,1,2,0:0:0:0:
320,192,57121,1,0,0:0:0:45:F5S.wav
64,192,57319,1,6,0:0:0:0:
192,192,57319,1,0,0:0:0:45:D5S.wav
448,192,57516,1,0,0:0:0:50:Hat Open.wav
192,192,57615,1,0,0:0:0:0:
64,192,57714,1,8,0:0:0:0:
320,192,57714,1,0,0:0:0:45:D6S.wav
320,192,57911,1,6,0:0:0:0:
448,192,57911,1,0,0:0:0:45:G6S.wav
64,192,58108,1,0,0:0:0:50:Hat Open.wav
320,192,58207,1,0,0:0:0:0:
192,192,58306,1,8,0:0:0:0:
448,192,58306,1,0,0:0:0:45:G7S.wav
64,192,58503,128,12,58898:0:0:0:0:
192,192,58503,1,0,0:0:0:50:Tom2.wav
320,192,58700,1,0,0:0:0:45:F7S.wav
192,192,58898,1,0,0:0:0:50:Tom1.wav
448,192,58898,1,0,0:0:0:0:
320,192,59292,1,0,0:0:0:45:C7S.wav
64,192,59687,1,6,0:0:0:0:
192,192,59687,1,0,0:0:0:45:C8S.wav
448,192,59885,1,0,0:0:0:25:G5S.wav
192,192,59983,1,2,0:0:0:0:
64,192,60082,1,8,0:0:0:0:
320,192,60082,1,0,0:0:0:0:
192,192,60279,1,2,0:0:0:0:
448,192,60279,1,0,0:0:0:25:F5S.wav
320,192,60477,1,12,0:0:0:0:
448,192,60477,1,0,0:0:0:45:D5S.wav
192,192,60674,1,0,0:0:0:50:Hat Open.wav
320,192,60773,1,2,0:0:0:0:
64,192,60871,1,8,0:0:0:0:
448,192,60871,1,0,0:0:0:45:D6S.wav
64,192,61069,1,6,0:0:0:0:
192,192,61069,1,0,0:0:0:45:G6S.wav
320,192,61266,1,8,0:0:0:0:
448,192,61266,1,0,0:0:0:45:C7S.wav
192,192,61365,1,2,0:0:0:0:
64,192,61464,1,0,0:0:0:50:Hat Open.wav
192,192,61661,128,8,62056:0:0:0:0:
448,192,61661,1,0,0:0:0:50:Tom2.wav
320,192,61858,1,2,0:0:0:0:
64,192,62056,1,8,0:0:0:0:
448,192,62056,1,0,0:0:0:50:Tom1.wav
320,192,62253,1,0,0:0:0:50:Hat Open.wav
64,192,62352,1,2,0:0:0:0:
192,192,62450,1,12,0:0:0:0:
448,192,62450,1,0,0:0:0:45:C7S.wav
320,192,62648,1,2,0:0:0:0:
64,192,62845,1,12,0:0:0:0:
192,192,62845,1,0,0:0:0:45:C8S.wav
320,192,63042,1,0,0:0:0:50:Hat Open.wav
192,192,63141,1,2,0:0:0:0:
64,192,63240,1,8,0:0:0:0:
448,192,63240,1,4,0:0:0:0:
192,192,63437,1,2,0:0:0:0:
320,192,63437,1,0,0:0:0:25:F5S.wav
64,192,63635,1,12,0:0:0:0:
192,192,63635,1,0,0:0:0:45:D5S.wav
320,192,63832,1,0,0:0:0:50:Hat Open.wav
64,192,63931,1,2,0:0:0:0:
192,192,64029,1,8,0:0:0:0:
448,192,64029,1,0,0:0:0:45:D6S.wav
320,192,64227,1,6,0:0:0:0:
448,192,64227,1,0,0:0:0:45:G6S.wav
64,192,64424,1,8,0:0:0:0:
192,192,64424,1,0,0:0:0:45:C7S.wav
448,192,64523,1,2,0:0:0:0:
320,192,64621,1,0,0:0:0:50:Hat Open.wav
64,192,64819,1,8,0:0:0:0:
192,192,64819,128,0,65214:0:0:0:45:F6S.wav
320,192,65016,1,2,0:0:0:0:
64,192,65214,1,8,0:0:0:0:
448,192,65214,1,0,0:0:0:50:Tom1.wav
64,192,65608,1,2,0:0:0:0:
192,192,65608,1,4,0:0:0:0:
448,192,65707,1,0,0:0:0:0:
192,192,65806,1,0,0:0:0:10:Tom1.wav
448,192,65904,1,0,0:0:0:20:Tom1.wav
64,192,66003,1,8,0:0:0:0:
320,192,66102,1,8,0:0:0:10:soft-hitclap.wav
64,192,66200,1,8,0:0:0:20:soft-hitclap.wav
320,192,66299,1,8,0:0:0:30:soft-hitclap.wav
192,192,66398,1,2,0:0:0:90:soft-hitwhistle.wav
448,192,66398,128,8,66792:0:0:0:70:soft-hitclap.wav
64,192,66792,1,6,0:0:0:0:
192,192,66792,1,0,0:0:0:40:A#5S_Bb5S.wav
320,192,66990,1,2,0:0:0:0:
64,192,67187,1,8,0:0:0:0:
448,192,67187,1,0,0:0:0:0:
192,192,67385,1,0,0:0:0:50:Hat Open.wav
320,192,67483,1,8,0:0:0:0:
448,192,67483,1,0,0:0:0:50:Hat Open.wav
320,192,67681,1,8,0:0:0:0:
448,192,67681,1,0,0:0:0:0:
64,192,67779,1,2,0:0:0:0:
320,192,67977,1,8,0:0:0:0:
448,192,67977,1,0,0:0:0:0:
192,192,68075,1,2,0:0:0:0:
64,192,68174,1,0,0:0:0:50:Hat Open.wav
320,192,68371,1,2,0:0:0:0:
448,192,68371,1,0,0:0:0:0:
192,192,68569,1,2,0:0:0:0:
64,192,68766,1,8,0:0:0:0:
448,192,68766,1,0,0:0:0:0:
320,192,68964,1,0,0:0:0:50:Hat Open.wav
64,192,69062,1,8,0:0:0:0:
192,192,69062,1,0,0:0:0:50:Hat Open.wav
64,192,69260,1,8,0:0:0:0:
192,192,69260,1,0,0:0:0:0:
448,192,69358,1,2,0:0:0:0:
64,192,69556,1,8,0:0:0:0:
192,192,69556,1,0,0:0:0:0:
320,192,69654,1,2,0:0:0:0:
448,192,69753,1,0,0:0:0:50:Hat Open.wav
64,192,69950,1,2,0:0:0:0:
192,192,69950,1,0,0:0:0:0:
320,192,70148,1,2,0:0:0:0:
64,192,70345,1,8,0:0:0:0:
448,192,70345,1,0,0:0:0:0:
192,192,70542,1,0,0:0:0:50:Hat Open.wav
320,192,70641,1,8,0:0:0:0:
448,192,70641,1,0,0:0:0:50:Hat Open.wav
320,192,70839,1,8,0:0:0:0:
448,192,70839,1,0,0:0:0:0:
64,192,70937,1,2,0:0:0:0:
320,192,71135,1,8,0:0:0:0:
448,192,71135,1,0,0:0:0:0:
192,192,71233,1,2,0:0:0:0:
64,192,71332,1,0,0:0:0:50:Hat Open.wav
320,192,71529,1,2,0:0:0:0:
448,192,71529,1,0,0:0:0:0:
192,192,71727,1,2,0:0:0:0:
64,192,71924,1,8,0:0:0:0:
448,192,71924,1,0,0:0:0:0:
320,192,72121,1,0,0:0:0:50:Hat Open.wav
64,192,72220,1,8,0:0:0:0:
192,192,72220,1,0,0:0:0:50:Hat Open.wav
64,192,72417,1,8,0:0:0:0:
192,192,72417,1,0,0:0:0:0:
448,192,72516,1,2,0:0:0:0:
64,192,72714,1,8,0:0:0:0:
192,192,72714,1,0,0:0:0:60:C5S.wav
320,192,72812,1,2,0:0:0:0:
448,192,72911,1,0,0:0:0:50:Hat Open.wav
64,192,73108,1,2,0:0:0:0:
320,192,73108,1,0,0:0:0:40:A#5S_Bb5S.wav
192,192,73306,1,2,0:0:0:0:
320,192,73503,1,8,0:0:0:0:
448,192,73503,1,0,0:0:0:0:
64,192,73700,1,0,0:0:0:50:Hat Open.wav
192,192,73799,1,8,0:0:0:0:
448,192,73799,1,0,0:0:0:50:Hat Open.wav
192,192,73996,1,8,0:0:0:0:
448,192,73996,1,0,0:0:0:0:
320,192,74095,1,2,0:0:0:0:
192,192,74292,1,8,0:0:0:0:
448,192,74292,1,0,0:0:0:0:
64,192,74391,1,2,0:0:0:0:
320,192,74490,1,0,0:0:0:50:Hat Open.wav
192,192,74687,1,2,0:0:0:0:
448,192,74687,1,0,0:0:0:0:
320,192,74885,1,2,0:0:0:0:
64,192,75082,1,8,0:0:0:0:
192,192,75082,1,0,0:0:0:0:
448,192,75279,1,0,0:0:0:50:Hat Open.wav
64,192,75378,1,8,0:0:0:0:
320,192,75378,1,0,0:0:0:50:Hat Open.wav
64,192,75575,1,8,0:0:0:0:
320,192,75575,1,0,0:0:0:0:
192,192,75674,1,2,0:0:0:0:
64,192,75871,1,8,0:0:0:0:
320,192,75871,1,0,0:0:0:0:
448,192,75970,1,2,0:0:0:0:
192,192,76069,1,0,0:0:0:50:Hat Open.wav
64,192,76266,1,2,0:0:0:0:
320,192,76266,1,0,0:0:0:60:G#5S_Ab5S.wav
192,192,76464,1,2,0:0:0:0:
320,192,76661,1,8,0:0:0:0:
448,192,76661,1,0,0:0:0:0:
64,192,76858,1,0,0:0:0:50:Hat Open.wav
192,192,76957,1,8,0:0:0:0:
448,192,76957,1,0,0:0:0:50:Hat Open.wav
192,192,77154,1,8,0:0:0:0:
448,192,77154,1,0,0:0:0:0:
320,192,77253,1,2,0:0:0:0:
192,192,77450,1,8,0:0:0:0:
448,192,77450,1,0,0:0:0:0:
64,192,77549,1,2,0:0:0:0:
320,192,77648,1,0,0:0:0:50:Hat Open.wav
64,192,77845,1,2,0:0:0:0:
192,192,77845,1,0,0:0:0:0:
320,192,78042,1,8,0:0:0:0:
64,192,78240,1,8,0:0:0:0:
448,192,78240,1,0,0:0:0:0:
448,192,78437,1,2,0:0:0:0:
192,192,78635,1,8,0:0:0:0:
320,192,78635,1,0,0:0:0:0:
192,192,78832,1,2,0:0:0:0:
64,192,79029,1,8,0:0:0:0:
448,192,79029,1,0,0:0:0:0:
64,192,79227,1,2,0:0:0:0:
320,192,79424,1,4,0:0:0:0:
448,192,79424,1,2,0:0:0:0:
192,192,79621,1,2,0:0:0:0:
64,192,79819,1,8,0:0:0:0:
448,192,79819,1,0,0:0:0:45:D#6S_Eb6S_s.wav
320,192,80016,1,0,0:0:0:50:Hat Open.wav
192,192,80115,1,8,0:0:0:0:
448,192,80214,1,0,0:0:0:25:E6S_s.wav
320,192,80312,1,8,0:0:0:0:
192,192,80411,1,2,0:0:0:0:
320,192,80608,1,8,0:0:0:0:
448,192,80608,1,0,0:0:0:45:C#6S_Db6S_s.wav
64,192,80707,1,2,0:0:0:0:
192,192,80806,1,0,0:0:0:50:Hat Open.wav
320,192,81003,1,2,0:0:0:0:
448,192,81003,1,0,0:0:0:0:
192,192,81200,1,2,0:0:0:0:
64,192,81398,1,8,0:0:0:0:
448,192,81398,1,0,0:0:0:0:
320,192,81595,1,0,0:0:0:50:Hat Open.wav
64,192,81694,1,8,0:0:0:0:
192,192,81694,1,0,0:0:0:50:Hat Open.wav
64,192,81891,1,8,0:0:0:0:
192,192,81891,1,0,0:0:0:0:
448,192,81990,1,2,0:0:0:0:
64,192,82187,1,8,0:0:0:0:
320,192,82187,1,0,0:0:0:0:
192,192,82286,1,2,0:0:0:0:
448,192,82385,1,0,0:0:0:50:Hat Open.wav
64,192,82582,1,2,0:0:0:0:
192,192,82582,1,0,0:0:0:0:
320,192,82779,1,2,0:0:0:0:
64,192,82977,1,8,0:0:0:0:
448,192,82977,1,0,0:0:0:45:D#6S_Eb6S_s.wav
192,192,83174,1,0,0:0:0:50:Hat Open.wav
320,192,83273,1,8,0:0:0:0:
448,192,83371,1,0,0:0:0:25:E6S_s.wav
192,192,83470,1,8,0:0:0:0:
320,192,83569,1,2,0:0:0:0:
64,192,83766,1,8,0:0:0:0:
192,192,83766,1,0,0:0:0:45:C#6S_Db6S_s.wav
448,192,83865,1,2,0:0:0:0:
320,192,83964,1,0,0:0:0:50:Hat Open.wav
64,192,84161,1,2,0:0:0:0:
192,192,84161,1,0,0:0:0:0:
320,192,84358,1,2,0:0:0:0:
64,192,84556,1,8,0:0:0:0:
448,192,84556,1,0,0:0:0:0:
192,192,84753,1,0,0:0:0:50:Hat Open.wav
320,192,84852,1,8,0:0:0:0:
448,192,84852,1,0,0:0:0:50:Hat Open.wav
320,192,85049,1,8,0:0:0:0:
448,192,85049,1,0,0:0:0:0:
64,192,85148,1,2,0:0:0:0:
192,192,85345,1,8,0:0:0:0:
448,192,85345,1,0,0:0:0:0:
320,192,85444,1,2,0:0:0:0:
64,192,85542,1,0,0:0:0:50:Hat Open.wav
320,192,85740,1,2,0:0:0:0:
448,192,85740,1,0,0:0:0:0:
192,192,85937,1,2,0:0:0:0:
64,192,86135,1,8,0:0:0:0:
448,192,86135,1,0,0:0:0:45:D#6S_Eb6S_s.wav
320,192,86332,1,0,0:0:0:50:Hat Open.wav
192,192,86431,1,8,0:0:0:0:
64,192,86529,1,0,0:0:0:25:E6S_s.wav
320,192,86628,1,8,0:0:0:0:
192,192,86727,1,2,0:0:0:0:
320,192,86924,1,8,0:0:0:0:
448,192,86924,1,0,0:0:0:45:C#6S_Db6S_s.wav
64,192,87023,1,2,0:0:0:0:
192,192,87121,1,0,0:0:0:50:Hat Open.wav
320,192,87319,1,2,0:0:0:0:
448,192,87319,1,0,0:0:0:0:
192,192,87516,1,2,0:0:0:0:
64,192,87714,1,8,0:0:0:0:
320,192,87714,1,0,0:0:0:0:
448,192,87911,1,0,0:0:0:50:Hat Open.wav
64,192,88010,1,8,0:0:0:0:
192,192,88010,1,0,0:0:0:50:Hat Open.wav
64,192,88207,1,8,0:0:0:0:
192,192,88207,1,0,0:0:0:0:
320,192,88306,1,2,0:0:0:0:
64,192,88503,1,8,0:0:0:0:
448,192,88503,1,0,0:0:0:0:
192,192,88602,1,2,0:0:0:0:
320,192,88700,1,0,0:0:0:50:Hat Open.wav
64,192,88898,1,2,0:0:0:0:
192,192,88898,1,4,0:0:0:0:
320,192,89095,1,2,0:0:0:0:
64,192,89292,1,8,0:0:0:0:
448,192,89292,1,0,0:0:0:45:D#6S_Eb6S_s.wav
192,192,89490,1,0,0:0:0:50:Hat Open.wav
320,192,89589,1,8,0:0:0:0:
64,192,89687,1,4,0:0:0:0:
448,192,89687,1,0,0:0:0:25:E6S_s.wav
192,192,89786,1,8,0:0:0:0:
320,192,89885,1,2,0:0:0:0:
64,192,90082,1,8,0:0:0:0:
192,192,90082,1,0,0:0:0:45:C#6S_Db6S_s.wav
448,192,90181,1,2,0:0:0:0:
320,192,90279,1,0,0:0:0:50:Hat Open.wav
192,192,90477,1,2,0:0:0:0:
448,192,90477,1,4,0:0:0:0:
192,192,90674,1,8,0:0:0:0:
64,192,90871,1,8,0:0:0:0:
320,192,90871,1,4,0:0:0:0:
320,192,91069,1,0,0:0:0:45:G#7S_Ab7S.wav
192,192,91167,1,8,0:0:0:20:soft-hitclap.wav
64,192,91266,1,8,0:0:0:0:
448,192,91266,1,4,0:0:0:0:
320,192,91365,1,8,0:0:0:0:
192,192,91464,1,2,0:0:0:0:
64,192,91661,1,8,0:0:0:0:
448,192,91661,1,4,0:0:0:0:
192,192,91760,1,0,0:0:0:50:Hat Open.wav
320,192,91858,1,0,0:0:0:10:Tom3.wav
64,192,92056,1,6,0:0:0:0:
192,192,92056,1,0,0:0:0:50:Tom3.wav
320,192,92253,1,2,0:0:0:0:
64,192,92450,1,8,0:0:0:0:
448,192,92450,1,0,0:0:0:0:
192,192,92648,1,0,0:0:0:50:Hat Open.wav
320,192,92746,1,8,0:0:0:0:
448,192,92746,1,0,0:0:0:50:Hat Open.wav
320,192,92944,1,8,0:0:0:0:
448,192,92944,1,0,0:0:0:0:
64,192,93042,1,2,0:0:0:0:
320,192,93240,1,8,0:0:0:0:
448,192,93240,1,0,0:0:0:0:
192,192,93339,1,2,0:0:0:0:
64,192,93437,1,0,0:0:0:50:Hat Open.wav
320,192,93635,1,2,0:0:0:0:
448,192,93635,1,0,0:0:0:0:
192,192,93832,1,2,0:0:0:0:
64,192,94029,1,8,0:0:0:0:
448,192,94029,1,0,0:0:0:0:
320,192,94227,1,0,0:0:0:50:Hat Open.wav
64,192,94325,1,8,0:0:0:0:
192,192,94325,1,0,0:0:0:50:Hat Open.wav
64,192,94523,1,8,0:0:0:0:
192,192,94523,1,0,0:0:0:0:
448,192,94621,1,2,0:0:0:0:
64,192,94819,1,8,0:0:0:0:
192,192,94819,1,0,0:0:0:0:
320,192,94917,1,2,0:0:0:0:
448,192,95016,1,0,0:0:0:50:Hat Open.wav
64,192,95214,1,2,0:0:0:0:
192,192,95214,1,0,0:0:0:0:
320,192,95411,1,2,0:0:0:0:
64,192,95608,1,8,0:0:0:0:
448,192,95608,1,0,0:0:0:0:
192,192,95806,1,0,0:0:0:50:Hat Open.wav
320,192,95904,1,8,0:0:0:0:
448,192,95904,1,0,0:0:0:50:Hat Open.wav
320,192,96102,1,8,0:0:0:0:
448,192,96102,1,0,0:0:0:0:
64,192,96200,1,2,0:0:0:0:
320,192,96398,1,8,0:0:0:0:
448,192,96398,1,0,0:0:0:0:
64,192,96496,1,2,0:0:0:0:
192,192,96595,1,0,0:0:0:50:Hat Open.wav
64,192,96792,1,2,0:0:0:0:
448,192,96792,1,0,0:0:0:0:
320,192,96990,1,8,0:0:0:0:
64,192,97187,1,8,0:0:0:0:
192,192,97187,1,0,0:0:0:0:
64,192,97385,1,2,0:0:0:0:
320,192,97582,1,8,0:0:0:0:
448,192,97582,1,0,0:0:0:0:
320,192,97779,1,2,0:0:0:0:
64,192,97977,1,8,0:0:0:0:
192,192,97977,1,0,0:0:0:0:
192,192,98174,1,2,0:0:0:0:
64,192,98371,1,4,0:0:0:0:
448,192,98371,1,2,0:0:0:0:
320,192,98569,1,0,0:0:0:0:
64,192,98766,1,0,0:0:0:0:
320,192,98964,1,0,0:0:0:0:
192,192,99358,1,0,0:0:0:0:
320,192,99556,1,0,0:0:0:0:
448,192,99753,1,0,0:0:0:0:
64,192,99950,1,0,0:0:0:0:
192,192,100148,1,0,0:0:0:0:
192,192,100542,1,0,0:0:0:0:
320,192,100740,1,0,0:0:0:0:
448,192,100937,1,0,0:0:0:0:
192,192,101135,128,0,101529:0:0:0:0:
320,192,101529,1,0,0:0:0:0:
192,192,101727,1,0,0:0:0:0:
448,192,101924,1,0,0:0:0:0:
320,192,102121,1,0,0:0:0:0:
320,192,102516,1,0,0:0:0:0:
64,192,102714,1,0,0:0:0:0:
192,192,102911,128,0,103700:0:0:0:0:
64,192,104292,1,8,0:0:0:0:
192,192,104391,1,8,0:0:0:0:
448,192,104490,1,8,0:0:0:0:
320,192,104589,1,8,0:0:0:0:
64,192,104687,1,4,0:0:0:0:
192,192,104687,1,2,0:0:0:0:
