osu file format v9

[General]
AudioFilename: paraoka - mani mani.mp3
AudioLeadIn: 0
PreviewTime: 67325
Countdown: 0
SampleSet: Normal
StackLeniency: 0.7
Mode: 0
LetterboxInBreaks: 1

[Editor]
DistanceSpacing: 1
BeatDivisor: 4
GridSize: 8

[Metadata]
Title:Manima ni (Short Ver.)
Artist:paraoka
Creator:NatsumeRin
Version:Hard
Source:
Tags:haru*nya climbb65588 kanarin

[Difficulty]
HPDrainRate:6
CircleSize:4
OverallDifficulty:6
ApproachRate:8
SliderMultiplier:1.6
SliderTickRate:1

[Events]
//Background and Video events
0,0,"bg.jpg"
//Break Periods
2,88281,97710
//Storyboard Layer 0 (Background)
//Storyboard Layer 1 (Fail)
//Storyboard Layer 2 (Pass)
//Storyboard Layer 3 (Foreground)
//Storyboard Sound Samples
//Background Colour Transformations
3,100,163,162,255

[TimingPoints]
1163,324.324324324324,4,2,1,70,1,0
4892,-100,4,2,1,60,0,0
14135,-133.333333333333,4,2,1,70,0,0
14784,-133.333333333333,4,1,2,70,0,0
15433,-100,4,1,1,80,0,0
33595,-100,4,1,0,45,0,0
33919,-100,4,1,0,50,0,0
34244,-100,4,1,0,55,0,0
34568,-100,4,1,0,60,0,0
34892,-100,4,1,1,80,0,0
35541,-83.3333333333333,4,1,1,80,0,0
35865,-83.3333333333333,4,1,2,80,0,0
36190,-100,4,1,1,80,0,0
36514,-100,4,2,1,80,0,0
45271,-100,4,1,1,90,0,0
46244,-100,4,2,2,70,0,0
46568,-100,4,1,1,80,0,0
46892,-100,4,2,1,80,0,0
54027,-100,4,2,1,90,0,0
55811,-100,4,1,1,90,0,0
56946,-166.666666666667,4,1,1,75,0,0
62135,-133.333333333333,4,1,1,75,0,0
64730,-111.111111111111,4,1,1,80,0,0
66027,-111.111111111111,4,2,1,100,0,0
66676,-111.111111111111,4,1,2,90,0,0
66919,-111.111111111111,4,1,1,5,0,0
67000,-111.111111111111,4,2,2,80,0,0
67325,-100,4,2,1,95,0,1
76406,-100,4,1,1,95,0,1
77135,-100,4,1,1,60,0,1
77379,-100,4,2,2,80,0,1
77703,-100,4,2,1,95,0,1
86784,-166.666666666667,4,2,1,95,0,1
87433,-166.666666666667,4,1,2,80,0,1
87757,-166.666666666667,4,1,2,5,0,1
88081,-166.666666666667,4,2,1,95,0,0
98460,-100,4,1,1,80,0,0
98784,-100,4,2,1,80,0,0
107541,-100,4,1,1,90,0,0
108514,-100,4,2,2,80,0,0
108838,-100,4,1,1,80,0,0
109162,-100,4,2,1,80,0,0
116298,-100,4,2,1,90,0,0
118081,-100,4,1,1,90,0,0
119217,-166.666666666667,4,1,1,75,0,0
124406,-133.333333333333,4,1,1,75,0,0
127000,-111.111111111111,4,1,1,80,0,0
128298,-111.111111111111,4,2,1,100,0,0
128946,-111.111111111111,4,1,2,90,0,0
129190,-111.111111111111,4,2,1,5,0,0
129271,-111.111111111111,4,2,2,80,0,0
129595,-100,4,2,1,95,0,1
138676,-100,4,1,1,95,0,1
139406,-100,4,1,1,60,0,1
139649,-100,4,2,2,80,0,1
139973,-100,4,2,1,95,0,1
143865,-83.3333333333333,4,2,1,95,0,1
144514,-100,4,2,1,95,0,1
149054,-166.666666666667,4,2,1,95,0,1
149703,-166.666666666667,4,1,2,80,0,1
150027,-166.666666666667,4,1,2,5,0,1
150352,-166.666666666667,4,2,1,60,0,0
150676,-166.666666666667,4,2,1,90,0,0

[Colours]
Combo1 : 255,255,106
Combo2 : 255,128,255
Combo3 : 128,255,255
Combo4 : 223,223,223

[HitObjects]
256,192,1649,12,4,3757
168,280,4892,5,0
240,248,5054,2,0,B|296:232|344:264|344:264|368:240|360:208,1,160,0|2
408,48,5703,2,0,B|352:64|304:32|304:32|280:56|288:88,1,160,0|2
304,160,6190,1,2
224,136,6352,6,0,B|168:144|144:200|144:200|120:224|64:192,1,160,0|2
160,352,7000,2,0,B|216:344|240:288|240:288|264:264|320:296,1,160,0|2
360,320,7487,1,2
432,280,7649,6,0,B|480:248|496:176|464:128,1,160,0|2
352,32,8298,2,0,B|304:64|288:136|320:184,1,160,0|2
360,240,8784,1,0
280,248,8946,6,0,B|232:224|152:248|136:304,2,160,0|2|0
328,312,9757,1,2
360,240,9919,1,2
312,176,10081,1,2
232,184,10244,6,0,B|184:208|136:176|136:176|112:224|56:216,1,160,0|2
192,88,10892,2,0,B|240:64|288:96|288:96|312:48|368:56,1,160,0|2
360,136,11379,1,2
408,72,11541,6,0,B|464:104|456:184|400:208,2,160,0|2|0
384,312,12514,1,0
336,248,12676,1,2
288,184,12838,1,4
288,184,13811,5,0
288,184,14135,2,0,B|232:120|184:152|184:152|232:184|288:120,1,239.999992847443,0|8
304,104,15433,6,0,B|352:72|432:88|448:152,1,160,2|10
400,208,15919,1,0
320,192,16081,2,0,B|304:240|352:288,1,80,0|2
429,365,16406,2,0,B|445:317|397:269,1,80,8|2
280,328,16730,6,0,B|248:376|168:288|120:344,1,160,0|10
56,360,17217,1,0
72,280,17379,2,0,B|104:240|184:232|232:264,1,160,2|8
288,296,17865,1,2
360,264,18027,6,0,B|336:184,1,80,0|0
448,184,18352,2,0,B|387:126,1,80,10|0
488,72,18676,2,0,B|448:32|368:32|328:80,1,160,2|8
288,128,19162,1,2
208,112,19325,6,0,B|168:144|80:128|56:72,1,160,0|10
128,40,19811,1,0
176,104,19973,5,0
80,184,20135,1,10
176,104,20298,1,8
160,184,20460,1,2
160,184,20541,1,0
160,184,20622,6,0,B|128:224|144:304|200:328,1,160,0|10
272,312,21108,1,0
336,368,21271,2,0,B|424:368,1,80,0|2
456,224,21595,2,0,B|368:224,1,80,8|2
296,232,21919,6,0,B|248:200|168:216|144:272,1,160,0|10
144,336,22406,1,0
224,304,22568,2,0,B|256:256|248:184|200:152,1,160,2|8
136,120,23054,1,2
64,160,23217,6,0,B|24:232,1,80
80,288,23541,1,10
152,256,23703,1,0
184,184,23865,2,0,B|208:136|272:112|320:136,1,160,2|8
392,168,24352,1,2
424,240,24514,6,0,B|464:224|472:176,1,80
488,40,24838,2,0,B|448:56|440:104,1,80,10|0
496,256,25162,5,0
392,168,25325,1,10
376,304,25487,1,8
352,232,25649,1,2
352,232,25730,1,0
352,232,25811,6,0,B|304:200|256:288|200:248,1,160,0|10
136,200,26298,1,0
56,216,26460,2,0,B|24:296,1,80,0|2
160,120,26784,2,0,B|192:40,1,80,8|2
80,136,27108,5,0
136,200,27271,1,0
216,184,27433,2,0,B|272:168|344:200|352:256,1,160,10|2
328,328,27919,1,0
400,376,28081,2,0,B|496:376,1,80,8|2
432,240,28406,6,0,B|464:200|448:152,1,80
392,112,28730,2,0,B|392:72|352:48,1,80,10|0
272,64,29054,2,0,B|224:40|144:64|128:128,1,160,2|8
184,176,29541,1,2
264,200,29703,5,0
200,256,29865,1,0
168,328,30027,2,0,B|216:352|256:312,1,80,10|0
264,200,30352,5,0
120,232,30514,1,10
256,288,30676,1,8
336,256,30838,1,2
336,256,30919,1,0
336,256,31000,6,0,B|376:288|464:264|480:216,1,160,0|10
440,152,31487,1,0
352,168,31649,2,0,B|312:136|224:160|208:208,1,160,2|8
176,280,32135,1,2
104,320,32298,6,0,B|88:240,1,80
24,88,32622,2,0,B|40:168,1,80,10|0
136,168,32946,2,0,B|176:200|264:184|288:120,1,160,2|8
240,72,33433,1,2
320,72,33595,6,0,B|368:72,3,40
344,104,33919,2,0,B|389:120,3,40,0|0|0|0
352,144,34244,2,0,B|388:174,3,40,0|0|0|0
336,184,34568,2,0,B|359:225,3,40,0|0|0|0
304,208,34892,5,0
197,140,35054,1,2
244,262,35217,1,0
276,131,35379,1,2
177,218,35541,2,0,B|144:224|128:256|128:256|160:216|152:152|112:120,1,192.000004577637,0|4
136,144,36190,5,4
136,144,36514,2,0,B|56:184,1,80,10|0
32,256,36838,2,0,B|40:312|112:336|168:312,1,160,2|8
240,296,37325,1,2
264,216,37487,2,0,B|288:168|352:144|408:168,1,160,0|10
472,200,37973,1,2
464,128,38135,5,0
408,240,38298,1,2
344,136,38460,1,8
296,248,38622,1,2
224,208,38784,6,0,B|176:232|96:216|72:160,1,160,0|10
64,96,39271,1,0
112,32,39433,2,0,B|160:8|240:24|264:80,1,160,0|10
288,144,39919,1,2
376,136,40081,6,0,B|344:216,1,80,0|2
416,352,40406,2,0,B|362:284,1,80,8|2
288,264,40730,2,0,B|264:312|176:320|128:280,1,160,0|10
80,240,41217,1,2
56,160,41379,6,0,B|104:144|136:176,1,80
104,320,41703,1,10
160,256,41865,1,0
240,232,42027,2,0,B|296:216|360:240|384:296,1,160,2|8
416,360,42514,1,2
504,352,42676,6,0,B|504:256,1,80,0|2
464,184,43000,2,0,B|464:88,1,80,10|0
424,16,43325,1,2
336,64,43487,1,0
312,64,43568,1,2
288,64,43649,2,0,B|200:64,1,80,8|2
64,104,43973,6,0,B|112:128|152:96,1,80,2|0
328,144,44298,2,0,B|280:120|240:152,1,80,14|0
88,216,44622,2,0,B|136:240|176:208,1,80,2|0
352,256,44947,2,0,B|304:232|264:264,1,80,14|0
192,320,45271,5,0
88,288,45433,1,2
168,216,45595,1,8
248,152,45757,1,2
144,112,45919,2,0,B|96:112|72:160,1,80,2|0
88,328,46244,2,2,B|136:312,3,40
96,336,46568,5,4
96,336,46892,2,0,B|192:304,1,80,10|0
248,344,47217,2,0,B|288:376|368:368|400:320,1,160,2|8
432,256,47703,1,2
432,176,47865,6,0,B|384:144|376:72|424:24,1,160,0|10
480,80,48352,1,2
456,160,48514,5,0
360,64,48676,1,2
232,112,48838,1,8
328,208,49000,1,2
384,144,49162,6,0,B|344:104|256:120|248:184,1,160,0|10
250,171,49649,1,2
195,237,49811,2,0,B|235:277|323:261|331:197,1,160,0|8
272,112,50298,1,2
168,160,50460,6,0,B|72:184,1,80,0|2
184,72,50784,2,0,B|88:96,1,80,8|2
80,264,51108,2,0,B|256:216,1,160,0|10
304,272,51595,1,2
384,280,51757,6,0,B|384:328|336:352,1,80
224,264,52081,1,10
304,272,52244,1,0
352,208,52406,2,0,B|384:160|360:80|304:64,1,160,2|8
256,120,52892,1,2
272,200,53054,6,0,B|248:248|176:264|120:232,1,160,0|8
72,184,53541,1,2
80,104,53703,2,0,B|160:72,1,80,0|2
224,112,54027,5,10
304,120,54190,1,0
384,104,54352,2,0,B|432:88|440:40,1,80,6|0
264,152,54676,5,10
344,168,54838,1,0
424,184,55000,2,0,B|504:200,1,80,6|0
296,200,55325,5,10
368,240,55487,1,0
416,304,55649,2,0,B|440:344|424:384,1,80,6|2
312,352,55973,6,0,B|288:312|304:272,1,80,0|2
344,168,56298,1,2
424,280,56460,1,0
424,280,56541,1,0
424,280,56622,1,2
312,352,56784,1,0
240,352,56946,6,0,B|128:352,1,96.0000022888184,0|0
72,352,57433,1,2
32,288,57595,2,0,B|0:240|40:184,1,96.0000022888184,0|2
88,56,58244,6,0,B|184:56,1,96.0000022888184
256,56,58730,1,2
296,120,58892,2,0,B|352:120,2,48.0000011444092,0|2|2
256,184,59379,1,0
296,248,59541,6,0,B|320:272|368:272|392:240,1,96.0000022888184,0|0
424,192,60027,1,2
488,224,60190,1,0
456,64,60514,1,2
344,176,60838,6,0,B|280:160,1,48.0000011444092,2|0
296,248,61162,2,0,B|241:211,1,48.0000011444092,2|2
224,296,61487,2,0,B|185:242,1,48.0000011444092,0|2
136,312,61811,2,0,B|117:248,1,48.0000011444092,0|2
64,224,62135,6,0,B|32:200|24:136|56:104,1,119.999996423721,0|0
96,56,62622,1,2
168,56,62784,2,0,B|304:56,1,119.999996423721,0|2
432,136,63433,6,0,B|464:160|472:224|440:256,1,119.999996423721,0|0
400,304,63920,1,2
328,304,64081,2,0,B|248:304,2,59.9999982118607,0|2|2
208,264,64568,1,0
208,264,64649,1,0
208,264,64730,6,0,B|160:280|96:256|80:200,1,143.999993133545,4|0
112,144,65217,1,0
136,72,65379,2,0,B|184:80|208:152|168:200,1,143.999993133545,4|0
112,144,65865,1,0
64,88,66027,5,0
184,128,66190,1,2
72,160,66352,1,0
192,200,66514,1,2
80,232,66676,2,0,B|96:360,1,107.999994850159,4|0
93,339,67000,6,2,B|144:360,3,35.9999982833863
93,339,67325,6,0,B|136:368|216:352|248:296,1,160,0|10
280,248,67811,1,0
352,280,67973,2,0,B|432:280,1,80,0|2
480,216,68298,2,0,B|504:176|472:128,1,80,8|2
440,72,68622,5,0
408,144,68784,1,2
368,80,68946,2,0,B|328:48|240:64|224:112,1,160,8|2
200,176,69433,1,0
216,248,69595,2,0,B|232:296|192:336,1,80,8|2
64,264,69919,6,0,B|48:216|80:184|80:184|48:104,1,160,0|10
96,48,70406,1,0
168,72,70568,2,0,B|200:144,1,80,0|2
232,216,70892,2,0,B|208:264|248:304,1,80,8|2
288,352,71217,6,0,B|432:376,1,120,0|2
406,371,71541,1,8
480,336,71703,1,2
464,256,71865,1,0
496,184,72027,1,2
496,184,72108,1,0
496,184,72190,2,0,B|512:144|496:104,1,80,8|2
392,32,72514,5,0
344,96,72676,1,0
272,72,72838,2,0,B|216:56|144:88|144:152,1,160,10|0
176,208,73325,2,0,B|168:256|128:272,1,80,2|8
96,200,73649,1,2
80,328,73811,6,0,B|120:360|200:344|224:288,1,160,0|10
248,224,74298,1,2
296,288,74460,2,0,B|336:312|384:296,1,80
496,328,74784,1,10
448,264,74946,1,0
440,184,75108,6,0,B|432:136|464:112,1,80,2|0
360,248,75433,2,0,B|352:296|384:320,1,80,14|0
336,144,75757,2,0,B|320:104|344:64,1,80,2|0
256,216,76081,2,0,B|232:256|248:304,1,80,14|0
232,104,76406,5,0
192,168,76568,1,2
120,184,76730,1,8
48,168,76892,1,2
8,104,77054,2,0,B|40:64,3,40,2|0|0|0
80,72,77379,2,2,B|128:56,3,40,2|2|2|2
160,48,77703,6,0,B|216:32|288:56|304:112,1,160,0|10
368,144,78190,1,0
408,216,78352,2,0,B|432:256|408:304,2,80,0|2|8
336,256,78838,1,2
368,360,79000,6,0,B|320:392|248:384|208:336,1,160,0|10
168,288,79487,1,0
88,304,79649,2,0,B|48:320|0:296,1,80,2|0
136,208,79973,2,0,B|176:192|224:216,1,80,8|2
376,208,80298,6,0,B|336:224|288:200,1,80,0|2
248,136,80622,1,8
272,56,80784,1,2
352,32,80946,2,0,B|400:16|472:48|480:104,1,160,0|10
448,176,81433,1,2
480,248,81595,6,0,B|440:336,1,80,0|2
344,272,81919,2,0,B|304:360,1,80,8|2
208,296,82244,1,0
168,376,82406,1,2
168,376,82487,1,0
168,376,82568,2,0,B|128:392|80:376,1,80,8|0
48,256,82892,5,0
128,296,83054,1,0
176,216,83217,2,0,B|208:168|288:160|336:200,1,160,10|0
384,240,83703,1,2
464,232,83865,2,0,B|496:152,1,80,8|2
464,80,84190,6,0,B|424:96|368:80|344:40,1,120,0|2
353,53,84514,2,0,B|240:72,1,80,8|2
176,24,84838,2,0,B|128:104,1,80,0|2
24,96,85162,1,8
8,184,85325,1,2
40,264,85487,6,0,B|64:320|120:328|120:328|120:360|88:384,2,160,4|8|0
44,268,86460,1,8
48,272,86784,6,0,B|56:312|112:336|160:328|160:328|224:368,2,192.000004577637,0|8|4
448,200,98460,5,4
448,200,98784,2,0,B|416:280,1,80,10|0
352,312,99108,2,0,B|312:344|224:328|208:272,1,160,2|8
256,224,99595,1,2
304,168,99757,2,0,B|280:120|216:96|168:120,1,160,0|10
104,152,100243,1,2
112,80,100405,5,0
168,192,100568,1,2
104,152,100730,1,8
160,264,100892,1,2
96,224,101054,6,0,B|64:272|96:344|168:344,1,160,0|10
224,312,101541,1,0
264,248,101703,2,0,B|288:208|376:200|416:240,1,160,0|10
440,304,102189,1,2
472,184,102351,6,0,B|440:144|392:144,1,80,0|2
288,144,102676,2,0,B|240:152|208:192,1,80,8|2
24,160,103000,2,0,B|56:192|144:176|160:128,1,160,0|10
200,56,103487,1,2
280,32,103649,6,0,B|328:24|360:56,1,80
488,88,103973,1,10
408,112,104135,1,0
344,168,104297,2,0,B|336:224|272:272|208:256,1,160,2|8
152,224,104784,1,2
88,280,104946,6,0,B|120:312|168:304,1,80,0|2
144,144,105271,2,0,B|96:144|72:200,1,80,10|2
224,184,105595,1,2
216,104,105757,1,0
216,104,105838,1,2
216,104,105919,2,0,B|304:104,1,80,8|2
408,72,106243,6,0,B|432:120|400:160,1,80,2|0
312,288,106568,2,0,B|288:240|320:200,1,80,14|0
440,104,106892,2,0,B|464:152|432:192,1,80,2|0
344,320,107217,2,0,B|320:272|352:232,1,80,14|0
472,136,107541,5,0
464,224,107703,1,2
416,296,107865,1,8
328,320,108027,1,2
240,304,108189,2,0,B|248:256|296:240,1,80,2|0
384,208,108514,2,2,B|336:184,3,40
384,208,108838,5,4
384,208,109162,2,0,B|288:160,1,80,10|0
272,104,109487,2,0,B|232:72|152:80|128:128,1,160,2|8
112,200,109973,1,2
184,240,110135,6,0,B|232:208|240:136|192:88,1,160,0|10
144,40,110622,1,2
128,120,110784,5,0
112,264,110946,1,2
200,96,111108,1,8
184,240,111270,1,2
88,192,111432,6,0,B|248:152,1,160,0|10
312,208,111919,1,2
368,272,112081,2,0,B|328:312|240:296|232:232,1,160,0|8
336,128,112568,1,2
400,192,112730,6,0,B|496:216,1,80,0|2
328,264,113054,2,0,B|424:288,1,80,8|2
480,120,113378,2,0,B|304:72,1,160,0|10
248,56,113865,1,2
168,32,114027,6,0,B|144:80|192:120,1,80
184,224,114351,1,10
248,160,114514,1,0
336,176,114676,2,0,B|384:152|472:184|472:248,1,160,2|8
416,288,115162,1,2
344,328,115325,6,0,B|296:352|208:320|208:256,1,160,0|8
272,216,115811,1,2
344,168,115973,2,0,B|448:192,1,80,0|2
288,112,116297,5,10
208,120,116460,1,0
128,104,116622,2,0,B|80:88|72:40,1,80,6|0
248,152,116946,5,10
168,168,117108,1,0
88,184,117270,2,0,B|8:200,1,80,6|0
216,200,117595,5,10
144,240,117757,1,0
96,304,117919,2,0,B|72:344|88:384,1,80,6|2
200,352,118243,6,0,B|224:312|208:272,1,80,0|2
168,168,118568,1,2
88,280,118730,1,0
88,280,118811,1,0
88,280,118892,1,2
200,352,119054,1,0
272,352,119217,6,0,B|384:352,1,96.0000022888184,0|0
440,352,119703,1,2
480,288,119865,2,0,B|512:240|472:184,1,96.0000022888184,0|2
424,56,120514,6,0,B|328:56,1,96.0000022888184
256,56,121000,1,2
216,120,121162,2,0,B|176:176,2,48.0000011444092,0|2|2
184,56,121649,1,0
112,56,121811,6,0,B|88:80|88:128|120:152,1,96.0000022888184,0|0
136,216,122297,1,2
112,288,122460,1,0
280,216,122784,1,2
136,216,123108,6,0,B|149:169,1,48.0000011444092,0|2
200,248,123432,2,0,B|228:209,1,48.0000011444092,0|2
256,288,123757,2,0,B|295:261,1,48.0000011444092,2|2
288,352,124081,2,0,B|334:340,1,48.0000011444092,2|0
408,328,124406,6,0,B|440:304|448:240|416:208,1,119.999996423721,0|0
376,160,124892,1,2
400,88,125054,2,0,B|272:48,1,119.999996423721,0|2
72,80,125703,6,0,B|40:104|32:168|64:200,1,119.999996423721,0|0
104,248,126190,1,2
176,248,126351,2,0,B|256:248,2,59.9999982118607,0|2|2
304,264,126838,1,0
304,264,126919,1,0
304,264,127000,6,0,B|352:280|416:256|432:200,1,143.999993133545,4|0
400,144,127487,1,0
376,72,127649,2,0,B|328:80|304:152|344:200,1,143.999993133545,4|0
400,144,128135,1,0
448,88,128297,5,0
328,128,128460,1,2
440,160,128622,1,0
320,200,128784,1,2
432,232,128946,2,0,B|416:360,1,107.999994850159,4|0
419,339,129270,6,2,B|368:360,3,35.9999982833863
419,339,129595,6,0,B|376:368|296:352|264:296,1,160,0|10
232,248,130081,1,0
160,280,130243,2,0,B|120:304|72:280,1,80,0|2
192,176,130568,2,0,B|232:152|272:176,1,80,8|2
120,208,130892,5,0
128,128,131054,1,0
200,96,131216,2,0,B|248:80|320:96|344:152,1,160,10|2
360,216,131703,1,0
312,272,131865,2,0,B|296:320|336:360,1,80,8|2
424,248,132189,6,0,B|440:200|408:168|408:168|440:88,1,160,0|10
408,24,132676,1,0
336,56,132838,2,0,B|304:128,1,80,0|2
272,200,133162,2,0,B|232:232|176:208,1,80,8|2
8,216,133487,6,0,B|24:184|96:168|136:192,1,120,0|2
116,183,133811,1,8
184,224,133973,1,2
224,296,134135,1,0
240,376,134297,1,2
240,376,134378,1,0
240,376,134460,2,0,B|328:376,1,80,8|2
448,352,134784,5,0
376,320,134946,1,0
344,248,135108,2,0,B|328:192|360:120|424:120,1,160,10|0
464,184,135595,1,2
424,256,135757,1,8
344,248,135919,1,2
312,176,136081,6,0,B|272:144|192:160|168:216,1,160,0|10
128,272,136568,1,0
64,320,136730,2,0,B|32:280|56:232,1,80,2|0
96,176,137054,1,8
176,144,137217,1,2
256,160,137378,6,0,B|264:208|232:232,1,80,2|0
336,96,137703,2,0,B|344:48|312:24,1,80,14|0
360,200,138027,2,0,B|376:240|352:280,1,80,2|0
440,128,138351,2,0,B|464:88|448:40,1,80,14|0
464,240,138676,5,0
416,304,138838,1,2
336,328,139000,1,8
256,312,139162,1,2
192,272,139324,2,0,B|120:272,3,40,2|0|0|0
136,256,139649,1,0
120,240,139730,1,0
104,224,139811,1,0
88,208,139892,1,0
72,192,139973,6,0,B|96:152|184:144|224:184,1,160,0|10
280,232,140460,1,0
352,272,140622,2,0,B|392:296|440:272,2,80,0|2|8
392,200,141108,1,2
432,128,141270,6,0,B|384:96|312:104|272:152,1,160,0|10
224,200,141757,1,0
160,248,141919,2,0,B|192:288|240:280,1,80,2|0
208,120,142243,2,0,B|160:128|144:176,1,80,8|2
224,200,142568,6,0,B|56:216,1,160,0|8
24,136,143054,1,2
88,72,143216,2,0,B|112:112|168:104,1,80,0|10
240,80,143541,2,0,B|288:80|312:112,1,80,10|2
352,184,143865,6,0,B|336:232|368:288|416:296,1,144.000003433228,4|0
456,304,144190,2,0,B|416:280|336:304|312:360,1,144.000003433228,12|0
256,272,144514,1,0
176,320,144676,1,2
176,320,144757,1,2
176,320,144838,2,0,B|136:336|96:320,1,80,10|2
40,264,145162,5,0
120,248,145324,1,0
64,192,145487,2,0,B|104:152|184:152|224:208,1,160,10|0
280,232,145973,1,2
336,296,146135,2,0,B|368:216,1,80,8|2
496,112,146460,6,0,B|488:144|424:168|384:144,1,120,0|2
360,136,146784,2,0,B|248:136,1,80,8|2
128,112,147108,2,0,B|216:112,1,80,0|2
264,64,147432,1,8
224,184,147595,1,2
280,136,147757,6,0,B|312:184|288:224|288:224|312:248|352:240,2,160,4|8|0
284,140,148730,1,8
288,144,149054,6,0,B|312:184|280:232|280:232|328:264|384:240,2,192.000004577637,0|8|0
240,88,150676,1,4
