osu file format v9

[General]
AudioFilename: Manima ni.mp3
AudioLeadIn: 0
PreviewTime: 67279
Countdown: 0
SampleSet: Normal
StackLeniency: 0.7
Mode: 1
LetterboxInBreaks: 1

[Editor]
Bookmarks: 5008
DistanceSpacing: 1.2
BeatDivisor: 4
GridSize: 4

[Metadata]
Title:Manima ni
Artist:paraoka
Creator:Sandpig
Version:Pangko
Source:
Tags:haru*nya alace alazy pangpang

[Difficulty]
HPDrainRate:5
CircleSize:7
OverallDifficulty:5
ApproachRate:10
SliderMultiplier:1.4
SliderTickRate:2

[Events]
//Background and Video events
0,0,"bg_taiko.jpg"
//Break Periods
//Storyboard Layer 0 (Background)
//Storyboard Layer 1 (Fail)
//Storyboard Layer 2 (Pass)
//Storyboard Layer 3 (Foreground)
//Storyboard Sound Samples
//Background Colour Transformations
3,100,0,0,0

[TimingPoints]
1117,324.324324324324,4,1,0,70,1,0
5008,-125,4,1,0,70,0,0
15387,-100,4,1,0,80,0,0
67279,-100,4,1,0,80,0,1
88035,-100,4,1,0,80,0,0
129549,-100,4,1,0,80,0,1
150306,-100,4,1,0,80,0,0
150630,-125,4,1,0,80,0,0
160684,-111.111111111111,4,1,0,80,0,0
171062,-100,4,1,0,80,0,1
181441,-125,4,1,0,80,0,0
186630,-111.111111111111,4,1,0,80,0,0
189225,-100,4,1,0,80,0,0
191819,-90.9090909090909,4,1,0,80,0,1
212576,-90.9090909090909,4,1,0,80,0,0
222954,-90.9090909090909,4,1,0,80,0,1
242414,-90.9090909090909,4,1,0,80,0,0
246306,-125,4,1,0,80,0,0

[Colours]
Combo1 : 138,255,125
Combo2 : 255,179,222
Combo3 : 172,251,255

[HitObjects]
184,44,5008,1,2
428,276,5657,1,2
172,56,6306,1,2
428,276,6954,1,2
140,104,7603,1,2
300,160,7927,1,2
140,104,8252,1,2
220,84,8414,1,2
220,84,8738,1,2
220,84,8900,1,2
220,84,9225,1,2
220,84,9549,1,2
220,84,9711,1,2
220,84,10035,1,2
220,84,10198,1,2
220,84,10522,1,2
220,84,10846,1,2
220,84,11008,1,2
220,84,11333,1,2
220,84,11495,1,2
220,84,11819,1,2
220,84,12144,1,2
112,64,12792,1,2
160,16,13441,1,2
28,212,13927,1,0
68,200,14008,1,0
108,188,14089,1,0
300,112,14252,1,2
300,112,14414,1,2
300,112,14576,1,2
300,112,14738,1,0
300,112,14819,1,0
300,112,14900,1,0
300,112,14981,1,0
300,112,15062,1,0
320,88,15387,5,0
156,64,15711,1,0
324,68,16035,1,0
284,68,16198,1,2
244,52,16360,1,0
168,20,16522,1,2
152,104,16684,1,0
160,52,17008,1,0
160,52,17333,1,0
160,52,17495,1,2
160,52,17657,1,0
152,88,17819,1,2
152,88,17900,1,2
152,88,17981,1,0
168,32,18306,1,0
168,32,18630,1,0
100,80,18792,1,2
168,32,18954,1,0
168,32,19116,1,2
208,108,19279,1,0
280,260,19603,1,2
228,192,19765,1,2
472,320,19927,1,0
440,292,20089,1,0
376,236,20171,1,0
348,208,20252,1,0
288,148,20414,1,2
320,88,20576,5,0
156,64,20900,1,0
176,100,21062,1,2
324,68,21224,1,0
280,68,21306,1,0
284,68,21387,1,2
244,52,21549,1,0
168,20,21711,1,2
152,104,21873,1,0
160,52,22197,1,0
236,88,22360,1,2
160,52,22522,1,0
200,68,22603,1,0
160,52,22684,1,2
160,52,22846,1,0
152,88,23008,1,2
152,88,23089,1,2
152,88,23170,1,0
168,32,23495,1,0
232,80,23657,1,2
168,32,23819,1,0
200,60,23900,1,0
100,80,23981,1,2
168,32,24143,1,0
168,32,24305,1,2
208,108,24468,1,0
280,260,24792,1,2
272,220,24873,1,2
228,192,24954,1,2
472,320,25116,1,0
440,292,25278,1,0
376,236,25360,1,0
348,208,25441,1,0
288,148,25603,1,2
320,88,25765,5,0
236,96,25927,1,2
236,96,26008,1,2
156,64,26089,1,0
176,100,26251,1,2
324,68,26413,1,0
244,52,26738,1,0
168,20,26900,1,0
152,104,27062,1,0
176,24,27225,1,2
176,24,27306,1,2
160,52,27386,1,0
236,88,27549,1,2
160,52,27711,1,0
160,52,28035,1,0
152,88,28197,1,0
152,88,28278,1,0
152,88,28359,1,0
124,148,28522,1,2
168,32,28684,1,0
232,80,28846,1,2
192,84,28927,1,2
168,32,29008,1,0
100,80,29170,1,2
168,32,29332,1,0
168,32,29494,1,0
208,108,29657,1,0
160,40,29819,1,2
208,108,29900,1,2
280,260,29981,1,2
228,192,30143,1,2
472,320,30305,1,0
440,292,30467,1,0
376,236,30549,1,0
348,208,30630,1,0
288,148,30792,1,0
320,88,30954,5,0
236,96,31116,1,0
236,96,31197,1,2
156,64,31278,1,0
176,100,31440,1,2
324,68,31602,1,0
240,84,31765,1,2
244,52,31927,1,0
168,20,32089,1,2
152,104,32251,1,0
176,24,32414,1,0
176,24,32495,1,2
160,52,32575,1,0
236,88,32738,1,2
160,52,32900,1,0
160,52,33062,1,2
160,52,33224,1,0
152,88,33386,1,2
152,88,33467,1,2
152,88,33548,1,0
208,24,33711,1,0
184,60,33792,1,2
168,32,33873,1,0
232,80,34035,1,2
168,32,34197,1,0
100,80,34359,1,2
168,32,34521,1,0
168,32,34683,1,2
192,112,34846,1,4
212,192,35008,1,4
212,192,35171,1,4
212,192,35333,1,4
212,192,35495,1,4
272,132,35657,1,2
244,164,35738,1,2
272,132,35819,1,2
244,60,35981,1,2
148,64,36144,5,0
216,64,36468,1,2
216,64,36792,1,0
216,64,37116,1,2
268,84,37279,1,2
308,120,37441,1,0
240,144,37765,1,2
240,144,38089,1,0
240,144,38252,1,0
240,144,38414,1,2
240,144,38576,1,2
168,80,38738,1,0
212,116,39062,1,2
228,176,39387,1,0
228,176,39711,1,2
184,32,39873,1,2
160,52,40035,1,0
176,136,40360,1,2
176,136,40684,1,0
176,136,40846,1,0
176,136,41008,1,2
176,136,41089,1,2
176,136,41171,1,0
232,64,41333,5,0
220,128,41657,1,2
220,128,41819,1,2
220,128,41981,1,0
220,128,42306,1,2
280,128,42468,1,0
280,128,42549,1,2
280,128,42630,1,0
280,128,42954,1,2
280,128,43116,1,2
280,128,43279,1,0
280,128,43441,1,2
280,128,43522,1,2
280,128,43603,1,0
280,128,43765,1,2
296,144,43927,1,0
296,144,44252,1,2
296,144,44576,1,0
296,144,44900,1,2
296,144,45062,1,2
256,108,45144,1,2
236,180,45225,1,0
232,136,45387,1,2
232,136,45549,1,0
232,136,45711,1,2
232,136,45792,1,2
232,136,45873,1,0
232,136,46035,1,2
232,136,46116,1,2
232,136,46198,1,0
272,128,46279,1,0
272,128,46360,1,2
196,96,46441,1,2
196,96,46522,1,0
136,144,46846,5,2
136,144,47008,1,2
136,144,47171,1,0
124,220,47495,1,2
124,220,47657,1,0
272,128,47819,1,0
324,192,47981,1,2
324,192,48062,1,2
324,192,48144,1,0
324,192,48306,1,2
324,192,48468,1,0
324,192,48630,1,2
324,192,48711,1,2
324,192,48792,1,0
288,160,48954,1,2
168,72,49116,1,0
168,72,49441,1,2
360,220,49522,1,2
360,220,49603,1,2
168,72,49765,1,0
248,88,49927,1,0
168,72,50089,1,2
168,72,50252,1,2
228,144,50414,1,0
132,144,50576,1,2
132,144,50738,1,0
228,144,50900,1,2
228,144,50981,1,2
228,144,51062,1,0
228,144,51225,1,2
228,144,51387,1,0
228,144,51468,1,0
228,144,51549,1,2
228,144,51630,1,2
228,144,51711,1,0
140,52,52035,5,2
140,52,52198,1,2
140,52,52360,1,0
228,144,52522,1,2
228,144,52684,1,0
228,144,52765,1,2
228,144,52846,1,0
228,144,53008,1,0
228,144,53171,1,2
228,144,53252,1,2
228,144,53333,1,0
168,136,53495,1,2
344,248,53657,1,0
344,248,53819,1,2
344,248,53981,1,0
228,144,54144,1,2
228,144,54225,1,2
228,144,54306,1,0
216,92,54387,1,0
216,92,54468,1,2
108,180,54630,1,0
108,180,54792,1,2
108,180,54954,1,0
108,180,55035,1,0
108,180,55116,1,2
180,96,55279,1,0
196,72,55441,1,2
272,168,55603,1,0
272,168,55765,1,2
272,168,55927,1,0
124,76,56089,1,2
144,116,56171,1,2
144,116,56252,1,0
144,116,56333,1,0
144,116,56414,1,0
144,116,56495,1,0
144,116,56576,1,2
144,116,56657,1,2
144,116,56738,1,2
144,116,56900,5,0
300,136,57062,1,0
60,76,57387,1,0
60,76,57549,1,0
204,108,57873,1,6
204,48,58198,1,0
164,64,58360,1,0
164,64,58684,1,0
164,64,58846,1,0
164,64,59171,1,2
164,64,59252,1,2
164,64,59333,1,0
164,64,59414,1,0
164,64,59495,1,0
200,148,59657,1,0
200,108,59981,1,0
200,108,60144,1,0
200,108,60468,1,6
116,120,60792,1,0
116,120,61116,1,0
208,80,61279,1,2
208,80,61441,1,0
208,80,61603,1,2
208,80,61765,1,0
208,80,61846,1,0
208,80,61927,1,2
208,80,62008,1,2
208,80,62089,1,0
168,72,62252,1,0
168,160,62576,1,0
168,160,62657,1,0
168,160,62738,1,0
252,120,62900,1,0
252,120,63062,1,6
188,116,63387,1,0
188,116,63549,1,2
204,104,63630,1,2
204,104,63711,1,2
204,104,63873,1,0
204,104,64035,1,0
204,104,64116,1,0
204,104,64198,1,2
204,104,64279,1,2
204,104,64360,1,0
204,104,64522,1,2
188,116,64684,1,0
188,116,64846,1,0
188,116,65008,1,2
188,116,65089,1,2
188,116,65171,1,2
188,116,65333,1,0
188,116,65495,1,0
188,116,65657,1,2
188,116,65738,1,2
188,116,65819,1,2
260,152,65981,1,4
260,152,66144,1,4
260,152,66306,1,4
260,152,66468,1,4
260,152,66630,1,4
260,152,66792,1,2
260,152,66873,1,2
260,152,66954,1,2
160,104,67279,5,0
160,104,67603,1,0
296,172,67765,1,2
296,172,67846,1,2
296,172,67927,1,0
296,172,68089,1,2
296,172,68252,1,0
296,172,68414,1,0
324,224,68576,1,6
324,224,68900,1,6
324,224,69225,1,6
324,224,69387,1,0
324,224,69468,1,0
324,224,69549,1,0
324,224,69711,1,2
208,88,69792,1,2
208,88,69873,1,0
168,32,70198,1,0
296,192,70360,1,2
168,32,70441,1,2
168,32,70522,1,0
168,32,70684,1,2
168,32,70846,1,0
228,168,70927,1,0
228,168,71008,1,0
148,180,71171,1,2
148,180,71333,1,0
148,180,71495,1,2
148,180,71657,1,0
148,180,71738,1,0
148,180,71819,1,2
148,180,71900,1,2
148,180,71981,1,0
224,120,72062,1,0
224,120,72144,1,2
136,88,72225,1,2
224,120,72306,1,0
224,120,72468,1,0
156,36,72792,1,0
156,36,72954,1,2
300,120,73035,1,2
300,120,73116,1,0
232,48,73279,1,2
232,48,73441,1,0
240,96,73603,1,0
152,100,73765,1,6
152,100,74089,1,6
160,120,74414,1,6
176,172,74576,1,0
176,172,74657,1,0
176,172,74738,1,0
240,96,74900,1,2
240,96,74981,1,2
240,96,75062,1,0
220,80,75225,1,2
220,80,75387,1,0
276,208,75468,1,0
276,208,75549,1,2
276,208,75711,1,0
276,208,75873,1,0
276,208,75954,1,2
276,208,76035,1,0
276,208,76198,1,2
276,208,76360,1,4
168,120,76522,1,6
168,120,76684,1,4
180,136,76846,1,6
180,136,77008,1,4
180,136,77171,1,0
216,112,77252,1,0
216,112,77333,1,2
164,56,77495,1,2
160,104,77657,5,0
208,52,77819,1,2
208,52,77900,1,2
160,104,77981,1,0
152,12,78062,1,0
152,12,78144,1,2
296,172,78305,1,0
296,172,78467,1,2
296,172,78630,1,0
296,172,78792,1,0
324,224,78954,1,2
232,100,79116,1,0
232,100,79198,1,0
324,224,79278,1,2
160,60,79360,1,2
160,60,79441,1,0
324,224,79603,1,2
152,84,79765,1,0
324,224,79927,1,0
324,224,80089,1,2
208,88,80171,1,2
208,88,80251,1,0
144,144,80414,1,2
168,32,80576,1,0
296,192,80738,1,2
168,32,80819,1,2
168,32,80900,1,0
168,32,81062,1,2
168,32,81224,1,0
228,168,81305,1,0
228,168,81386,1,0
148,180,81549,1,2
148,180,81711,1,0
148,180,81873,1,2
148,180,82035,1,0
148,180,82116,1,0
148,180,82197,1,2
148,180,82278,1,2
148,180,82359,1,0
224,120,82440,1,0
224,120,82522,1,2
136,88,82603,1,2
224,120,82684,1,0
224,120,82846,1,0
184,88,83008,1,2
184,88,83089,1,2
156,36,83170,1,0
156,36,83332,1,2
300,120,83413,1,2
300,120,83494,1,0
232,48,83657,1,2
232,48,83819,1,0
240,96,83981,1,0
288,192,84062,1,0
152,100,84143,1,2
288,192,84225,1,2
288,192,84306,1,0
152,100,84467,1,2
160,120,84630,1,0
160,120,84792,1,2
176,172,84954,1,0
176,172,85035,1,2
176,172,85116,1,0
176,24,85198,1,0
240,96,85278,1,2
240,96,85440,1,0
220,80,85603,1,2
216,100,85765,1,0
220,80,85927,1,2
220,80,86008,1,2
220,80,86089,1,0
220,80,86252,1,0
220,80,86333,1,2
220,80,86414,1,0
176,24,86576,1,2
52,108,86738,2,0,B|280:104,1,210
256,192,87387,12,0,87873
320,88,88035,5,0
236,96,88197,1,2
236,96,88278,1,2
156,64,88359,1,0
176,100,88521,1,2
324,68,88683,1,0
304,156,88765,1,0
304,156,88846,1,2
244,52,89008,1,0
168,20,89170,1,0
152,104,89332,1,0
176,24,89495,1,2
176,24,89576,1,2
160,52,89656,1,0
236,88,89819,1,2
160,52,89981,1,0
288,180,90062,1,0
288,180,90144,1,2
160,52,90305,1,0
152,88,90468,1,0
152,88,90548,1,0
152,88,90629,1,0
168,32,90954,1,0
232,80,91116,1,2
192,84,91197,1,2
168,32,91278,1,0
100,80,91440,1,2
168,32,91602,1,0
376,256,91684,1,2
168,32,91764,1,0
208,108,91927,1,2
160,40,92089,1,0
208,108,92170,1,0
280,260,92251,1,2
228,192,92413,1,0
472,320,92575,1,2
376,256,92657,1,2
440,292,92737,1,0
376,236,92819,1,0
348,208,92900,1,2
288,148,93062,1,2
320,88,93224,5,0
236,96,93386,1,2
236,96,93467,1,2
156,64,93548,1,0
176,100,93710,1,2
324,68,93872,1,0
240,84,94035,1,2
244,52,94197,1,0
368,200,94279,1,2
168,20,94359,1,0
152,104,94521,1,0
176,24,94684,1,2
176,24,94765,1,2
160,52,94845,1,0
236,88,95008,1,2
160,52,95170,1,0
368,200,95252,1,0
160,52,95332,1,2
160,52,95494,1,0
152,88,95656,1,0
152,88,95737,1,0
152,88,95818,1,0
208,24,95981,1,2
184,60,96062,1,2
168,32,96143,1,0
232,80,96305,1,2
168,32,96468,1,0
100,80,96629,1,2
168,32,96791,1,0
168,32,96954,1,2
192,112,97116,1,4
212,192,97278,1,4
212,192,97441,1,4
212,192,97603,1,4
212,192,97765,1,4
272,132,97927,1,2
244,164,98008,1,2
272,132,98089,1,2
244,60,98251,1,2
148,64,98414,5,0
216,64,98738,1,2
212,84,98900,1,2
216,64,99062,1,0
216,64,99386,1,2
268,84,99549,1,0
308,120,99711,1,0
240,144,100035,1,0
212,84,100116,1,0
212,84,100198,1,2
240,144,100359,1,0
240,144,100522,1,0
240,144,100684,1,2
240,144,100846,1,2
168,80,101008,1,0
212,116,101333,1,0
212,84,101414,1,0
212,84,101495,1,2
228,176,101657,1,0
228,176,101981,1,0
212,84,102062,1,0
184,32,102143,1,2
160,52,102305,1,0
176,136,102630,1,2
176,136,102954,1,0
176,136,103116,1,2
176,136,103278,1,0
176,136,103360,1,2
176,136,103441,1,0
232,64,103603,5,0
220,128,103927,1,0
208,96,104008,1,0
220,128,104089,1,2
220,128,104251,1,0
208,96,104414,1,2
220,128,104576,1,2
280,128,104738,1,0
280,128,104819,1,2
280,128,104900,1,0
280,128,105224,1,0
208,96,105306,1,0
280,128,105387,1,2
280,128,105549,1,0
280,128,105711,1,0
280,128,105792,1,2
280,128,105873,1,0
280,128,106035,1,2
296,144,106197,1,0
296,144,106522,1,0
208,96,106603,1,0
208,96,106684,1,2
296,144,106846,1,0
296,144,107170,1,2
296,144,107332,1,0
256,108,107414,1,2
236,180,107495,1,0
232,136,107657,1,2
232,136,107819,1,0
232,136,107981,1,2
232,136,108062,1,2
232,136,108143,1,0
232,136,108305,1,2
232,136,108386,1,2
232,136,108468,1,0
272,128,108549,1,0
272,128,108630,1,2
196,96,108711,1,2
196,96,108792,1,0
136,144,109116,5,0
196,96,109198,1,0
136,144,109278,1,2
136,144,109441,1,0
196,96,109603,1,2
124,220,109765,1,0
124,220,109927,1,2
272,128,110089,1,0
324,192,110251,1,2
324,192,110332,1,2
324,192,110414,1,0
324,192,110576,1,2
324,192,110738,1,0
324,192,110900,1,2
324,192,110981,1,2
324,192,111062,1,0
288,160,111225,1,2
168,72,111386,1,0
208,96,111549,1,2
168,72,111711,1,0
360,220,111792,1,0
360,220,111873,1,2
168,72,112035,1,0
248,88,112197,1,2
208,96,112279,1,2
168,72,112359,1,0
168,72,112522,1,2
228,144,112684,1,0
132,144,112846,1,0
132,144,113008,1,2
228,144,113170,1,0
228,144,113251,1,2
228,144,113332,1,0
228,144,113495,1,2
228,144,113657,1,0
228,144,113738,1,0
228,144,113819,1,2
228,144,113900,1,2
228,144,113981,1,0
140,52,114305,5,0
140,52,114468,1,2
140,52,114630,1,0
208,96,114711,1,0
228,144,114792,1,2
228,144,114954,1,0
228,144,115035,1,2
228,144,115116,1,0
228,144,115278,1,0
228,144,115441,1,2
228,144,115522,1,2
228,144,115603,1,0
168,136,115765,1,2
344,248,115927,1,0
208,96,116008,1,0
344,248,116089,1,2
344,248,116251,1,0
228,144,116414,1,2
228,144,116495,1,2
228,144,116576,1,0
216,92,116657,1,0
216,92,116738,1,2
108,180,116900,1,0
108,180,117062,1,2
108,180,117224,1,0
108,180,117305,1,0
108,180,117386,1,2
240,128,117468,1,2
180,96,117549,1,0
196,72,117711,1,2
272,168,117873,1,4
272,168,118035,1,4
272,168,118197,1,4
124,76,118359,1,4
144,116,118522,1,0
144,116,118603,1,0
144,116,118684,1,2
144,116,118765,1,2
144,116,118846,1,0
144,116,118927,1,0
144,116,119008,1,2
144,116,119170,5,0
300,136,119332,1,2
368,256,119414,1,2
368,256,119495,1,2
60,76,119657,1,4
60,76,119819,1,4
204,108,120144,1,6
204,48,120468,1,0
164,64,120630,1,2
356,180,120711,1,2
356,180,120792,1,2
164,64,120954,1,4
164,64,121116,1,4
164,64,121441,1,2
164,64,121522,1,2
164,64,121603,1,0
164,64,121684,1,0
164,64,121765,1,0
200,148,121927,1,0
200,108,122251,1,4
200,108,122414,1,4
200,108,122738,1,6
116,120,123062,1,0
356,180,123225,1,2
356,180,123306,1,2
116,120,123386,1,0
208,80,123549,1,2
208,80,123711,1,0
208,80,123873,1,2
208,80,124035,1,0
208,80,124116,1,0
208,80,124197,1,2
208,80,124278,1,2
208,80,124359,1,0
168,72,124522,1,2
412,288,124603,1,2
412,288,124684,1,0
168,160,124846,1,0
168,160,124927,1,2
168,160,125008,1,0
252,120,125170,1,2
252,120,125332,1,0
348,172,125414,1,2
348,172,125495,1,0
188,116,125657,1,0
188,116,125819,1,2
204,104,125900,1,2
204,104,125981,1,0
204,104,126143,1,0
204,104,126305,1,0
204,104,126386,1,0
204,104,126468,1,2
204,104,126549,1,2
204,104,126630,1,0
204,104,126792,1,2
188,116,126954,1,4
188,116,127116,1,4
188,116,127278,1,2
188,116,127359,1,2
188,116,127441,1,2
188,116,127603,1,4
188,116,127765,1,4
188,116,127927,1,2
188,116,128008,1,2
188,116,128089,1,2
260,152,128251,1,4
260,152,128414,1,4
260,152,128576,1,4
260,152,128738,1,4
260,152,128900,1,4
260,152,129062,1,2
260,152,129143,1,2
260,152,129224,1,2
208,48,129387,1,2
160,104,129549,5,4
160,104,129873,1,4
296,172,130035,1,2
296,172,130116,1,2
296,172,130197,1,0
296,172,130359,1,2
296,172,130522,1,0
296,172,130684,1,2
324,224,130846,1,0
420,296,130927,1,0
420,296,131008,1,2
324,224,131170,1,0
240,108,131252,1,0
240,108,131333,1,2
324,224,131495,1,0
324,224,131576,1,0
164,44,131657,1,2
324,224,131819,1,0
324,224,131981,1,2
208,88,132062,1,2
208,88,132143,1,0
232,140,132306,1,2
168,32,132468,1,0
296,192,132630,1,2
168,32,132711,1,2
168,32,132792,1,0
168,32,132954,1,2
168,32,133116,1,0
228,168,133197,1,2
228,168,133278,1,0
148,180,133441,1,0
148,180,133603,1,2
148,180,133765,1,0
148,180,133927,1,0
148,180,134008,1,2
148,180,134089,1,0
148,180,134170,1,0
148,180,134251,1,2
224,120,134332,1,0
224,120,134414,1,0
136,88,134495,1,2
224,120,134576,1,2
224,120,134738,1,4
156,36,135062,1,4
156,36,135224,1,2
300,120,135305,1,2
300,120,135386,1,0
232,48,135549,1,2
232,48,135711,1,0
240,96,135873,1,2
152,100,136035,1,0
224,120,136116,1,0
224,120,136198,1,2
152,100,136359,1,0
224,120,136441,1,0
160,120,136522,1,2
160,120,136684,1,0
224,120,136765,1,0
176,172,136846,1,2
176,172,137008,1,0
240,96,137170,1,2
240,96,137251,1,2
240,96,137332,1,0
220,80,137495,1,2
220,80,137657,1,0
276,208,137738,1,0
276,208,137819,1,2
276,208,137981,1,0
276,208,138143,1,2
276,208,138224,1,2
276,208,138305,1,0
276,208,138468,1,2
276,208,138630,1,4
168,120,138792,1,6
168,120,138954,1,4
180,136,139116,1,6
180,136,139278,1,4
180,136,139441,1,0
216,112,139522,1,0
216,112,139603,1,2
164,56,139765,1,2
160,104,139927,5,0
208,52,140089,1,2
208,52,140170,1,2
160,104,140251,1,0
152,12,140332,1,0
152,12,140414,1,2
296,172,140575,1,0
296,172,140737,1,2
296,172,140900,1,0
296,172,141062,1,2
324,224,141224,1,0
232,100,141306,1,0
232,100,141387,1,2
324,224,141548,1,0
160,60,141630,1,0
160,60,141711,1,2
324,224,141873,1,0
208,136,141954,1,0
152,84,142035,1,2
324,224,142197,1,0
324,224,142359,1,2
208,88,142441,1,2
208,88,142521,1,0
144,144,142684,1,2
168,32,142846,1,0
296,192,143008,1,2
168,32,143089,1,2
168,32,143170,1,0
168,32,143332,1,2
168,32,143494,1,0
228,168,143575,1,0
228,168,143656,1,2
148,180,143819,1,4
148,180,143981,1,2
148,180,144143,1,4
148,180,144305,1,2
148,180,144467,1,4
148,180,144629,1,2
224,120,144710,1,2
224,120,144792,1,0
136,88,144873,1,0
224,120,144954,1,2
224,120,145116,1,0
184,88,145278,1,2
184,88,145359,1,2
156,36,145440,1,0
156,36,145602,1,2
300,120,145683,1,2
300,120,145764,1,0
232,48,145927,1,2
232,48,146089,1,0
240,96,146251,1,2
288,192,146332,1,2
152,100,146413,1,0
288,192,146495,1,0
288,192,146576,1,2
152,100,146737,1,0
172,72,146819,1,0
160,120,146900,1,2
160,120,147062,1,0
176,172,147144,1,0
176,172,147225,1,2
176,172,147386,1,0
240,96,147548,1,2
240,96,147710,1,0
220,80,147873,1,2
216,100,148035,1,0
220,80,148197,1,0
220,80,148278,1,0
220,80,148359,1,2
220,80,148522,1,0
220,80,148603,1,0
220,80,148684,1,2
176,24,148846,1,2
96,64,149008,2,0,B|388:72,1,280
168,160,149981,1,0
168,160,150062,1,0
168,160,150143,1,0
256,192,150306,12,0,150630
264,88,150954,5,2
264,88,151279,1,2
264,88,151603,1,2
216,96,152252,1,2
216,96,152576,1,2
264,88,152900,1,2
216,96,153549,1,2
264,88,154198,1,2
160,88,154846,1,2
160,88,155333,1,2
160,88,155414,1,2
160,88,155495,1,2
240,168,156144,1,2
180,72,156792,1,2
152,88,157116,1,2
152,88,157279,1,2
152,88,157441,1,2
152,88,157765,1,2
192,120,158089,1,2
192,120,158414,1,2
192,120,158738,1,2
192,120,159387,1,2
256,192,159549,12,0,160360
172,112,160684,5,2
172,112,160846,1,2
172,112,161008,1,0
172,112,161171,1,0
172,112,161333,1,6
172,112,161657,1,6
172,112,161981,1,2
172,112,162144,1,2
172,112,162306,1,0
172,112,162468,1,0
172,112,162630,1,2
172,112,162954,1,0
172,112,163116,1,0
172,112,163279,1,2
172,112,163603,1,0
172,112,163765,1,0
172,112,163927,1,2
172,112,164252,1,0
172,112,164414,1,0
172,112,164576,1,2
260,76,164738,1,2
260,76,164819,1,2
260,76,164900,1,0
260,76,165062,1,0
260,76,165225,1,6
264,152,165549,1,6
160,72,165873,1,0
160,72,166035,1,0
160,72,166198,1,6
172,88,166522,1,6
172,88,166846,1,6
152,156,167171,1,0
152,156,167333,1,0
184,104,167495,1,2
260,88,167657,1,2
260,88,167819,1,6
260,88,168144,1,6
140,80,168468,1,0
140,80,168630,1,0
140,80,168792,1,2
260,88,168954,1,2
260,88,169035,1,2
260,88,169116,1,2
232,128,169441,1,0
164,32,169495,1,0
220,72,169549,1,0
220,72,169603,1,0
220,148,169765,1,4
220,148,170089,1,4
260,88,170252,1,0
260,88,170306,1,0
260,88,170360,1,0
260,88,170414,1,0
176,176,170576,1,4
220,72,171062,5,0
164,72,171387,1,2
164,72,171711,1,0
164,72,172035,1,2
164,72,172198,1,2
120,112,172360,1,0
176,188,172684,1,2
176,188,173008,1,0
208,44,173171,1,0
208,44,173252,1,0
208,44,173333,1,2
208,44,173495,1,2
200,144,173657,1,0
200,144,173981,1,2
232,92,174306,1,0
120,76,174468,1,2
120,76,174549,1,2
120,76,174630,1,0
120,76,174792,1,0
120,76,174873,1,2
120,76,174954,1,0
168,32,175116,1,2
168,32,175279,1,0
176,56,175441,1,2
260,116,175522,1,2
260,116,175603,1,0
260,116,175684,1,0
260,116,175765,1,2
260,116,175846,1,2
260,116,175927,1,0
280,132,176089,1,2
220,72,176252,5,0
156,144,176414,1,2
156,144,176495,1,2
164,72,176577,1,0
156,144,176738,1,2
156,144,176819,1,2
164,72,176901,1,0
156,144,177062,1,2
164,72,177225,1,0
164,72,177388,1,2
328,156,177549,1,0
184,32,177630,1,0
184,32,177711,1,2
176,188,177874,1,0
184,32,177954,1,0
184,32,178035,1,2
176,52,178116,1,2
176,188,178198,1,0
144,72,178279,1,0
208,44,178361,1,2
208,44,178523,1,0
208,44,178685,1,2
176,52,178765,1,2
200,144,178847,1,0
176,52,179008,1,2
176,52,179089,1,2
200,144,179171,1,0
176,52,179333,1,2
176,52,179414,1,2
232,92,179496,1,0
308,104,179576,1,0
120,76,179658,1,2
120,76,179739,1,2
120,76,179820,1,0
308,104,179900,1,0
120,76,179982,1,2
120,76,180144,1,4
168,32,180306,1,4
168,32,180469,1,4
232,92,180630,1,4
232,92,180792,1,4
152,148,181441,5,2
152,148,181603,1,2
152,148,181765,1,2
152,148,181927,1,2
152,148,182089,1,2
176,60,182738,1,2
176,60,182900,1,2
176,60,183062,1,2
176,60,183225,1,2
176,60,183387,1,2
176,60,184035,1,2
176,60,184198,1,2
176,60,184360,1,2
156,56,184522,1,2
156,56,184684,1,2
212,108,185333,1,2
212,108,185495,1,2
212,108,185657,1,2
212,108,185819,1,2
136,64,185981,1,2
164,144,186630,1,2
164,144,186792,1,2
164,144,186954,1,2
164,144,187116,1,2
164,144,187279,1,2
164,108,187603,1,2
176,84,187927,1,2
176,84,188089,1,2
176,84,188252,1,2
176,84,188414,1,2
176,84,188576,1,2
292,196,188900,1,0
292,196,188981,1,0
292,196,189062,1,0
224,152,189225,1,4
224,152,189387,1,4
224,152,189549,1,4
224,152,189873,1,4
224,152,190035,1,4
224,152,190198,1,4
224,152,190522,1,4
224,152,190684,1,4
224,152,190846,1,4
224,152,191008,1,0
288,188,191089,1,0
224,152,191171,1,2
304,164,191252,1,2
304,164,191333,1,0
304,164,191414,1,0
304,164,191495,1,2
304,164,191576,1,2
304,164,191657,1,0
112,52,191819,5,4
112,52,192144,1,4
112,52,192306,1,2
228,116,192468,1,0
192,92,192630,1,2
192,92,192792,1,0
192,92,192954,1,2
156,108,193035,1,2
156,108,193116,1,0
156,108,193198,1,0
156,108,193279,1,2
188,156,193441,1,0
188,156,193603,1,2
148,88,193765,1,0
212,64,193927,1,2
212,64,194008,1,0
212,64,194089,1,2
212,64,194252,1,0
212,64,194333,1,2
212,64,194414,1,0
276,136,194576,1,2
276,136,194738,1,0
304,184,194819,1,0
304,184,194900,1,2
304,184,195062,1,0
336,192,195225,1,2
336,192,195306,1,2
336,192,195387,1,0
304,184,195549,1,2
288,152,195711,1,4
288,152,195873,1,2
288,152,196035,1,4
288,152,196198,1,2
220,112,196360,1,4
220,112,196522,1,2
220,112,196603,1,0
220,112,196684,1,2
220,112,196846,1,0
220,112,196927,1,2
220,112,197008,1,0
244,112,197171,1,2
244,112,197333,1,0
244,112,197495,1,2
244,112,197576,1,2
244,112,197657,1,0
244,112,197738,1,0
244,112,197819,1,2
280,128,197981,1,0
280,128,198144,1,2
280,128,198306,1,0
280,128,198387,1,0
280,128,198468,1,2
280,128,198630,1,0
280,128,198711,1,0
280,128,198792,1,2
280,128,198954,1,0
280,128,199035,1,0
280,128,199116,1,2
228,124,199198,1,2
228,124,199279,1,0
228,124,199441,1,2
228,124,199603,1,0
340,160,199765,1,2
340,160,199846,1,0
340,160,199927,1,2
340,160,200089,1,0
340,160,200171,1,2
340,160,200252,1,0
340,160,200414,1,2
340,160,200576,1,0
340,160,200738,1,2
340,160,200900,1,4
228,124,201062,1,6
248,144,201225,1,4
248,144,201387,1,6
340,160,201549,1,4
340,160,201711,1,2
208,40,201792,1,2
212,60,201873,1,0
212,60,201954,1,0
212,60,202035,1,2
212,60,202116,1,2
112,52,202198,5,0
136,104,202360,1,2
112,52,202523,1,0
112,52,202685,1,2
228,116,202847,1,0
172,52,202927,1,0
192,92,203009,1,2
192,92,203171,1,0
192,92,203333,1,2
156,108,203414,1,2
156,108,203495,1,0
156,108,203577,1,0
156,108,203658,1,2
188,156,203820,1,0
188,156,203982,1,2
148,88,204144,1,0
212,64,204306,1,2
212,64,204387,1,2
212,64,204468,1,0
160,40,204549,1,0
212,64,204631,1,2
156,60,204711,1,0
212,64,204793,1,0
276,136,204955,1,2
276,136,205117,1,0
304,184,205198,1,0
304,184,205279,1,2
304,184,205441,1,0
336,192,205604,1,2
336,192,205685,1,2
336,192,205766,1,0
304,184,205928,1,2
288,152,206090,1,0
160,8,206171,1,0
288,152,206252,1,2
288,152,206414,1,0
184,4,206495,1,0
288,152,206577,1,2
220,112,206739,1,0
220,112,206820,1,0
220,112,206901,1,2
220,112,206982,1,0
220,112,207063,1,2
220,112,207225,1,0
220,112,207306,1,2
220,112,207387,1,0
244,112,207550,1,2
244,112,207712,1,0
244,112,207874,1,2
244,112,207955,1,2
244,112,208036,1,0
244,112,208117,1,0
244,112,208198,1,2
280,128,208360,1,0
280,128,208523,1,2
164,88,208603,1,2
280,128,208685,1,0
280,128,208766,1,0
280,128,208847,1,2
280,128,209009,1,0
280,128,209090,1,0
280,128,209171,1,2
280,128,209333,1,0
160,24,209495,1,2
160,24,209576,1,2
160,24,209657,1,0
244,112,209738,1,2
244,112,209819,1,0
244,112,209900,1,0
244,112,209981,1,0
244,112,210144,1,2
244,112,210306,1,0
160,24,210468,1,2
160,24,210549,1,2
160,24,210630,1,0
160,24,210792,1,2
160,24,210873,1,2
160,24,210954,1,0
160,24,211035,1,0
160,24,211116,1,2
160,24,211198,1,2
160,24,211279,1,0
284,172,211603,1,2
184,128,211765,1,2
184,128,211819,1,2
184,128,211873,1,2
184,128,211927,1,2
244,52,212252,1,0
244,52,212333,1,0
244,52,212414,1,0
244,52,212495,1,0
320,88,212576,5,0
236,96,212738,1,2
236,96,212819,1,2
156,64,212900,1,0
176,100,213062,1,2
324,68,213224,1,0
304,156,213306,1,0
304,156,213387,1,2
176,160,213468,1,2
244,52,213549,1,0
168,20,213711,1,2
152,104,213873,1,0
176,24,214036,1,2
176,24,214117,1,2
160,52,214197,1,0
236,88,214360,1,2
160,52,214522,1,0
288,180,214603,1,0
288,180,214685,1,2
160,52,214846,1,0
152,88,215008,1,0
152,88,215089,1,2
152,88,215170,1,0
116,140,215333,1,2
168,32,215495,1,0
232,80,215657,1,2
192,84,215738,1,2
168,32,215819,1,0
100,80,215981,1,2
168,32,216143,1,0
376,256,216225,1,2
168,32,216305,1,0
208,108,216468,1,0
160,40,216630,1,2
208,108,216711,1,2
280,260,216792,1,0
228,192,216954,1,2
472,320,217116,1,0
376,256,217198,1,0
440,292,217278,1,2
376,236,217360,1,2
348,208,217441,1,0
176,160,217522,1,0
288,148,217603,1,2
176,160,217684,1,2
320,88,217765,5,0
236,96,217927,1,2
236,96,218008,1,2
156,64,218089,1,0
176,100,218251,1,2
324,68,218413,1,0
240,84,218576,1,2
244,52,218738,1,0
368,200,218820,1,2
168,20,218900,1,0
152,104,219062,1,0
176,24,219225,1,2
176,24,219306,1,2
160,52,219386,1,0
176,160,219468,1,0
236,88,219549,1,2
160,52,219711,1,0
368,200,219793,1,0
160,52,219873,1,2
160,52,220035,1,0
152,88,220197,1,0
152,88,220278,1,2
152,88,220359,1,0
208,24,220522,1,2
184,60,220603,1,2
168,32,220684,1,0
176,160,220765,1,0
232,80,220846,1,2
168,32,221008,1,0
100,80,221170,1,2
168,32,221332,1,0
168,32,221495,1,2
192,112,221657,1,4
212,192,221819,1,4
212,192,221982,1,4
212,192,222144,1,4
212,192,222306,1,4
272,132,222468,1,2
244,164,222549,1,2
272,132,222630,1,2
244,60,222792,1,2
112,92,222954,5,4
112,92,223279,1,4
112,92,223603,1,4
112,92,223927,1,0
112,92,224089,1,0
192,44,224252,1,6
192,44,224576,1,6
192,44,224900,1,6
252,152,225062,1,0
252,152,225144,1,2
228,104,225225,1,0
252,152,225387,1,0
192,24,225468,1,2
192,24,225549,1,0
220,84,225873,1,0
288,160,226035,1,2
288,160,226116,1,2
288,160,226198,1,0
288,160,226360,1,2
288,160,226522,1,0
288,160,226603,1,0
288,160,226684,1,2
288,160,226846,1,0
252,92,227008,1,2
252,92,227171,1,0
252,92,227333,1,2
252,92,227414,1,2
252,92,227495,1,0
252,92,227576,1,0
252,92,227657,1,2
252,92,227819,1,0
252,92,227981,1,2
224,120,228144,1,4
156,36,228468,1,4
156,36,228630,1,2
300,120,228711,1,2
300,120,228792,1,0
232,48,228955,1,2
232,48,229117,1,0
240,96,229279,1,2
152,100,229441,1,0
224,120,229522,1,0
224,120,229604,1,2
152,100,229765,1,0
224,120,229847,1,0
160,120,229928,1,2
160,120,230090,1,0
224,120,230171,1,0
176,172,230252,1,2
176,172,230414,1,0
240,96,230576,1,0
240,96,230657,1,2
240,96,230738,1,0
220,80,230901,1,2
156,16,230981,1,2
220,80,231063,1,0
276,208,231225,1,0
168,60,231306,1,2
276,208,231387,1,0
276,208,231549,1,2
276,208,231630,1,2
276,208,231711,1,0
168,60,231792,1,0
276,208,231874,1,2
276,208,232036,1,4
168,120,232198,1,6
168,120,232360,1,4
180,136,232522,1,6
180,136,232684,1,4
180,136,232847,1,2
216,112,232928,1,2
216,112,233009,1,0
84,40,233089,1,0
164,56,233171,1,2
112,52,233333,5,4
136,104,233495,1,2
112,52,233658,1,4
112,52,233820,1,2
228,116,233982,1,0
172,52,234062,1,0
192,92,234144,1,2
192,92,234306,1,0
192,92,234468,1,2
156,108,234549,1,2
156,108,234630,1,0
156,108,234712,1,0
156,108,234793,1,2
188,156,234955,1,6
188,156,235117,1,0
148,88,235279,1,6
212,64,235441,1,0
212,64,235522,1,0
212,64,235603,1,0
160,40,235684,1,2
212,64,235766,1,2
156,60,235846,1,2
212,64,235928,1,0
276,136,236090,1,2
276,136,236252,1,0
304,184,236333,1,0
304,184,236414,1,2
304,184,236576,1,0
336,192,236739,1,2
336,192,236820,1,2
336,192,236901,1,0
304,184,237063,1,0
144,164,237144,1,2
288,152,237225,1,0
288,152,237387,1,2
288,152,237549,1,0
288,152,237712,1,2
220,112,237874,1,0
220,112,237955,1,0
220,112,238036,1,2
220,112,238116,1,2
220,112,238198,1,0
220,112,238360,1,0
220,112,238441,1,2
220,112,238522,1,0
244,112,238685,1,2
244,112,238847,1,0
244,112,239009,1,2
244,112,239090,1,2
244,112,239171,1,0
244,112,239252,1,0
244,112,239333,1,2
280,128,239495,1,0
280,128,239658,1,2
164,88,239738,1,2
280,128,239820,1,0
280,128,239901,1,0
280,128,239982,1,2
280,128,240144,1,0
280,128,240225,1,0
280,128,240306,1,2
280,128,240468,1,0
88,108,240549,1,0
160,24,240630,1,2
160,24,240792,1,0
244,112,240873,1,2
244,112,240954,1,0
244,112,241035,1,2
244,112,241116,1,0
244,112,241279,1,2
244,112,241441,1,0
160,24,241603,1,2
160,24,241684,1,2
160,24,241765,1,0
160,24,241927,1,2
160,24,242008,1,2
160,24,242089,1,0
160,24,242170,1,0
160,24,242251,1,2
256,192,242414,12,0,246306
80,80,246954,5,2
80,80,247279,1,2
216,144,247441,1,0
276,108,247522,1,0
216,144,247603,1,2
220,80,248252,1,2
220,80,248576,1,2
308,144,248738,1,0
308,144,248819,1,0
308,144,248900,1,2
308,144,249225,1,0
196,72,249549,1,2
196,72,249873,1,2
196,72,250035,1,0
196,72,250116,1,0
196,72,250198,1,2
312,192,250360,1,0
312,192,250684,1,0
312,192,250846,1,2
312,192,251171,1,2
312,192,251333,1,0
312,192,251414,1,0
312,192,251495,1,2
328,232,251657,1,2
328,232,251819,1,0
352,192,251981,1,0
328,232,252144,1,2
344,240,252306,1,0
344,240,252387,1,0
344,240,252468,1,2
216,144,252792,5,2
184,76,252954,1,0
184,76,253279,1,0
220,80,253441,1,2
220,80,253765,1,2
308,144,253927,1,0
308,144,254008,1,0
308,144,254089,1,2
140,60,254414,1,0
196,72,254738,1,2
196,72,254900,1,0
196,72,255062,1,2
196,72,255224,1,0
196,72,255305,1,0
196,72,255387,1,2
312,192,255549,1,0
312,192,255873,1,0
312,192,256035,1,2
312,192,256360,1,2
312,192,256522,1,0
312,192,256603,1,0
312,192,256684,1,2
328,232,256846,1,2
328,232,257008,1,0
352,192,257170,1,0
328,232,257333,1,2
344,240,257495,1,0
344,240,257576,1,0
344,240,257657,1,2
220,116,257819,1,0
192,64,257900,1,0
216,144,257981,1,2
80,80,258144,1,0
80,80,258306,1,0
220,80,258630,1,2
220,80,258954,1,2
308,144,259116,1,0
308,144,259197,1,0
308,144,259278,1,2
308,144,259603,1,0
196,72,259927,1,2
144,104,260089,1,0
196,72,260251,1,2
196,72,260413,1,0
196,72,260494,1,0
196,72,260576,1,2
312,192,260738,1,0
312,192,261062,1,0
312,192,261225,1,2
188,104,261387,1,0
312,192,261549,1,2
312,192,261711,1,0
312,192,261792,1,0
312,192,261873,1,2
328,232,262035,1,2
328,232,262197,1,0
352,192,262359,1,0
328,232,262522,1,2
344,240,262684,1,0
344,240,262765,1,0
344,240,262846,1,2
304,164,263008,1,0
216,144,263171,1,2
136,24,263333,1,2
136,24,263495,1,0
136,24,263657,1,0
220,80,263820,1,2
220,80,264144,1,2
308,144,264306,1,0
308,144,264387,1,0
308,144,264468,1,2
308,144,264793,1,0
196,72,265116,1,2
136,24,265279,1,0
196,72,265441,1,2
196,72,265603,1,0
196,72,265684,1,0
196,72,265766,1,2
312,192,265928,1,0
312,192,266252,1,0
312,192,266414,1,2
136,24,266576,1,0
312,192,266739,1,2
312,192,266901,1,0
312,192,266982,1,0
312,192,267063,1,2
328,232,267225,1,2
328,232,267387,1,0
352,192,267549,1,0
328,232,267712,1,2
344,240,267874,1,0
344,240,267955,1,0
344,240,268036,1,2
