osu file format v9

[General]
AudioFilename: paraoka - mani mani.mp3
AudioLeadIn: 0
PreviewTime: 67307
Countdown: 0
SampleSet: Soft
StackLeniency: 0.7
Mode: 0
LetterboxInBreaks: 1

[Editor]
Bookmarks: 128577
DistanceSpacing: 1
BeatDivisor: 2
GridSize: 4

[Metadata]
Title:Manima ni
Artist:paraoka
Creator:Goisuke
Version:Normal
Source:
Tags:haru*nya must die

[Difficulty]
HPDrainRate:2
CircleSize:3
OverallDifficulty:2
ApproachRate:5
SliderMultiplier:1
SliderTickRate:1

[Events]
//Background and Video events
0,0,"19170842.jpg"
//Break Periods
2,17561,24593
2,89885,97566
2,153128,159512
2,181469,188053
//Storyboard Layer 0 (Background)
//Storyboard Layer 1 (Fail)
//Storyboard Layer 2 (Pass)
//Storyboard Layer 3 (Foreground)
//Storyboard Sound Samples
//Background Colour Transformations
3,100,163,162,255

[TimingPoints]
1145,324.324324324324,4,2,1,70,1,0
41415,-100,4,2,1,70,0,0
56658,-100,4,2,1,60,0,0
63226,-100,4,2,1,70,0,0
64361,-100,4,2,1,65,0,0
65821,-100,4,2,2,65,0,0
67307,-100,4,2,1,75,0,1
86766,-100,4,2,1,65,0,0
98577,-100,4,2,1,70,0,0
128091,-100,4,2,2,65,0,0
129577,-100,4,2,1,75,0,1
148388,-100,4,2,1,65,0,1
150334,-100,4,2,1,65,0,0
192172,-100,4,2,1,65,0,1
211307,-100,4,2,1,65,0,0

[Colours]
Combo1 : 255,255,128
Combo2 : 255,128,255
Combo3 : 128,255,255
Combo4 : 255,255,255

[HitObjects]
84,140,5036,2,0,B|84:256,1,100,2|0
168,296,5685,1,8
268,296,6009,1,0
368,296,6334,1,2
368,296,6658,2,0,B|368:180,1,100,0|8
368,96,7307,6,0,B|368:32,2,50,0|0|2
268,96,7955,1,0
168,96,8280,2,0,B|88:104|60:160,1,100,8|0
68,240,8928,1,2
136,312,9253,1,0
204,240,9577,1,8
304,68,10226,5,2
408,68,10550,2,0,B|436:128|380:188,1,100,0|8
308,204,11199,2,0,B|280:264|336:324,1,100,0|2
396,248,11847,1,0
476,292,12172,2,0,B|452:344|376:336,1,100,8|0
268,336,12820,6,0,B|268:112,1,200,2|8
192,72,13793,1,0
116,136,14117,2,0,B|116:340,1,200,2|8
256,192,15415,12,4,17361
148,120,25793,5,2
248,120,26117,2,0,B|352:120,1,100,0|8
348,120,26766,1,0
352,220,27090,2,0,B|244:220,2,100,2|0|8
352,320,28063,1,0
252,324,28388,2,0,B|188:332|144:272,1,100,2|0
60,284,29036,2,0,B|20:244|20:192,1,100,8|0
80,116,29685,5,2
156,52,30009,1,0
204,140,30334,1,8
164,232,30658,2,0,B|108:224,2,50,0|0|2
256,272,31307,1,0
292,180,31631,2,0,B|340:72|336:56,1,100,8|0
428,88,32280,5,2
472,180,32604,2,0,B|472:280,1,100,0|8
428,372,33253,2,0,B|312:372,1,100,0|2
272,280,33901,1,0
172,280,34226,1,8
172,180,34550,1,0
272,180,34874,2,0,B|272:116,4,50,2|0|0|0|8
372,184,35847,2,0,B|436:176|460:248,1,100,0|4
384,304,36496,5,0
284,308,36820,2,0,B|232:312|144:288,1,100,2|0
100,240,37469,1,2
104,140,37793,1,0
168,64,38117,2,0,B|224:64,2,50
244,156,38766,2,0,B|244:272,1,100,8|0
344,256,39415,2,0,B|344:132,1,100,8|0
444,156,40063,2,0,B|444:276,1,100,8|0
388,344,40712,2,0,B|164:344,1,200,8|4
104,288,41685,6,0,B|36:288,2,50,0|0|2
104,188,42334,1,0
156,104,42658,2,0,B|256:104,1,100,2|0
288,200,43307,2,0,B|168:200,1,100,2|0
228,292,43955,2,0,B|364:292,1,100,2|0
428,288,44604,1,2
428,188,44928,1,0
424,88,45253,2,0,B|392:56|328:44|264:56|232:96,1,200,2|4
48,152,46550,5,2
76,248,46874,2,0,B|52:300|76:352,1,100,0|2
160,296,47523,1,0
192,196,47847,2,0,B|248:212|264:272,1,100,2|0
262,263,48496,1,0
308,184,48820,1,2
308,84,49144,6,0,B|204:84,2,100,0|8|0
408,84,50117,2,0,B|408:216,2,100,0|8|0
312,116,51090,2,0,B|160:256,1,200,0|4
136,156,52063,5,0
96,56,52388,2,0,B|40:84|20:172,1,100,2|0
44,236,53036,1,2
44,336,53361,2,0,B|160:336,1,100,0|2
244,332,54009,5,0
292,316,54172,1,0
312,268,54334,1,0
216,248,54658,1,0
176,216,54820,1,0
168,168,54982,1,0
256,120,55307,2,0,B|256:52,2,50,0|0|4
408,64,56928,6,0,B|440:112|436:160|440:208|408:256,1,200,2|0
409,254,57901,1,0
352,160,58226,2,0,B|132:160,1,200,8|0
96,84,59199,2,0,B|160:28,2,50,0|0|2
20,148,59847,1,0
24,248,60172,1,0
96,320,60496,1,0
168,252,60820,1,8
244,320,61144,2,0,B|364:324|428:220,1,200
416,136,62117,6,0,B|364:50|244:54,1,200,2|0
264,152,63090,1,0
168,88,63415,2,0,B|168:300,1,200,8|0
268,292,64388,2,0,B|360:292,2,50,0|0|2
316,204,65036,2,0,B|244:204,2,50
316,104,65685,1,0
416,104,66009,2,0,B|464:104,4,50,2|0|0|0|4
188,76,67307,6,0,B|108:88|80:140,1,100,2|8
100,216,67955,1,2
100,316,68280,1,8
200,316,68604,1,2
200,216,68928,1,8
200,116,69253,2,0,B|268:108|312:176,1,100,2|8
292,248,69901,2,0,B|356:256|384:196,1,100,2|8
400,164,70388,1,0
400,112,70550,2,0,B|320:28|196:36,1,200,2|8
221,35,71523,5,2
124,60,71847,2,0,B|60:124|60:168,1,100,8|2
132,216,72496,1,8
196,136,72820,2,0,B|308:136,1,100,2|8
340,224,73469,2,0,B|236:224,1,100,2|8
240,224,74117,1,2
240,324,74442,5,8
148,328,74766,2,0,B|80:328,2,50
148,228,75415,1,2
48,228,75739,2,0,B|52:152|112:108,1,100,8|2
156,72,76388,2,0,B|360:72,1,200,8|4
256,244,77685,5,2
352,268,78009,2,0,B|356:212|324:168,2,100,8|2|8
276,332,78982,1,2
176,340,79307,1,8
100,276,79631,1,2
88,176,79955,6,0,B|88:88,2,50,8|0|2
188,176,80604,1,8
188,76,80928,2,0,B|400:76,1,200,2|2
388,76,81901,1,8
392,176,82226,2,0,B|284:176,1,100,2|8
292,276,82874,5,2
192,276,83199,1,8
192,176,83523,2,0,B|192:68,1,100,2|8
192,76,84172,1,2
88,76,84496,1,8
88,176,84820,1,2
88,272,85144,6,0,B|88:348,2,50,8|0|2
188,272,85793,2,0,B|396:272,1,200,8|8
388,272,86766,1,2
256,136,87415,1,4
256,192,88063,12,0,89685
144,76,98766,6,0,B|60:76,2,50,2|0|0
244,76,99415,1,2
344,76,99739,2,0,B|380:80|408:104|412:140,1,100,0|2
416,232,100388,2,0,B|472:232,2,50,0|0|2
316,236,101036,6,0,B|200:236,1,100,0|8
264,324,101685,2,0,B|132:324,1,100,0|8
64,324,102334,2,0,B|64:208,1,100,0|8
68,124,102982,2,0,B|292:124,1,200,0|4
352,68,103955,5,0
352,68,104117,1,0
352,68,104280,1,0
420,132,104604,2,0,B|464:180|440:240,1,100,2|0
372,292,105253,1,2
272,304,105577,2,0,B|272:192,1,100,0|2
272,92,106226,6,0,B|164:92,1,100,0|2
108,168,106874,2,0,B|108:288,1,100,0|2
176,344,107523,2,0,B|296:344,1,100,0|2
356,296,108172,1,0
376,204,108496,1,0
288,156,108820,1,0
336,68,109144,6,0,B|408:68,2,50,2|0|0
236,72,109793,1,2
136,72,110117,1,0
68,148,110442,2,0,B|8:148,2,50,2|0|0
68,244,111090,1,2
144,292,111415,6,0,B|200:280|240:240,1,100,0|2
296,344,112063,2,0,B|364:324|368:240,1,100,0|2
460,252,112712,2,0,B|455:191|391:158,1,100,0|2
432,72,113361,2,0,B|303:36|251:171,1,200,0|4
176,92,114334,6,0,B|116:92,2,50,2|0|0
176,192,114982,1,2
176,292,115307,1,0
276,292,115631,1,2
276,192,115955,1,0
276,92,116280,6,0,B|356:92,2,50,2|0|0
276,192,116928,2,0,B|344:192,2,50,2|0|0
276,292,117577,1,8
176,292,117901,2,0,B|176:72,1,200,0|4
176,92,118874,5,8
276,92,119199,2,0,B|400:84|460:224,1,200
440,184,120172,1,8
440,284,120496,2,0,B|232:284,1,200
140,284,121469,6,0,B|140:344,2,50,2|0|0
140,184,122117,1,0
140,84,122442,1,0
240,84,122766,2,0,B|348:84,1,100,8|0
440,84,123415,2,0,B|440:304,1,200,0|2
392,296,124226,1,0
340,284,124388,2,0,B|340:76,1,200
340,84,125361,1,8
240,84,125685,2,0,B|120:92|72:208,1,200
80,288,126658,6,0,B|8:288,2,50,0|0|0
180,288,127307,2,0,B|180:200,2,50
280,288,127955,1,8
280,188,128280,1,0
240,160,128442,1,0
220,116,128604,1,0
240,68,128766,1,0
280,40,128928,1,0
452,76,129577,6,0,B|476:132|448:180,1,100,2|8
451,172,130226,1,2
452,272,130550,1,8
368,324,130874,2,0,B|264:324,1,100,2|8
268,324,131523,1,2
268,224,131847,6,0,B|336:224,2,50,8|0|2
268,124,132496,1,8
268,24,132820,2,0,B|160:24|100:132,1,200,2|8
96,236,133793,2,0,B|52:272|96:348,1,100,2|8
144,324,134280,1,0
176,276,134442,1,0
184,176,134766,5,2
212,80,135090,2,0,B|280:68|308:140,1,100,8|2
297,117,135739,1,0
404,104,136063,2,0,B|404:220,1,100,2|8
404,204,136712,1,2
404,304,137036,2,0,B|480:304,2,50,8|0|2
304,304,137685,1,8
204,304,138009,2,0,B|108:292|88:244,1,100,2|8
144,180,138658,2,0,B|184:80|316:80,1,200,2|8
104,80,139955,5,2
52,168,140280,2,0,B|52:280,1,100,8|2
52,268,140928,1,8
152,272,141253,2,0,B|272:272,1,100,2|8
252,272,141901,1,2
224,176,142226,5,0
224,128,142388,1,0
268,104,142550,1,0
352,172,142874,1,8
392,80,143199,2,0,B|500:172|376:284,1,200,2|8
304,252,144172,1,2
204,252,144496,2,0,B|204:136,1,100,8|2
208,56,145144,5,8
108,56,145469,1,2
108,156,145793,2,0,B|108:272,1,100,8|2
108,256,146442,1,8
208,256,146766,2,0,B|336:256,1,100,2|8
304,156,147415,2,0,B|240:156,2,50,2|0|8
304,56,148063,5,2
204,56,148388,2,0,B|100:56,1,100,8|2
100,156,149036,2,0,B|20:256|112:340,1,200,8|2
256,204,150334,1,4
256,192,150496,12,4,152928
92,100,160712,5,8
160,24,161036,2,0,B|212:56|196:132,1,100,0|8
140,192,161685,1,0
220,256,162009,2,0,B|220:376,2,100,8|0|8
308,212,162982,2,0,B|416:212,2,100,0|8|0
312,112,163955,5,8
228,60,164280,2,0,B|168:64|132:108,1,100,0|8
120,200,164928,2,0,B|60:200,2,50,0|0|8
156,292,165577,1,0
256,292,165901,6,0,B|368:292,1,100,8|0
388,196,166550,2,0,B|388:84,2,100,8|0|8
296,156,167523,2,0,B|224:156,2,50,0|0|8
296,56,168172,1,0
196,40,168496,2,0,B|128:44|104:116,1,100,8|0
116,192,169144,1,8
292,284,169793,6,0,B|292:164,1,100
292,32,170604,1,4
176,80,171090,5,2
96,140,171415,2,0,B|52:188|88:252,1,100,0|2
172,200,172063,1,0
176,300,172388,2,0,B|292:300,1,100,2|0
280,200,173036,1,2
352,268,173361,6,0,B|352:328,2,50,0|0|2
416,180,174009,1,0
432,80,174334,2,0,B|388:52|332:56,1,100,2|0
220,56,174982,1,2
148,128,175307,1,0
244,156,175631,1,2
68,252,176280,5,2
144,320,176604,1,0
208,244,176928,2,0,B|308:244,1,100,2|0
360,160,177577,1,2
412,76,177901,2,0,B|312:76,3,100
212,76,179199,1,0
260,164,179523,2,0,B|260:376,2,200,0|0|4
200,236,189253,6,0,B|200:168,2,50
292,188,189901,2,0,B|292:256,2,50
340,92,190550,2,0,B|240:92,1,100,2|0
192,92,191036,1,0
140,92,191199,1,0
76,168,191523,1,2
76,216,191685,1,0
76,264,191847,1,0
172,268,192172,1,2
220,180,192496,6,0,B|328:180,1,100,8|2
320,280,193144,1,8
420,288,193469,2,0,B|452:232|424:164,1,100,2|8
404,96,194117,2,0,B|464:96,2,50,2|0|8
304,92,194766,1,2
252,176,195090,2,0,B|192:164|188:92,1,100,8|2
96,68,195739,1,8
48,168,196063,1,2
144,200,196388,1,4
304,80,197036,5,2
404,96,197361,1,8
444,188,197685,2,0,B|460:260|408:296,1,100,2|8
348,216,198334,1,2
308,308,198658,1,8
244,232,198982,1,2
176,304,199307,6,0,B|176:368,2,50,8|0|2
88,260,199955,1,8
88,160,200280,1,2
144,76,200604,1,8
244,72,200928,2,0,B|364:60|436:128,1,200,0|4
240,184,202226,5,2
240,284,202550,1,8
140,288,202874,2,0,B|140:156,1,100,2|8
80,108,203523,1,2
164,52,203847,1,8
244,112,204172,1,2
340,84,204496,5,8
388,88,204658,1,0
416,132,204820,1,2
344,212,205144,1,8
344,312,205469,2,0,B|240:312,1,100,2|8
148,288,206117,1,2
224,224,206442,1,8
132,192,206766,1,2
324,68,207415,5,8
424,72,207739,1,2
424,172,208063,2,0,B|424:296,1,100,8|2
324,280,208712,1,8
264,200,209036,1,2
204,280,209361,1,8
144,200,209685,6,0,B|80:200,2,50,2|0|8
156,100,210334,2,0,B|256:52|348:104,1,200,2|0
348,204,211307,2,0,B|248:252|156:200,1,200,0|4
256,192,212604,12,4,215199
