osu file format v11

[General]
AudioFilename: paraoka - mani mani.mp3
AudioLeadIn: 0
PreviewTime: 67307
Countdown: 0
SampleSet: Soft
StackLeniency: 0.7
Mode: 0
LetterboxInBreaks: 1

[Editor]
Bookmarks: 128577
DistanceSpacing: 0.5
BeatDivisor: 4
GridSize: 4

[Metadata]
Title:Manima ni
TitleUnicode:
Artist:paraoka
ArtistUnicode:
Creator:Goisuke
Version:Insane
Source:
Tags:haru*nya must die
BeatmapID:120180
BeatmapSetID:37358

[Difficulty]
HPDrainRate:7
CircleSize:4
OverallDifficulty:7
ApproachRate:9
SliderMultiplier:1.5
SliderTickRate:1

[Events]
//Background and Video events
0,0,"19170842.jpg"
//Break Periods
2,17561,25031
2,89885,96544
2,153128,160112
2,181669,188328
//Storyboard Layer 0 (Background)
//Storyboard Layer 1 (Fail)
//Storyboard Layer 2 (Pass)
//Storyboard Layer 3 (Foreground)
//Storyboard Sound Samples
//Background Colour Transformations
3,100,163,162,255

[TimingPoints]
1145,324.324324324324,4,2,1,70,1,0
12792,-200,4,2,1,70,0,0
13441,-100,4,2,1,70,0,0
35847,-200,4,2,1,70,0,0
36307,-100,4,2,1,70,0,0
40604,-133.333333333333,4,2,1,65,0,0
41415,-100,4,2,1,70,0,0
56928,-200,4,2,1,60,0,0
58037,-100,4,2,1,70,0,0
59010,-200,4,2,1,60,0,0
63226,-100,4,2,1,70,0,0
64191,-133.333333333333,4,2,1,65,0,0
65821,-100,4,2,2,65,0,0
67307,-100,4,2,1,80,0,1
86766,-133.333333333333,4,2,1,65,0,0
96956,-133.333333333333,4,2,2,40,0,0
98577,-100,4,2,1,70,0,0
119091,-200,4,2,1,60,0,0
120307,-100,4,2,1,70,0,0
121279,-200,4,2,1,65,0,0
125496,-100,4,2,1,70,0,0
126469,-133.333333333333,4,2,1,65,0,0
128199,-133.333333333333,4,2,2,40,0,0
129577,-100,4,2,1,80,0,1
139199,-100,4,2,2,40,0,1
139523,-100,4,2,1,80,0,1
143983,-100,4,2,2,60,0,1
144631,-100,4,2,1,80,0,1
148388,-200,4,2,1,65,0,1
150334,-200,4,2,1,65,0,0
169712,-200,4,2,2,65,0,0
171062,-100,4,2,1,70,0,0
188902,-100,4,2,2,70,0,0
189253,-100,4,2,2,50,0,0
190307,-100,4,2,1,70,0,0
191847,-200,4,2,1,70,0,0
192172,-100,4,2,1,80,0,1
207226,-100,4,2,2,50,0,1
207875,-100,4,2,1,80,0,1
210334,-100,4,2,1,60,0,1
211307,-100,4,2,1,60,0,0

[Colours]
Combo1 : 255,255,128
Combo2 : 255,128,255
Combo3 : 128,255,255
Combo4 : 255,255,255

[HitObjects]
64,72,4874,1,2,0:0:0
40,160,5036,2,0,B|24:240|104:304,1,150,0|8,0:0|0:0,0:0:0
152,224,5523,1,2,0:0:0
184,312,5685,2,0,B|272:272|264:184,1,150,0|8,0:0|0:0,0:0:0
264,196,6172,1,0,0:0:0
296,104,6334,2,0,B|340:124|352:168,1,75,0|2,0:0|0:0,0:0:0
364,248,6658,2,0,B|409:235|422:205,1,75,0|2,0:0|0:0,0:0:0
436,112,6982,2,0,B|488:128|512:168|512:232,1,150
432,280,7469,5,2,0:0:0
360,328,7631,2,0,B|264:336|208:280,1,150,0|8,0:0|0:0,0:0:0
218,290,8117,1,2,0:0:0
112,296,8280,2,0,B|112:136,1,150,0|8,0:0|0:0,0:0:0
112,146,8766,1,0,0:0:0
192,64,8928,2,0,B|280:64,1,75,0|2,0:0|0:0,0:0:0
264,152,9253,2,0,B|168:152,1,75,0|8,0:0|0:0,0:0:0
192,240,9577,2,0,B|344:240,1,150,0|2,0:0|0:0,0:0:0
88,64,10226,5,2,0:0:0
40,136,10388,1,0,0:0:0
128,152,10550,2,0,B|80:232,1,75,8|0,0:0|0:0,0:0:0
48,288,10874,2,0,B|208:288,1,150,2|8,0:0|0:0,0:0:0
268,232,11361,1,0,0:0:0
344,296,11523,2,0,B|384:264|384:224,1,75,2|0,0:0|0:0,0:0:0
383,234,11847,2,0,B|336:184|368:136,1,75,8|0,0:0|0:0,0:0:0
355,167,12172,1,2,0:0:0
400,40,12496,5,0,0:0:0
304,40,12658,1,0,0:0:0
256,116,12820,6,0,B|256:296,1,150
80,112,13793,2,0,B|56:152|48:184|56:216|80:256,1,150,2|0,0:0|0:0,0:0:0
433,252,14442,2,0,B|456:216|464:184|456:152|432:112,1,150,2|0,0:0|0:0,0:0:0
256,192,15415,12,4,17361,0:0:0
368,80,25631,5,0,0:0:0
368,80,25712,1,0,0:0:0
368,80,25793,2,0,B|424:136|400:248,1,150,2|0,0:0|0:0,0:0:0
344,288,26280,1,0,0:0:0
272,240,26442,1,8,0:0:0
208,296,26604,1,0,0:0:0
136,248,26766,2,0,B|104:216|120:168,1,75
160,96,27090,2,0,B|192:72|240:96,1,75,2|0,0:0|0:0,0:0:0
320,104,27415,5,0,0:0:0
408,136,27577,1,0,0:0:0
456,208,27739,2,0,B|472:248|432:280,1,75,8|0,0:0|0:0,0:0:0
344,280,28063,1,0,0:0:0
344,280,28144,1,0,0:0:0
344,280,28226,2,0,B|288:280|256:256,1,75,0|4,0:0|0:0,0:0:0
152,200,28550,1,0,0:0:0
256,144,28712,1,0,0:0:0
256,256,28874,1,0,0:0:0
160,72,29036,2,0,B|80:96|64:192,1,150,8|0,0:0|0:0,0:0:0
80,280,29523,5,0,0:0:0
256,280,29685,1,2,0:0:0
168,280,29847,1,0,0:0:0
352,280,30009,1,0,0:0:0
440,224,30172,1,0,0:0:0
352,176,30334,2,0,B|264:176,1,75,8|0,0:0|0:0,0:0:0
277,176,30577,1,0,0:0:0
277,176,30658,1,0,0:0:0
136,96,30820,5,0,0:0:0
136,96,30901,1,0,0:0:0
136,96,30982,2,0,B|136:256,1,150,4|0,0:0|0:0,0:0:0
224,248,31469,2,0,B|304:248,1,75,0|8,0:0|0:0,0:0:0
400,248,31793,1,0,0:0:0
392,160,31955,2,0,B|384:72|296:64,1,150,0|2,0:0|0:0,0:0:0
264,144,32442,1,0,0:0:0
184,88,32604,1,0,0:0:0
168,176,32766,1,0,0:0:0
80,128,32928,2,0,B|80:288,1,150,8|0,0:0|0:0,0:0:0
192,280,33415,5,0,0:0:0
192,280,33496,1,0,0:0:0
192,280,33577,2,0,B|344:280,1,150,2|0,0:0|0:0,0:0:0
416,160,34226,1,8,0:0:0
192,80,34550,5,0,0:0:0
224,80,34631,1,0,0:0:0
256,80,34712,1,0,0:0:0
288,80,34793,1,0,0:0:0
320,80,34874,1,0,0:0:0
184,184,35036,1,0,0:0:0
340,296,35199,1,0,0:0:0
184,296,35361,1,0,0:0:0
340,184,35523,5,0,0:0:0
184,184,35847,2,0,B|96:184,1,75,0|4,0:0|0:0,0:0:0
96,120,36496,5,2,0:0:0
184,184,36658,1,0,0:0:0
80,224,36820,2,0,B|88:280|112:296,1,75
200,272,37144,1,2,0:0:0
288,224,37307,1,0,0:0:0
304,320,37469,2,0,B|392:272|408:192,1,150,0|2,0:0|0:0,0:0:0
402,211,37955,1,8,0:0:0
336,72,38117,1,8,0:0:0
192,56,38280,1,8,0:0:0
60,128,38442,2,0,B|28:160|36:208,1,75,0|0,0:0|0:0,0:0:0
312,120,38766,6,0,B|344:152|336:200,1,75
200,264,39090,2,0,B|168:232|176:184,1,75,2|0,0:0|0:0,0:0:0
416,152,39415,2,0,B|416:248,1,75
96,227,39739,2,0,B|96:152,1,75,2|0,0:0|0:0,0:0:0
216,40,40063,2,0,B|296:40,1,75
296,336,40388,2,0,B|208:336,1,75,2|0,0:0|0:0,0:0:0
256,96,40712,2,0,B|256:224,1,112.499996647239,0|2,0:0|0:0,0:0:0
256,208,41117,1,0,0:0:0
256,208,41199,1,8,0:0:0
256,208,41280,1,8,0:0:0
256,208,41361,1,12,0:0:0
416,80,41685,5,2,0:0:0
472,168,41847,1,0,0:0:0
456,264,42009,2,0,B|432:344|336:336,1,150,0|2,0:0|0:0,0:0:0
339,336,42496,1,0,0:0:0
296,256,42658,2,0,B|208:256,1,75
224,336,42982,2,0,B|128:336,1,75,2|0,0:0|0:0,0:0:0
64,336,43307,1,0,0:0:0
144,264,43469,1,0,0:0:0
64,208,43631,1,2,0:0:0
144,144,43793,1,0,0:0:0
64,64,43955,2,0,B|224:64,1,150,0|2,0:0|0:0,0:0:0
448,152,44604,6,0,B|448:227,1,75,8|0,0:0|0:0,0:0:0
64,227,44928,2,0,B|64:152,1,75,8|0,0:0|0:0,0:0:0
256,56,45253,2,0,B|256:144,1,75,8|0,0:0|0:0,0:0:0
256,131,45577,2,0,B|256:240,1,75,8|0,0:0|0:0,0:0:0
208,272,45901,1,2,0:0:0
304,272,46063,1,2,0:0:0
256,344,46226,1,0,0:0:0
256,312,46307,1,0,0:0:0
256,280,46388,1,0,0:0:0
256,248,46469,1,0,0:0:0
256,216,46550,1,4,0:0:0
80,80,46874,5,2,0:0:0
32,168,47036,1,0,0:0:0
48,264,47199,2,0,B|96:336|184:352,1,150,0|2,0:0|0:0,0:0:0
167,348,47685,1,0,0:0:0
312,336,47847,2,0,B|368:288|400:208,1,150,0|2,0:0|0:0,0:0:0
256,75,48334,1,0,0:0:0
194,253,48496,1,0,0:0:0
351,151,48658,1,0,0:0:0
160,151,48820,1,2,0:0:0
317,253,48982,1,0,0:0:0
160,80,49144,6,0,B|264:200,1,150,0|10,0:0|0:0,0:0:0
258,193,49631,1,0,0:0:0
356,80,49793,2,0,B|252:200,1,150,0|8,0:0|0:0,0:0:0
256,192,50280,1,0,0:0:0
104,248,50442,2,0,B|104:304|144:320,1,75,0|8,0:0|0:0,0:0:0
408,136,50766,2,0,B|408:80|368:64,1,75,0|8,0:0|0:0,0:0:0
256,192,51090,2,0,B|256:342,2,150,0|0|4,0:0|0:0|0:0,0:0:0
144,64,52063,5,2,0:0:0
256,64,52226,1,0,0:0:0
144,64,52388,1,0,0:0:0
80,152,52550,2,0,B|56:208|72:240,1,75,0|2,0:0|0:0,0:0:0
144,304,52874,1,0,0:0:0
208,232,53036,2,0,B|224:184|192:136,1,75
336,120,53361,2,0,B|360:208|336:288,1,150,2|0,0:0|0:0,0:0:0
168,56,54009,5,2,0:0:0
72,88,54172,1,8,0:0:0
16,176,54334,2,0,B|16:224|40:248,1,75,2|8,0:0|0:0,0:0:0
344,56,54658,5,2,0:0:0
440,88,54820,1,8,0:0:0
496,176,54982,2,0,B|496:224|472:248,1,75,2|8,0:0|0:0,0:0:0
208,56,55307,5,2,0:0:0
304,56,55469,1,0,0:0:0
256,128,55631,1,2,0:0:0
256,128,55712,1,0,0:0:0
256,128,55793,1,0,0:0:0
216,200,55955,5,2,0:0:0
296,200,56117,1,0,0:0:0
256,280,56280,1,2,0:0:0
256,300,56361,1,0,0:0:0
252,320,56442,1,0,0:0:0
240,336,56523,1,0,0:0:0
224,344,56604,1,4,0:0:0
204,348,56685,1,0,0:0:0
184,344,56766,1,0,0:0:0
168,340,56847,1,0,0:0:0
156,332,56928,6,0,B|108:316|108:268,1,75,4|0,0:0|0:0,0:0:0
48,212,57415,1,0,0:0:0
80,128,57577,2,0,B|128:144|128:192,1,75
208,176,58226,2,0,B|224:168|224:168|236:184|236:184|244:168|244:168|252:184|252:184|260:168|260:168|268:184|268:184|276:168|276:168|284:184|284:184|292:168|292:168|299:180|299:180|438:180,1,300,8|4,0:0|0:0,0:0:0
472,68,59199,5,0,0:0:0
372,68,59361,1,0,0:0:0
372,68,59442,1,0,0:0:0
372,68,59523,2,0,B|372:156,1,75,2|0,0:0|0:0,0:0:0
368,232,60009,1,0,0:0:0
368,320,60172,2,0,B|288:320,1,75,2|0,0:0|0:0,0:0:0
104,96,60820,1,2,0:0:0
104,176,61144,2,0,B|104:256,1,75,0|2,0:0|0:0,0:0:0
232,192,61793,5,0,0:0:0
240,192,61874,1,0,0:0:0
248,192,61955,1,0,0:0:0
256,192,62036,1,0,0:0:0
264,192,62117,2,0,B|352:192,1,75,2|0,0:0|0:0,0:0:0
339,192,62604,1,8,0:0:0
424,192,62766,2,0,B|424:240|424:272,1,75,2|0,0:0|0:0,0:0:0
344,320,63415,2,0,B|324:328|324:328|316:312|316:312|308:328|308:328|300:312|300:312|292:328|292:328|284:312|284:312|276:328|276:328|268:312|268:312|260:328|260:328|253:316|253:316|114:316,1,300,8|4,0:0|0:0,0:0:0
72,208,64388,5,2,0:0:0
72,96,64550,1,8,0:0:0
201,64,64712,2,0,B|256:28|318:70,1,112.499996647239,2|0,0:0|0:0,0:0:0
256,192,65199,1,8,0:0:0
309,321,65361,2,0,B|256:356|204:320,1,112.499996647239,2|0,0:0|0:0,0:3:0
152,80,66009,5,4,0:0:0
360,304,66172,1,4,0:0:0
368,88,66334,1,4,0:0:0
144,296,66496,1,4,0:0:0
256,192,66658,1,4,0:0:0
448,48,66982,5,2,0:0:0
448,80,67063,1,0,0:0:0
448,112,67144,1,0,0:0:0
448,144,67226,1,0,0:0:0
448,176,67307,2,0,B|448:264|376:312,1,150,4|2,0:0|0:0,0:0:0
280,304,67793,1,0,0:0:0
144,304,67955,2,0,B|96:304|72:272,1,75,8|0,0:0|0:0,0:0:0
64,168,68280,1,2,0:0:0
128,72,68442,2,0,B|184:56|208:112,1,75,0|8,0:0|0:0,0:0:0
195,90,68766,1,0,0:0:0
152,240,68928,6,0,B|232:240,1,75,2|0,0:0|0:0,0:0:0
360,152,69253,2,0,B|272:152,1,75,8|0,0:0|0:0,0:0:0
440,80,69577,1,2,0:0:0
440,80,69658,1,0,0:0:0
440,80,69739,1,0,0:0:0
456,192,69901,2,0,B|448:256|416:272,1,75,8|0,0:0|0:0,0:0:0
328,288,70226,1,2,0:0:0
256,208,70388,1,0,0:0:0
176,288,70550,2,0,B|112:224|152:128,1,150,8|2,0:0|0:0,0:0:0
144,149,71036,1,0,0:0:0
192,56,71199,6,0,B|268:18|335:60,1,150,8|2,0:0|0:0,0:0:0
256,192,71685,1,0,0:0:0
320,328,71847,2,0,B|244:366|177:324,1,150,8|2,0:0|0:0,0:0:0
177,324,72253,1,0,0:0:0
177,324,72334,1,0,0:0:0
177,324,72415,1,0,0:0:0
177,324,72496,1,8,0:0:0
109,239,72658,2,0,B|192:240,1,75,0|2,0:0|0:0,0:0:0
264,144,72982,2,0,B|168:144,1,75,0|8,0:0|0:0,0:0:0
264,240,73307,2,0,B|352:240,1,75,0|2,0:0|0:0,0:0:0
416,96,73631,5,0,0:0:0
448,192,73793,2,0,B|472:232|448:272,2,75,8|0|2,0:0|0:0|0:0,0:0:0
336,288,74280,1,0,0:0:0
176,168,74442,1,8,0:0:0
336,168,74604,1,0,0:0:0
176,288,74766,1,2,0:0:0
256,104,74928,2,0,B|256:184,1,75,0|8,0:0|0:0,0:0:0
256,336,75253,2,0,B|256:256,1,75,0|2,0:0|0:0,0:0:0
256,261,75577,1,0,0:0:0
128,136,75739,6,0,B|88:160|80:192,1,75,8|0,0:0|0:0,0:0:0
384,248,76063,2,0,B|424:224|432:192,1,75,2|0,0:0|0:0,0:0:0
440,96,76388,1,8,0:0:0
344,160,76550,1,0,0:0:0
288,72,76712,2,0,B|248:88|224:120,1,75,2|0,0:0|0:0,0:0:0
144,200,77036,1,8,0:0:0
136,312,77199,1,0,0:0:0
240,344,77361,1,2,0:0:0
272,336,77442,1,0,0:0:0
304,320,77523,1,0,0:0:0
328,296,77604,1,0,0:0:0
344,264,77685,2,0,B|368:208|360:104,1,150,4|2,0:0|0:0,0:0:0
144,64,78172,6,0,B|96:96|80:120,1,75,0|8,0:0|0:0,0:0:0
104,288,78496,1,0,0:0:0
176,176,78658,1,2,0:0:0
80,200,78820,1,0,0:0:0
200,272,78982,1,8,0:0:0
304,240,79144,2,0,B|336:216|352:168,1,75,0|2,0:0|0:0,0:0:0
296,96,79469,2,0,B|264:120|248:168,1,75,0|8,0:0|0:0,0:0:0
368,312,79793,1,0,0:0:0
368,312,79874,1,0,0:0:0
368,312,79955,1,2,0:0:0
256,312,80117,6,0,B|160:312,1,75,0|8,0:0|0:0,0:0:0
88,312,80442,1,0,0:0:0
88,224,80604,2,0,B|184:224,1,75,2|0,0:0|0:0,0:0:0
232,152,80928,1,8,0:0:0
328,152,81090,1,0,0:0:0
144,152,81253,1,2,0:0:0
416,152,81415,1,0,0:0:0
416,152,81496,1,0,0:0:0
416,152,81577,1,8,0:0:0
296,48,81739,6,0,B|208:48,1,75,0|2,0:0|0:0,0:0:0
216,312,82063,2,0,B|312:312,1,75,0|8,0:0|0:0,0:0:0
291,312,82307,1,0,0:0:0
291,312,82388,1,0,0:0:0
291,312,82469,1,0,0:0:0
291,312,82550,1,2,0:0:0
136,72,82712,6,0,B|96:112|96:152,1,75,0|0,0:0|0:0,0:0:0
208,128,83036,1,0,0:0:0
144,208,83199,1,2,0:0:0
240,208,83361,2,0,B|328:208,1,75,0|8,0:0|0:0,0:0:0
387,104,83685,2,0,B|312:104,1,75,0|2,0:0|0:0,0:0:0
312,104,84009,1,0,0:0:0
104,152,84172,6,0,B|80:192|112:248,1,75,8|0,0:0|0:0,0:0:0
392,232,84496,2,0,B|416:192|389:157,1,75,2|0,0:0|0:0,0:0:0
320,88,84820,1,8,0:0:0
200,160,84982,1,0,0:0:0
316,216,85144,1,2,0:0:0
200,280,85307,1,0,0:0:0
316,344,85469,2,0,B|412:328|436:232,1,150,8|2,0:0|0:0,0:0:0
416,128,85955,1,0,0:0:0
312,56,86117,1,8,0:0:0
184,64,86280,1,0,0:0:0
72,64,86442,5,2,0:0:0
72,96,86523,1,0,0:0:0
72,128,86604,1,0,0:0:0
72,160,86685,1,0,0:0:0
72,192,86766,2,0,B|64:256|120:296,1,112.499996647239,4|8,0:0|0:0,0:0:0
440,200,87415,2,0,B|448:136|392:96,1,112.499996647239,2|8,0:0|0:0,0:0:0
368,96,87820,1,8,0:0:0
336,96,87901,1,8,0:0:0
304,96,87982,1,8,0:0:0
272,96,88063,1,4,0:0:0
256,192,88144,12,4,89685,0:0:0
256,88,97144,5,4,0:0:0
194,276,97307,1,4,0:0:0
354,159,97469,1,4,0:0:0
157,159,97631,1,4,0:0:0
317,276,97793,1,4,0:0:0
256,88,97955,1,0,0:0:0
256,88,98036,1,0,0:0:0
256,88,98117,2,0,B|256:208,1,112.499996647239,0|4,0:0|0:0,0:0:0
56,64,98766,5,2,0:0:0
32,160,98928,1,0,0:0:0
136,160,99090,2,0,B|136:216|72:240,1,75
32,288,99415,1,2,0:0:0
120,320,99577,1,0,0:0:0
216,312,99739,2,0,B|288:280|328:208,1,150,0|2,0:0|0:0,0:0:0
304,80,100226,5,0,0:0:0
184,200,100388,1,0,0:0:0
352,160,100550,1,0,0:0:0
208,80,100712,1,2,0:0:0
288,240,100874,1,0,0:0:0
144,120,101036,2,0,B|72:160|64:256,1,150,0|2,0:0|0:0,0:0:0
44,344,101523,5,0,0:0:0
44,344,101604,1,0,0:0:0
44,344,101685,1,0,0:0:0
144,312,101847,1,0,0:0:0
256,312,102009,1,2,0:0:0
256,312,102090,1,0,0:0:0
256,312,102172,1,0,0:0:0
344,200,102334,2,0,B|296:208|296:260,1,75
404,304,102658,2,0,B|448:296|460:232,1,75,2|0,0:0|0:0,0:0:0
490,140,102982,5,0,0:0:0
471,111,103063,1,0,0:0:0
449,84,103144,1,0,0:0:0
419,68,103226,1,0,0:0:0
384,64,103307,2,0,B|224:64,1,150,2|4,0:0|0:0,0:0:0
64,192,103955,5,2,0:0:0
224,192,104117,1,0,0:0:0
144,192,104280,2,0,B|144:112,1,75
144,192,104604,2,0,B|144:272,1,75,2|0,0:0|0:0,0:0:0
240,312,104928,2,0,B|336:312,1,75
416,256,105253,2,0,B|416:168,1,75,2|0,0:0|0:0,0:0:0
344,112,105577,1,0,0:0:0
280,184,105739,1,0,0:0:0
208,112,105901,1,2,0:0:0
152,184,106063,1,0,0:0:0
88,112,106226,2,0,B|32:176|64:272,1,150,0|2,0:0|0:0,0:0:0
58,252,106712,1,0,0:0:0
360,72,106874,6,0,B|280:72,1,75
288,304,107199,2,0,B|384:304,1,75,2|0,0:0|0:0,0:0:0
256,192,107523,12,4,108496,0:0:0
120,88,108820,6,0,B|96:160|120:248,1,150,8|2,0:0|0:0,0:0:0
208,176,109307,1,0,0:0:0
355,96,109469,2,0,B|280:96,1,75
285,192,109793,2,0,B|360:192,1,75,2|0,0:0|0:0,0:0:0
363,288,110117,2,0,B|208:288,1,150,0|2,0:0|0:0,0:0:0
213,288,110604,1,0,0:0:0
104,288,110766,5,0,0:0:0
28,204,110928,1,0,0:0:0
136,160,111090,1,2,0:0:0
40,104,111253,1,0,0:0:0
144,64,111415,2,0,B|224:48|312:56,1,150,0|2,0:0|0:0,0:0:0
293,54,111901,1,0,0:0:0
368,320,112063,2,0,B|288:336|200:328,1,150,0|2,0:0|0:0,0:0:0
218,329,112550,1,0,0:0:0
160,192,112712,5,0,0:0:0
160,192,112793,1,0,0:0:0
160,192,112874,1,0,0:0:0
352,192,113036,1,2,0:0:0
352,192,113117,1,0,0:0:0
352,192,113199,1,0,0:0:0
256,104,113361,2,0,B|256:280,1,150,0|2,0:0|0:0,0:0:0
256,254,113766,1,0,0:0:0
256,254,113847,1,0,0:0:0
256,254,113928,1,0,0:0:0
256,254,114009,1,4,0:0:0
104,64,114334,6,0,B|64:80|40:112,1,75,2|0,0:0|0:0,0:0:0
43,107,114658,1,0,0:0:0
24,208,114820,2,0,B|40:256|64:272,1,75,0|2,0:0|0:0,0:0:0
62,270,115144,1,0,0:0:0
152,288,115307,2,0,B|224:256|272:192,1,150,0|2,0:0|0:0,0:0:0
376,104,115793,1,0,0:0:0
376,104,115874,1,0,0:0:0
376,104,115955,2,0,B|416:128|408:192,1,75
328,256,116280,1,2,0:0:0
416,256,116442,1,0,0:0:0
328,256,116604,2,0,B|240:256,1,75
184,128,116928,5,2,0:0:0
96,128,117090,1,0,0:0:0
184,128,117253,2,0,B|272:128,1,75
331,344,117577,2,0,B|256:344,1,75,2|0,0:0|0:0,0:0:0
181,40,117901,2,0,B|256:40,1,75
320,192,118226,1,2,0:0:0
192,192,118388,1,0,0:0:0
256,40,118550,5,0,0:0:0
256,72,118631,1,0,0:0:0
256,104,118712,1,0,0:0:0
256,136,118793,1,0,0:0:0
256,168,118874,1,2,0:0:0
256,200,118955,1,0,0:0:0
256,232,119036,1,0,0:0:0
256,264,119117,1,0,0:0:0
256,296,119199,6,0,B|256:384,1,75,4|0,0:0|0:0,0:0:0
256,371,119685,1,8,0:0:0
256,371,119847,1,8,0:0:0
432,56,120172,1,2,0:0:0
432,128,120496,2,0,B|440:148|440:148|424:156|424:156|440:164|440:164|424:172|424:172|440:180|440:180|424:188|424:188|440:196|440:196|424:204|424:204|440:212|440:212|428:219|428:219|428:358,1,300,8|4,0:0|0:0,0:0:0
128,80,121469,1,8,0:0:0
48,144,121631,1,8,0:0:0
128,200,121793,2,0,B|128:288,1,75,0|2,0:0|0:0,0:0:0
128,275,122280,1,0,0:0:0
128,275,122442,1,2,0:0:0
256,280,122766,2,0,B|256:200,1,75,2|0,0:0|0:0,0:0:0
256,205,123253,1,8,0:0:0
352,208,123415,2,0,B|352:296,1,75,0|2,0:0|0:0,0:0:0
464,80,124063,5,2,0:0:0
464,80,124144,1,0,0:0:0
464,80,124226,1,0,0:0:0
464,80,124307,1,0,0:0:0
464,80,124388,2,0,B|464:168,1,75,4|2,0:0|0:0,0:0:0
464,232,124874,1,8,0:0:0
464,312,125036,2,0,B|384:312,1,75,0|2,0:0|0:0,0:0:0
296,312,125685,2,0,B|288:292|288:292|304:284|304:284|288:276|288:276|304:268|304:268|288:260|288:260|304:252|304:252|288:244|288:244|304:236|304:236|288:228|288:228|300:221|300:221|300:82,1,300,8|4,0:0|0:0,0:0:0
88,96,126658,5,2,0:0:0
88,96,126739,1,0,0:0:0
88,96,126820,1,0,0:0:0
88,96,126901,1,0,0:0:0
88,96,126982,2,0,B|88:216,1,112.499996647239,0|2,0:0|0:0,0:0:0
88,208,127469,1,8,0:0:0
424,208,127631,2,0,B|424:96,1,112.499996647239,2|8,0:0|0:0,0:0:0
424,96,128117,1,0,0:0:0
256,112,128280,5,4,0:0:0
256,352,128442,1,4,0:0:0
136,240,128604,1,4,0:0:0
376,240,128766,1,4,0:0:0
256,240,128928,1,4,0:0:0
256,32,129253,5,0,0:0:0
256,64,129334,1,0,0:0:0
256,96,129415,1,0,0:0:0
256,128,129496,1,0,0:0:0
256,160,129577,1,2,0:0:0
224,248,129739,6,0,B|312:248,1,75,0|8,0:0|0:0,0:0:0
384,224,130063,1,0,0:0:0
408,128,130226,2,0,B|472:184|480:272,1,150,2|8,0:0|0:0,0:0:0
400,328,130712,1,0,0:0:0
288,328,130874,2,0,B|128:328,1,150,2|8,0:0|0:0,0:0:0
136,328,131523,1,2,0:0:0
136,224,131685,1,0,0:0:0
136,120,131847,1,8,0:0:0
240,120,132009,5,0,0:0:0
240,120,132090,1,0,0:0:0
240,120,132172,1,2,0:0:0
240,224,132334,1,0,0:0:0
344,224,132496,1,8,0:0:0
240,224,132658,1,0,0:0:0
424,152,132820,2,0,B|480:240|408:320,1,150,2|8,0:0|0:0,0:0:0
304,312,133307,6,0,B|224:312,1,75,0|2,0:0|0:0,0:0:0
144,312,133631,1,0,0:0:0
80,232,133793,2,0,B|80:152,1,75,8|0,0:0|0:0,0:0:0
144,80,134117,2,0,B|224:80,1,75,2|0,0:0|0:0,0:0:0
336,80,134442,1,8,0:0:0
336,80,134523,1,0,0:0:0
336,80,134604,1,0,0:0:0
336,80,134685,1,0,0:0:0
336,80,134766,2,0,B|336:240,1,150,4|8,0:0|0:0,0:0:0
256,160,135253,5,0,0:0:0
168,80,135415,2,0,B|168:240,1,150,2|8,0:0|0:0,0:0:0
96,312,135901,1,0,0:0:0
96,312,135982,1,0,0:0:0
96,312,136063,2,0,B|200:312,1,75,2|0,0:0|0:0,0:0:0
264,312,136388,1,8,0:0:0
360,312,136550,2,0,B|400:280|408:248,1,75,0|2,0:0|0:0,0:0:0
416,160,136874,1,0,0:0:0
416,160,136955,1,0,0:0:0
416,160,137036,2,0,B|400:112|368:96,1,75,8|0,0:0|0:0,0:0:0
80,227,137361,6,0,B|80:152,1,75,2|0,0:0|0:0,0:0:0
432,152,137685,2,0,B|432:227,1,75,8|0,0:0|0:0,0:0:0
216,56,138009,2,0,B|296:56,1,75,2|0,0:0|0:0,0:0:0
296,328,138334,2,0,B|216:328,1,75,8|0,0:0|0:0,0:0:0
320,168,138658,2,0,B|320:256,1,75,2|0,0:0|0:0,0:0:0
192,243,138982,2,0,B|192:168,1,75,8|0,0:0|0:0,0:0:0
400,192,139307,5,4,0:0:0
120,192,139469,1,4,0:0:0
256,48,139631,1,8,0:0:0
256,80,139712,1,0,0:0:0
256,112,139793,1,0,0:0:0
256,144,139874,1,0,0:0:0
256,176,139955,2,0,B|256:336,1,150,4|8,0:0|0:0,0:0:0
256,326,140442,1,0,0:0:0
128,344,140604,6,0,B|68:292|80:208,1,150,2|8,0:0|0:0,0:0:0
104,112,141090,1,0,0:0:0
192,48,141253,2,0,B|280:48,1,75,2|0,0:0|0:0,0:0:0
328,152,141577,2,0,B|253:152,1,75,8|0,0:0|0:0,0:0:0
336,256,141901,2,0,B|432:256,1,75,2|0,0:0|0:0,0:0:0
456,64,142226,5,8,0:0:0
456,64,142307,1,0,0:0:0
456,64,142388,2,0,B|456:144,1,75,0|2,0:0|0:0,0:0:0
456,232,142712,1,0,0:0:0
360,232,142874,1,8,0:0:0
416,320,143036,1,0,0:0:0
328,320,143199,6,0,B|176:320,1,150,2|8,0:0|0:0,0:0:0
144,320,143604,1,0,0:0:0
120,296,143685,1,0,0:0:0
104,264,143766,1,0,0:0:0
104,232,143847,1,2,0:0:0
464,64,144172,5,4,0:0:0
48,288,144496,1,4,0:0:0
256,80,144820,5,8,0:0:0
256,112,144901,1,0,0:0:0
256,144,144982,1,0,0:0:0
256,176,145063,1,0,0:0:0
256,208,145145,5,2,0:0:0
352,208,145307,1,0,0:0:0
328,288,145469,2,0,B|296:312|256:320,1,75,8|0,0:0|0:0,0:0:0
176,304,145793,2,0,B|96:264|88:160,1,150,2|8,0:0|0:0,0:0:0
91,187,146280,1,0,0:0:0
296,56,146442,6,0,B|200:56,1,75,2|0,0:0|0:0,0:0:0
221,192,146766,2,0,B|296:192,1,75
296,328,147090,2,0,B|221:328,1,75,2|0,0:0|0:0,0:0:0
448,48,147415,1,8,0:0:0
448,128,147577,1,0,0:0:0
368,128,147739,2,0,B|356:116|356:116|348:138|348:138|334:116|334:116|327:138|327:138|314:117|314:117|305:137|305:137|295:116|295:116|282:138|282:138|270:115|270:115|260:138|260:138|251:114|251:114|242:137|242:137|232:115|232:115|224:134,1,300,2|4,0:0|0:0,0:0:0
219,132,148469,5,0,0:0:0
206,146,148550,1,0,0:0:0
192,160,148631,1,0,0:0:0
184,176,148712,1,2,0:0:0
184,192,148793,1,0,0:0:0
184,208,148874,1,0,0:0:0
184,224,148955,1,0,0:0:0
184,240,149036,2,0,B|184:320,1,75
288,320,149685,6,0,B|288:232,1,75,0|8,0:0|0:0,0:0:0
288,224,150090,1,0,0:0:0
288,208,150172,1,0,0:0:0
288,192,150253,1,0,0:0:0
288,176,150334,1,4,0:0:0
256,192,150496,12,4,152928,0:0:0
168,140,160712,6,0,B|168:216,1,75,2|0,0:0|0:0,0:0:0
268,192,161361,1,2,0:0:0
268,192,161685,2,0,B|352:192,1,75,0|2,0:0|0:0,0:0:0
452,224,162334,2,0,B|456:272|400:280,1,75,0|2,0:0|0:0,0:0:0
316,276,162982,2,0,B|272:280|256:316,1,75,0|2,0:0|0:0,0:0:0
128,308,163631,5,0,0:0:0
128,308,163955,2,0,B|128:224,1,75,2|0,0:0|0:0,0:0:0
112,108,164604,2,0,B|128:72|168:56,1,75,2|0,0:0|0:0,0:0:0
228,40,165090,1,0,0:0:0
276,84,165253,2,0,B|276:168,1,75,2|0,0:0|0:0,0:0:0
176,200,165901,5,2,0:0:0
260,280,166226,2,0,B|260:240,1,37.5
336,244,166550,2,0,B|336:280,1,37.5,2|0,0:0|0:0,0:0:0
408,288,166874,2,0,B|408:200,1,75,0|2,0:0|0:0,0:0:0
412,116,167523,1,0,0:0:0
384,56,167685,1,0,0:0:0
320,36,167847,2,0,B|280:28|240:48,1,75,2|0,0:0|0:0,0:0:0
256,148,168496,6,0,B|256:232,1,75,2|0,0:0|0:0,0:0:0
256,308,168982,1,0,0:0:0
256,308,169063,1,0,0:0:0
256,308,169144,2,0,B|212:320|180:288,1,75,2|0,0:0|0:0,0:0:0
184,180,169793,1,4,0:0:0
256,64,170117,2,0,B|264:128|328:156,1,112.5,0|4,0:0|0:0,0:0:0
416,96,171090,6,0,B|465:178|407:260,1,150
352,168,171739,2,0,B|335:153|335:153|322:176|322:176|308:153|308:153|296:176|296:176|285:152|285:152|273:176|273:176|265:168,1,150,8|0,0:0|0:0,0:0:0
184,168,172226,1,0,0:0:0
96,168,172388,1,2,0:0:0
96,200,172469,1,0,0:0:0
96,232,172550,2,0,B|96:320,1,75,0|0,0:0|0:0,0:0:0
168,356,172874,1,0,0:0:0
240,304,173036,2,0,B|400:304,1,150,8|0,0:0|0:0,0:0:0
456,232,173523,1,8,0:0:0
384,160,173685,2,0,B|232:160,1,150,2|0,0:0|0:0,0:0:0
72,160,174334,5,8,0:0:0
72,160,174415,1,0,0:0:0
72,160,174496,2,0,B|72:320,1,150
176,312,174982,2,0,B|176:224,1,75,8|0,0:0|0:0,0:0:0
264,152,175307,2,0,B|264:256,1,75,8|0,0:0|0:0,0:0:0
352,312,175631,2,0,B|352:208,1,75,8|0,0:0|0:0,0:0:0
184,64,176280,6,0,B|256:40|368:72,1,150,2|0,0:0|0:0,0:0:0
256,144,176766,1,0,0:0:0
256,144,176928,2,0,B|256:304,1,150,8|0,0:0|0:0,0:0:0
256,294,177415,1,0,0:0:0
160,288,177577,2,0,B|88:248|64:176,1,150,2|0,0:0|0:0,0:0:0
64,177,177982,1,0,0:0:0
64,177,178063,1,0,0:0:0
64,80,178226,2,0,B|144:48|216:80,1,150,8|0,0:0|0:0,0:0:0
320,120,178712,1,0,0:0:0
416,192,178874,2,0,B|408:272|336:312,1,150,2|0,0:0|0:0,0:0:0
96,192,179523,2,0,B|104:112|176:72,1,150,8|0,0:0|0:0,0:0:0
256,192,180172,12,4,181469,0:0:0
88,40,188928,5,0,0:0:0
88,72,189009,1,0,0:0:0
88,104,189090,1,0,0:0:0
88,136,189172,1,0,0:0:0
88,168,189253,1,4,0:0:0
88,248,189415,1,4,0:0:0
88,328,189577,1,4,0:0:0
424,224,189901,5,4,0:0:0
424,144,190063,1,4,0:0:0
424,64,190226,1,4,0:0:0
184,64,190550,5,2,0:0:0
336,248,190712,1,0,0:0:0
328,64,190874,1,8,0:0:0
176,248,191036,1,0,0:0:0
376,160,191199,1,2,0:0:0
136,160,191361,1,0,0:0:0
256,40,191523,1,8,0:0:0
256,72,191604,1,0,0:0:0
256,104,191685,1,0,0:0:0
256,136,191766,1,0,0:0:0
256,168,191847,2,0,B|256:252,1,75,2|4,0:0|0:0,0:0:0
72,128,192496,5,2,0:0:0
72,128,192577,1,0,0:0:0
72,128,192658,2,0,B|40:176|48:208,1,75,0|8,0:0|0:0,0:0:0
128,224,192982,2,0,B|168:200|208:224,1,75,0|2,0:0|0:0,0:0:0
176,312,193307,2,0,B|224:328|264:304,1,75,0|8,0:0|0:0,0:0:0
328,232,193631,1,0,0:0:0
416,304,193793,1,2,0:0:0
480,232,193955,1,0,0:0:0
480,232,194036,1,0,0:0:0
480,232,194117,2,0,B|480:72,1,150,8|2,0:0|0:0,0:0:0
480,82,194604,1,0,0:0:0
384,144,194766,6,0,B|384:248,1,75,8|0,0:0|0:0,0:0:0
272,216,195090,2,0,B|272:128,1,75,2|0,0:0|0:0,0:0:0
160,144,195415,2,0,B|160:232,1,75,8|0,0:0|0:0,0:0:0
160,48,195739,1,2,0:0:0
160,48,195820,1,0,0:0:0
160,48,195901,1,0,0:0:0
352,48,196063,1,8,0:0:0
352,48,196145,1,0,0:0:0
352,48,196226,1,0,0:0:0
256,112,196388,5,2,0:0:0
256,144,196469,1,0,0:0:0
256,176,196550,1,0,0:0:0
256,208,196631,1,0,0:0:0
256,240,196712,1,8,0:0:0
80,152,197036,6,0,B|80:248,1,75,2|0,0:0|0:0,0:0:0
432,224,197361,2,0,B|432:149,1,75,8|0,0:0|0:0,0:0:0
256,88,197685,2,0,B|256:264,1,150,2|8,0:0|0:0,0:0:0
256,238,198172,1,0,0:0:0
296,32,198334,2,0,B|256:8|200:40,1,75,2|0,0:0|0:0,0:0:0
96,264,198658,2,0,B|104:312|144:328,1,75,8|0,0:0|0:0,0:0:0
376,324,198982,2,0,B|408:312|416:264,1,75,2|0,0:0|0:0,0:0:0
416,88,199307,1,8,0:0:0
416,88,199388,1,0,0:0:0
416,88,199469,1,0,0:0:0
424,184,199631,6,0,B|352:224|272:192,1,150,2|8,0:0|0:0,0:0:0
200,144,200117,1,0,0:0:0
160,56,200280,2,0,B|96:120|88:208,1,150,2|8,0:0|0:0,0:0:0
336,53,200928,1,2,0:0:0
440,93,201090,1,0,0:0:0
336,149,201253,1,8,0:0:0
440,189,201415,1,0,0:0:0
336,245,201577,1,2,0:0:0
433,281,201739,1,0,0:0:0
337,336,201901,5,8,0:0:0
337,336,201982,1,0,0:0:0
337,336,202063,1,0,0:0:0
337,336,202145,1,0,0:0:0
336,336,202226,2,0,B|176:336,1,150,4|8,0:0|0:0,0:0:0
184,200,202712,1,0,0:0:0
176,48,202874,6,0,B|336:48,1,150,2|8,0:0|0:0,0:0:0
256,128,203361,1,0,0:0:0
144,200,203523,2,0,B|232:200,1,75,2|0,0:0|0:0,0:0:0
368,200,203847,2,0,B|272:200,1,75,8|0,0:0|0:0,0:0:0
256,296,204172,1,2,0:0:0
80,56,204496,1,8,0:0:0
80,56,204577,1,0,0:0:0
80,56,204658,1,0,0:0:0
80,144,204820,6,0,B|72:240|152:272,1,150,2|8,0:0|0:0,0:0:0
256,192,205307,1,0,0:0:0
432,240,205469,2,0,B|440:144|360:112,1,150,2|8,0:0|0:0,0:0:0
368,115,205874,1,0,0:0:0
368,115,205955,1,0,0:0:0
192,56,206117,2,0,B|192:160,1,75,2|0,0:0|0:0,0:0:0
320,251,206442,2,0,B|320:176,1,75,8|0,0:0|0:0,0:0:0
192,272,206766,2,0,B|192:352,1,75,2|0,0:0|0:0,0:0:0
192,347,207009,1,0,0:0:0
192,347,207090,1,8,0:0:0
464,176,207415,5,4,0:0:0
48,176,207739,1,4,0:0:0
256,96,208063,2,0,B|256:248,1,150,2|8,0:0|0:0,0:0:0
256,246,208550,2,0,B|256:336,1,75,0|2,0:0|0:0,0:0:0
216,48,208874,2,0,B|304:48,1,75,0|8,0:0|0:0,0:0:0
296,336,209199,2,0,B|208:336,1,75,2|0,0:0|0:0,0:0:0
256,136,209523,1,0,0:0:0
168,136,209685,1,8,0:0:0
336,136,209847,1,0,0:0:0
256,208,210009,2,0,B|256:364,1,150,2|8,0:0|0:0,0:0:0
96,228,210496,5,0,0:0:0
96,228,210577,1,0,0:0:0
96,228,210658,2,0,B|96:144,1,75
124,84,210982,1,2,0:0:0
148,56,211063,1,0,0:0:0
180,36,211144,1,0,0:0:0
216,28,211225,1,0,0:0:0
252,24,211307,2,0,B|340:28|388:88,1,150,4|8,0:0|0:0,0:0:0
416,156,211793,5,0,0:0:0
416,156,211874,1,0,0:0:0
416,156,211955,2,0,B|416:240,1,75
312,300,212280,1,2,0:0:0
284,308,212361,1,0,0:0:0
256,312,212442,1,0,0:0:0
228,308,212523,1,0,0:0:0
200,300,212604,1,4,0:0:0
256,192,212685,12,4,215199,0:0:0
