osu file format v9

[General]
AudioFilename: paraoka - mani mani.mp3
AudioLeadIn: 0
PreviewTime: 67307
Countdown: 0
SampleSet: Soft
StackLeniency: 0.7
Mode: 0
LetterboxInBreaks: 1

[Editor]
Bookmarks: 128577
DistanceSpacing: 1.5
BeatDivisor: 4
GridSize: 4

[Metadata]
Title:Manima ni
Artist:paraoka
Creator:Goisuke
Version:Hard
Source:
Tags:haru*nya must die

[Difficulty]
HPDrainRate:6
CircleSize:4
OverallDifficulty:6
ApproachRate:7
SliderMultiplier:1.3
SliderTickRate:1

[Events]
//Background and Video events
0,0,"19170842.jpg"
//Break Periods
2,17561,24893
2,89885,96244
2,153128,159812
2,181669,188353
//Storyboard Layer 0 (Background)
//Storyboard Layer 1 (Fail)
//Storyboard Layer 2 (Pass)
//Storyboard Layer 3 (Foreground)
//Storyboard Sound Samples
//Background Colour Transformations
3,100,163,162,255

[TimingPoints]
1145,324.324324324324,4,2,1,70,1,0
13631,-100,4,2,1,70,0,0
34712,-100,4,2,2,50,0,0
35819,-100,4,2,1,70,0,0
40604,-133.333333333333,4,2,1,65,0,0
41415,-100,4,2,1,70,0,0
56658,-200,4,2,1,60,0,0
58037,-100,4,2,1,70,0,0
59010,-200,4,2,1,60,0,0
63226,-100,4,2,1,70,0,0
64191,-133.333333333333,4,2,1,65,0,0
65821,-133.333333333333,4,2,2,65,0,0
67307,-100,4,2,1,75,0,1
86766,-133.333333333333,4,2,1,65,0,0
98577,-100,4,2,1,70,0,0
119361,-200,4,2,1,60,0,0
120307,-100,4,2,1,70,0,0
121279,-200,4,2,1,65,0,0
125496,-100,4,2,1,70,0,0
126469,-133.333333333333,4,2,1,65,0,0
128117,-133.333333333333,4,2,2,50,0,0
129090,-133.333333333333,4,2,2,65,0,0
129577,-100,4,2,1,75,0,1
148388,-200,4,2,1,65,0,1
150334,-200,4,2,1,65,0,0
170928,-100,4,2,1,65,0,0
191442,-200,4,2,1,65,0,0
192172,-100,4,2,1,65,0,1
211307,-100,4,2,1,65,0,0

[Colours]
Combo1 : 255,255,128
Combo2 : 255,128,255
Combo3 : 128,255,255
Combo4 : 255,255,255

[HitObjects]
328,168,4874,1,0
328,168,5036,2,0,B|200:168,1,130,2|0
80,168,5685,2,0,B|80:248|160:272,1,130,2|0
148,267,6172,1,0
228,268,6334,1,2
380,268,6658,1,0
296,140,6982,1,2
72,169,7307,6,0,B|72:104,2,65,0|0|2
160,168,7955,2,0,B|288:168,1,130,0|2
280,84,8604,1,0
328,64,8766,1,0
384,72,8928,1,2
472,168,9253,1,8
384,264,9577,1,2
64,239,10226,6,0,B|64:304,2,65,2|0|0
64,128,10874,2,0,B|112:72|184:72,1,130,2|0
176,132,11361,1,0
176,192,11523,1,2
288,192,11847,1,8
232,280,12172,1,2
384,80,12496,1,0
384,80,12658,1,0
384,80,12820,2,0,B|384:288,1,195,2|0
384,275,13469,1,0
292,292,13793,6,0,B|160:292,1,130,8|2
108,216,14442,1,0
160,136,14766,2,0,B|288:136,1,130,8|0
256,192,15415,12,4,17361
384,96,25793,5,4
384,192,26117,2,0,B|384:320,1,130,0|2
280,320,26766,1,0
280,208,27090,1,2
176,208,27415,2,0,B|48:208,1,130,0|2
48,104,28063,1,0
152,104,28388,1,2
272,56,28712,6,0,B|344:80|344:160,1,130,0|2
232,168,29361,2,0,B|224:248|312:272,1,130,0|2
352,192,30009,1,0
464,192,30334,1,2
464,272,30496,1,0
464,272,30577,1,0
464,272,30658,1,0
384,272,30820,1,0
384,272,30901,1,0
384,272,30982,1,4
232,304,31307,6,0,B|160:296|128:216,1,130,0|2
136,120,31955,1,0
256,120,32280,1,2
136,120,32604,1,0
256,120,32928,1,2
384,120,33253,1,0
384,232,33577,2,0,B|240:232,1,130,2|0
254,232,34226,1,2
136,232,34550,1,0
144,80,34874,5,4
208,60,35036,1,4
248,116,35199,1,4
312,104,35361,1,4
344,164,35523,1,4
232,264,35847,2,0,B|160:232|168:136,1,130,8|4
88,36,36496,5,0
60,100,36658,1,0
56,168,36820,2,0,B|48:252|112:280,1,130,2|0
164,168,37469,2,0,B|228:192|228:284,1,130
292,280,37955,1,0
348,244,38117,1,0
380,188,38280,1,0
348,128,38442,1,0
304,76,38604,1,0
240,80,38766,6,0,B|104:80,1,130,2|0
112,200,39415,2,0,B|242:200,1,130,2|0
240,320,40063,2,0,B|110:320,1,130,2|0
16,320,40712,6,0,B|16:216,2,97.4999970942737
224,96,41685,6,0,B|304:96,2,65,2|0|0
120,120,42334,2,0,B|80:176|88:256,1,130,2|0
176,288,42982,1,2
256,224,43307,1,0
336,288,43631,1,2
400,216,43955,1,0
336,136,44280,2,0,B|288:88|200:112,1,130,2|0
176,248,44928,2,0,B|224:296|312:272,1,130,2|0
216,56,45577,5,2
216,56,45739,2,0,B|288:56,1,65,0|8
280,128,46063,2,0,B|208:128,1,65,0|2
216,200,46388,2,0,B|288:200,1,65,0|8
80,80,46874,5,2
56,136,47036,1,0
32,192,47199,1,0
144,168,47523,1,2
160,80,47847,2,0,B|216:40|312:56,1,130,0|2
344,56,48334,5,0
400,80,48496,1,0
432,128,48658,1,0
432,192,48820,1,2
400,240,48982,1,0
344,256,49144,2,0,B|200:256,1,130,0|2
72,252,49793,2,0,B|72:122,1,130,0|2
176,124,50442,2,0,B|176:254,1,130,0|2
280,252,51090,2,0,B|280:122,1,130,0|2
220,24,51739,1,0
128,80,52063,5,2
72,96,52226,1,0
32,136,52388,1,0
52,240,52712,1,2
128,312,53036,2,0,B|208:312|256:256,1,130,0|2
246,266,53685,1,0
328,184,54009,6,0,B|328:264,2,65,2|8|0
184,192,54658,2,0,B|184:112,2,65,2|8|0
92,80,55307,1,2
92,80,55469,1,0
92,80,55631,1,0
216,80,55955,2,0,B|296:80,1,65,2|0
336,80,56280,2,0,B|336:168,1,65
336,200,56604,1,2
400,296,56928,6,0,B|400:224,1,65,0|2
400,231,57415,1,0
400,231,57577,1,0
400,136,57901,1,8
296,136,58226,2,0,B|280:112|280:112|264:136|264:136|248:112|248:112|232:136|232:136|216:112|216:112|200:136|200:136|184:112|184:112|168:136|168:136|152:112|152:112|136:136|136:136,1,260,0|4
56,192,59199,5,0
28,252,59361,1,0
60,312,59523,2,0,B|124:312,1,65,8|0
176,272,60009,1,0
240,272,60172,1,2
312,336,60496,1,0
408,296,60820,1,8
408,200,61144,2,0,B|264:200,1,130,0|2
228,204,61955,1,0
176,200,62117,6,0,B|112:168|128:80,1,130,0|8
126,92,63090,1,0
240,88,63415,2,0,B|256:64|256:64|272:88|272:88|288:64|288:64|304:88|304:88|320:64|320:64|336:88|336:88|352:64|352:64|368:88|368:88|384:64|384:64|400:88|400:88,1,260,0|4
384,208,64388,5,0
280,208,64550,1,0
280,208,64631,1,0
280,208,64712,2,0,B|176:208,1,97.4999970942737,2|0
182,208,65199,1,0
184,296,65361,2,0,B|280:296,1,97.4999970942737,8|0
281,296,65847,1,0
368,296,66009,5,4
368,232,66172,1,4
368,168,66334,1,4
368,104,66496,1,4
368,40,66658,1,4
280,128,66982,2,0,B|280:104,4,24.3749992735684
280,256,67631,5,2
208,304,67793,1,0
208,216,67955,2,0,B|208:80,1,130,8|2
208,88,68442,1,0
320,88,68604,2,0,B|384:88,1,65,8|0
384,176,68928,2,0,B|304:176,1,65,2|0
320,272,69253,1,8
96,128,69577,5,2
96,208,69739,1,0
96,208,69820,1,0
96,208,69901,1,8
96,288,70063,1,0
176,288,70226,2,0,B|248:288|312:288,1,130,2|8
264,216,70712,1,0
288,136,70874,1,2
344,192,71036,1,0
400,256,71199,6,0,B|440:224|432:184,1,65,8|0
433,202,71523,2,0,B|400:160|424:120,1,65,2|0
415,141,71847,2,0,B|440:112|424:72,1,65,8|0
352,48,72172,2,0,B|320:56,4,32.5,2|0|0|0|8
140,104,72820,5,2
88,156,72982,1,0
148,192,73144,1,8
96,236,73307,1,0
152,280,73469,2,0,B|224:280,1,65,2|0
336,280,73793,5,8
144,152,74117,1,2
352,72,74442,1,8
256,152,74766,1,2
256,152,74847,1,0
256,152,74928,1,0
352,152,75090,6,0,B|488:152,1,130,8|2
160,232,75739,2,0,B|24:232,1,130,8|2
256,344,76388,2,0,B|256:216,2,130
256,84,77361,5,0
256,84,77523,1,0
256,84,77685,2,0,B|256:228,1,130,2|8
240,376,78334,1,2
212,308,78496,1,0
152,348,78658,1,8
140,276,78820,2,0,B|80:248,1,65,0|2
120,188,79144,1,0
68,136,79307,1,8
128,96,79469,2,0,B|160:96|200:96,1,65,0|2
296,168,79955,5,8
336,96,80117,2,0,B|360:72|392:64,1,65,0|2
448,112,80442,1,0
464,184,80604,1,8
468,260,80766,1,0
392,276,80928,2,0,B|248:276,1,130,2|8
262,276,81415,1,0
184,280,81577,6,0,B|144:248|152:208,1,65,2|0
150,226,81901,2,0,B|183:183|159:143,1,65,8|0
168,165,82226,2,0,B|80:160|80:64,1,130,0|4
192,72,82874,6,0,B|328:72,1,130,2|8
368,112,83361,1,0
320,160,83523,2,0,B|184:160,1,130,2|8
190,160,84009,1,0
256,240,84172,2,0,B|256:320,2,65,2|0|8
256,240,84820,1,2
80,72,85144,5,8
80,72,85307,1,0
80,152,85469,2,0,B|80:304,1,130,2|8
80,282,85955,1,0
160,280,86117,2,0,B|200:280,8,32.5,2|0|0|0|8|0|0|0|4
160,192,87090,1,0
256,152,87415,2,0,B|256:264,1,97.4999970942737,0|0
256,192,88063,12,4,89685
256,32,97144,5,0
208,176,97306,1,0
328,96,97469,1,0
184,96,97630,1,0
304,176,97793,1,0
256,112,98117,2,0,B|256:216,1,97.4999970942737,0|4
64,96,98766,5,0
56,192,99090,1,2
120,272,99415,1,0
216,312,99739,2,0,B|288:320|360:288,1,130,2|0
400,256,100226,1,0
448,208,100388,1,2
440,144,100550,1,0
400,88,100712,1,0
344,56,100874,1,0
280,56,101036,6,0,B|152:56,1,130,2|0
104,104,101523,1,0
152,152,101685,2,0,B|288:152,1,130,2|0
328,200,102172,1,0
280,248,102334,2,0,B|144:248,1,130,2|0
108,300,102820,1,0
148,352,102982,1,2
256,352,103307,2,0,B|256:392,4,32.5,0|0|0|0|4
440,216,103955,6,0,B|441:149|401:93,1,130,0|2
356,128,104442,1,0
328,176,104604,2,0,B|252:164|244:92,1,130,0|2
228,40,105090,1,0
172,24,105253,2,0,B|120:72|148:152,1,130,0|2
40,112,105901,5,0
40,168,106063,1,0
40,220,106226,1,2
96,312,106550,1,0
200,260,106874,2,0,B|272:260,1,65,2|0
300,348,107199,2,0,B|380:348,1,65
424,280,107523,2,0,B|424:144,1,130,2|0
344,152,108009,2,0,B|280:152,1,65,0|2
192,152,108334,1,0
104,152,108496,2,0,B|72:152,4,32.5,0|0|0|0|2
160,48,109144,5,0
224,48,109307,1,0
288,48,109469,1,2
376,48,109793,1,0
472,48,110117,2,0,B|472:176|360:176,1,195,0|8
304,144,110766,1,0
248,112,110928,1,0
184,136,111090,1,0
144,192,111253,1,0
168,256,111415,6,0,B|240:304|304:232,1,130,2|0
328,296,111901,1,0
372,344,112063,2,0,B|440:297|407:204,1,130,2|0
464,196,112550,1,0
512,152,112712,2,0,B|496:72|416:64,1,130,2|0
320,84,113361,1,8
216,104,113685,2,0,B|184:104,4,32.5,0|0|0|0|2
104,216,114334,6,0,B|64:208|56:168,2,65,0|8|2
196,216,114982,1,0
288,216,115307,2,0,B|416:216,1,130,2|0
418,216,115955,1,2
416,304,116280,6,0,B|328:304,1,65
351,304,116604,1,2
96,304,116928,2,0,B|184:304,1,65
161,304,117253,1,2
256,72,117577,2,0,B|256:152,1,65
256,136,117901,2,0,B|256:272,2,130,2|0|2
344,104,118874,2,0,B|384:104,4,32.5,0|0|0|0|2
344,192,119523,5,0
344,240,119685,1,0
344,280,119847,2,0,B|280:280,1,65,2|0
184,280,120496,2,0,B|208:264|208:264|184:248|184:248|208:232|208:232|184:216|184:216|208:200|208:200|184:184|184:184|208:168|208:168|184:152|184:152|208:136|208:136|184:120|184:120,1,260,0|4
104,100,121469,5,0
104,144,121631,1,0
104,192,121793,2,0,B|104:256,1,65,2|0
104,352,122442,1,8
200,348,122766,1,0
284,300,123090,2,0,B|356:300,2,65,2|0|8
264,208,124063,2,0,B|264:192,4,16.25,0|0|0|0|2
264,112,124712,5,0
168,112,125036,2,0,B|104:112,1,65,8|0
104,208,125685,2,0,B|80:224|80:224|104:240|104:240|80:256|80:256|104:272|104:272|80:288|80:288|104:304|104:304|80:320|80:320|104:336|104:336|80:352|80:352|104:368|104:368,1,260,2|4
232,96,126658,2,0,B|296:96,1,48.7499985471368
280,96,126982,1,2
280,288,127307,2,0,B|216:288,1,48.7499985471368
231,288,127631,1,8
256,192,127955,1,0
176,144,128280,5,2
176,76,128442,2,0,B|244:76,1,48.7499985471368,8|2
288,76,128766,1,8
356,76,128928,1,2
464,96,129253,6,0,B|464:72,4,24.3749992735684
492,176,129739,1,0
412,216,129901,1,2
444,292,130063,1,0
360,312,130226,2,0,B|288:328|216:272,1,130,8|2
236,286,130712,1,0
136,208,130874,1,8
272,152,131199,1,2
136,80,131523,1,8
32,128,131847,6,0,B|32:56,2,65,2|0|8
32,208,132334,1,0
32,288,132496,1,2
112,288,132658,1,0
112,208,132820,2,0,B|240:208,1,130,8|2
242,208,133307,1,0
344,112,133469,1,8
448,208,133793,1,2
344,304,134117,1,8
456,72,134442,2,0,B|456:32,4,32.5,2|0|0|0|8
448,208,135090,5,2
360,184,135253,1,0
376,264,135415,1,8
288,232,135577,1,0
304,320,135739,2,0,B|256:312|224:296,1,65,2|0
168,280,136063,1,8
272,144,136388,1,2
120,104,136712,1,8
32,224,137036,5,2
32,224,137117,1,0
32,224,137199,1,0
112,280,137361,1,8
160,208,137523,1,0
224,288,137685,2,0,B|296:288|352:232,1,130,2|8
288,96,138334,2,0,B|216:96|160:152,2,130,2|8|2
312,188,139307,5,8
272,244,139469,1,0
256,308,139631,2,0,B|256:348,4,32.5,2|0|0|0|8
120,336,140280,2,0,B|72:304|72:272,1,65,2|0
64,208,140604,1,8
104,128,140766,1,0
176,184,140928,2,0,B|224:160|224:112,1,65,2|0
320,72,141253,2,0,B|320:216,1,130,8|2
384,280,141901,2,0,B|393:280|257:280,1,130,8|2
255,280,142388,1,0
188,280,142550,5,8
132,240,142712,1,0
72,276,142874,2,0,B|24:220|64:140,1,130,2|8
104,104,143361,1,0
168,80,143523,2,0,B|208:80,4,32.5,2|0|0|0|8
224,212,144172,1,4
368,220,144496,1,4
320,96,144820,6,0,B|320:64,4,32.5,2|2|0|0|8
224,168,145469,1,2
320,256,145793,2,0,B|272:296|192:296,1,130,8|2
198,295,146280,1,0
104,288,146442,1,8
104,288,146523,1,0
104,288,146604,1,0
104,176,146766,1,2
200,120,147090,1,8
328,120,147415,5,2
328,120,147577,1,0
328,120,147739,2,0,B|328:272,2,130,8|2|8
240,120,148712,2,0,B|216:120,4,16.25,2|0|0|0|8
240,120,149361,1,2
240,200,149685,2,0,B|240:336,1,130,8|4
256,192,150496,12,4,152928
256,192,160712,5,8
192,120,161036,1,0
112,176,161361,2,0,B|112:216|144:240,1,65,8|0
208,296,162009,1,8
304,304,162334,2,0,B|304:336,2,32.5,0|0|8
384,256,162982,5,0
384,256,163307,2,0,B|384:192,1,65,8|0
360,104,163955,1,8
280,48,164280,2,0,B|248:48|216:72,1,65,0|8
120,88,164928,2,0,B|120:48,2,32.5,0|0|8
208,136,165577,1,0
128,184,165901,6,0,B|128:256,1,65,8|0
224,280,166550,1,8
288,208,166874,2,0,B|288:136,1,65,0|8
360,80,167523,2,0,B|360:120,2,32.5,0|0|8
432,144,168172,1,0
472,232,168496,6,0,B|432:296|360:304,1,130,8|8
288,248,169469,1,0
208,224,169793,2,0,B|176:248|136:216,1,65,8|4
80,96,170604,1,4
136,200,171090,6,0,B|212:200|252:152,1,130,2|0
360,194,171739,2,0,B|360:64,2,130,2|0|2
416,280,172712,1,0
312,280,173036,1,2
208,280,173361,6,0,B|208:344,2,65,0|0|2
112,256,174009,1,0
176,160,174334,2,0,B|46:160,2,130,2|0|2
288,104,175307,1,0
368,192,175631,1,2
190,104,176280,6,0,B|127:54|59:108,1,130,2|0
128,152,176928,2,0,B|128:296,1,130,2|0
128,282,177415,1,0
128,282,177577,1,2
232,304,177901,2,0,B|232:368,2,65,0|0|2
344,304,178550,1,0
344,200,178874,2,0,B|344:48,1,130,2|0
292,32,179361,1,0
240,72,179523,2,0,B|240:216,1,130,2|0
256,192,180172,12,4,181469
192,192,189253,6,0,B|192:128,2,65,2|0|2
328,192,189901,2,0,B|328:256,2,65,8|0|8
256,32,190550,5,2
208,176,190712,1,0
328,96,190874,1,8
184,96,191036,1,0
304,176,191199,1,2
256,112,191361,1,0
256,232,191523,6,0,B|256:304,1,65,0|2
256,297,192172,1,4
360,336,192496,5,2
360,336,192577,1,0
360,336,192658,1,0
440,280,192820,1,8
360,224,192982,1,0
448,160,193144,2,0,B|448:96,1,65,2|0
368,56,193469,2,0,B|368:128,1,65,8|0
288,160,193793,2,0,B|288:96,1,65,2|0
192,56,194117,5,8
192,56,194199,1,0
192,56,194280,2,0,B|152:72|136:112,1,65,0|2
200,152,194604,1,0
112,176,194766,2,0,B|112:248,1,65,8|0
208,240,195090,2,0,B|360:240,1,130,2|8
338,240,195577,1,0
288,144,195739,2,0,B|352:144,1,65,2|0
432,72,196063,2,0,B|360:72,1,65,8|0
440,152,196388,2,0,B|440:288,1,130,2|8
296,232,197036,6,0,B|224:232,1,65,2|0
232,320,197361,2,0,B|304:320,1,65,8|0
152,320,197685,2,0,B|152:168,1,130,2|8
152,190,198172,1,0
64,152,198334,2,0,B|64:88,1,65,2|0
144,32,198658,2,0,B|144:104,1,65,8|0
232,128,198982,2,0,B|312:128,1,65,2|0
384,64,199307,1,8
464,64,199469,1,0
384,64,199631,2,0,B|384:192,1,130,2|8
336,288,200280,6,0,B|272:288,1,65,2|0
271,288,200604,2,0,B|192:288,1,65,8|0
206,288,200928,2,0,B|56:288,1,130,2|8
76,288,201415,1,0
72,200,201577,2,0,B|24:200,4,32.5,2|0|0|0|8
112,112,202063,5,0
112,112,202144,1,0
112,112,202226,2,0,B|176:112,1,65,4|0
232,184,202550,1,8
288,112,202712,1,0
352,48,202874,2,0,B|416:96|400:184,1,130,0|8
402,161,203361,1,0
400,248,203523,6,0,B|320:248,1,65,2|0
280,320,203847,2,0,B|360:320,1,65,8|0
272,248,204172,2,0,B|144:248,1,130,2|8
142,248,204658,1,0
56,184,204820,6,0,B|64:112|144:88,1,130,2|8
135,90,205307,1,0
160,168,205469,2,0,B|288:168,1,130,2|8
290,168,205955,1,0
392,72,206117,2,0,B|448:96|456:128,1,65,2|0
384,160,206442,2,0,B|384:232,1,65,8|0
464,224,206766,2,0,B|448:304|368:312,1,130,2|8
379,310,207253,1,0
296,240,207415,5,2
296,240,207496,1,0
296,240,207577,2,0,B|296:168,1,65,0|8
224,96,207901,1,0
168,168,208063,2,0,B|96:168,1,65,2|0
64,256,208388,1,8
64,256,208550,1,0
152,328,208712,2,0,B|216:328,1,65,2|0
216,240,209036,2,0,B|136:240,1,65,8|0
96,176,209361,2,0,B|120:112|208:104,1,130,2|8
196,105,209847,5,0
315,105,210009,2,8,B|392:112|416:176,1,130,2|8
415,175,210496,1,0
392,296,210658,2,0,B|352:308|324:268,1,65
256,192,210982,6,0,B|256:224,4,32.5,0|0|0|0|4
256,72,211631,1,0
256,72,211955,2,0,B|256:344,1,260,0|4
256,192,212685,12,4,215199
