osu file format v13

[General]
AudioFilename: Gate_of_Steiner(TTR).mp3
AudioLeadIn: 0
PreviewTime: 20379
Countdown: 0
SampleSet: Normal
StackLeniency: 0.7
Mode: 3
LetterboxInBreaks: 0
SpecialStyle: 0
WidescreenStoryboard: 1

[Editor]
DistanceSpacing: 1
BeatDivisor: 4
GridSize: 8
TimelineZoom: 2.3

[Metadata]
Title:Gate of Steiner -To True Remix-
TitleUnicode:Gate of Steiner -To True Remix-
Artist:paracav
ArtistUnicode:paracav
Creator:Suzully
Version:5K HD
Source:Steins;Gate
Tags:Nico Nico Douga Abo Takeshi
BeatmapID:500864
BeatmapSetID:212951

[Difficulty]
HPDrainRate:8
CircleSize:5
OverallDifficulty:8
ApproachRate:5
SliderMultiplier:1.4
SliderTickRate:1

[Events]
//Background and Video events
0,0,"bg.jpg",0,0
//Break Periods
//Storyboard Layer 0 (Background)
//Storyboard Layer 1 (Fail)
//Storyboard Layer 2 (Pass)
//Storyboard Layer 3 (Foreground)
//Storyboard Sound Samples
//Background Colour Transformations
3,100,163,162,255

[TimingPoints]
275,314.13612565445,4,2,1,20,1,0
18494,-100,4,1,1,20,0,0
20379,-100,4,1,1,20,0,1
60589,-100,4,2,1,20,0,0
78809,-100,4,1,1,20,0,0
80693,-100,4,1,1,20,0,1
120903,-100,4,1,1,20,0,0

[HitObjects]
153,192,275,5,0,0:0:0:0:
460,192,275,1,2,0:2:0:0:
256,192,432,1,0,0:0:0:0:
358,192,589,1,0,0:0:0:0:
460,192,746,1,2,0:2:0:0:
153,192,746,1,0,0:0:0:0:
51,192,1531,1,0,0:0:0:0:
358,192,1531,1,2,0:0:0:0:
153,192,1688,1,0,0:0:0:0:
256,192,1845,1,0,0:0:0:0:
358,192,2002,1,2,0:0:0:0:
51,192,2002,1,0,0:0:0:0:
256,192,2473,1,0,0:0:0:0:
460,192,2788,1,2,0:0:0:0:
358,192,2788,1,0,0:0:0:0:
256,192,2945,1,0,0:0:0:0:
153,192,3102,1,0,0:0:0:0:
51,192,3259,1,0,0:0:0:0:
358,192,3259,1,2,0:0:0:0:
51,192,4044,1,0,0:0:0:0:
358,192,4044,1,2,0:0:0:0:
153,192,4201,1,0,0:0:0:0:
256,192,4358,1,0,0:0:0:0:
358,192,4515,1,2,0:0:0:0:
460,192,4515,1,0,0:0:0:0:
358,192,4829,1,2,0:0:0:0:
358,192,4987,1,2,0:0:0:0:
358,192,5144,1,2,0:0:0:0:
358,192,5301,1,2,0:0:0:0:
153,192,5301,1,0,0:0:0:0:
256,192,5458,1,0,0:0:0:0:
153,192,5615,1,0,0:0:0:0:
51,192,5772,1,0,0:0:0:0:
256,192,5772,1,2,0:0:0:0:
153,192,6557,1,0,0:0:0:0:
256,192,6557,1,2,0:0:0:0:
51,192,6714,1,0,0:0:0:0:
153,192,6871,1,0,0:0:0:0:
256,192,7028,1,0,0:0:0:0:
358,192,7028,1,2,0:0:0:0:
460,192,7500,1,2,0:0:0:0:
51,192,7814,1,0,0:0:0:0:
256,192,7814,1,2,0:0:0:0:
153,192,7971,1,0,0:0:0:0:
358,192,8128,1,0,0:0:0:0:
460,192,8285,1,2,0:0:0:0:
256,192,8285,1,0,0:0:0:0:
358,192,9070,1,2,0:0:0:0:
256,192,9070,1,0,0:0:0:0:
460,192,9227,1,0,0:0:0:0:
153,192,9384,1,0,0:0:0:0:
256,192,9542,1,0,0:0:0:0:
358,192,9542,1,2,0:0:0:0:
460,192,9856,1,2,0:0:0:0:
460,192,10013,1,2,0:0:0:0:
460,192,10170,1,2,0:0:0:0:
460,192,10327,1,2,0:0:0:0:
51,192,10327,1,0,1:0:0:0:
358,192,10484,1,0,0:0:0:0:
256,192,10641,1,0,0:0:0:0:
51,192,10798,1,0,1:0:0:0:
358,192,10798,1,2,0:0:0:0:
51,192,11583,1,0,1:0:0:0:
153,192,11583,1,2,0:0:0:0:
358,192,11740,1,0,0:0:0:0:
256,192,11898,1,0,0:0:0:0:
460,192,12055,1,2,0:0:0:0:
51,192,12055,1,0,1:0:0:0:
460,192,12526,1,2,0:0:0:0:
51,192,12526,1,0,1:0:0:0:
51,192,12840,1,0,1:0:0:0:
460,192,12840,1,2,0:0:0:0:
256,192,12997,1,0,0:0:0:0:
358,192,13154,1,0,0:0:0:0:
51,192,13311,1,0,1:0:0:0:
153,192,13311,1,2,0:0:0:0:
51,192,14096,1,0,0:0:0:0:
256,192,14096,1,2,0:0:0:0:
358,192,14254,1,0,0:0:0:0:
460,192,14411,1,0,0:0:0:0:
51,192,14568,1,0,0:0:0:0:
358,192,14568,1,2,0:0:0:0:
51,192,14882,1,0,0:0:0:0:
153,192,14882,1,2,0:0:0:0:
51,192,15039,1,0,0:0:0:0:
153,192,15039,1,2,0:0:0:0:
256,192,15196,1,2,0:0:0:0:
358,192,15353,1,2,0:0:0:0:
51,192,15353,1,0,0:0:0:0:
256,192,15510,1,0,0:0:0:0:
51,192,15667,1,0,0:0:0:0:
358,192,15667,1,0,0:0:0:0:
256,192,15824,1,2,0:0:0:0:
51,192,15981,1,0,0:0:0:0:
51,192,16295,1,0,0:0:0:0:
51,192,16610,1,0,0:0:0:0:
256,192,16610,1,2,0:0:0:0:
460,192,16767,1,0,0:0:0:0:
51,192,16924,1,0,0:0:0:0:
256,192,16924,1,0,0:0:0:0:
460,192,17081,1,2,0:0:0:0:
51,192,17238,1,0,0:0:0:0:
51,192,17552,1,0,0:0:0:0:
460,192,17552,1,2,0:0:0:0:
51,192,17866,1,0,0:0:0:0:
358,192,17866,1,2,0:0:0:0:
51,192,18023,1,0,0:0:0:0:
460,192,18023,1,0,0:0:0:0:
51,192,18180,1,0,1:0:0:0:
358,192,18180,1,0,0:0:0:0:
51,192,18337,1,0,1:0:0:0:
256,192,18337,1,2,0:0:0:0:
51,192,18494,1,0,1:0:0:0:
153,192,18573,1,0,0:0:0:0:
256,192,18651,1,0,0:0:0:0:
358,192,18730,1,0,0:0:0:0:
460,192,18809,1,0,0:0:0:0:
153,192,18966,1,0,0:0:0:0:
358,192,18966,1,0,0:0:0:0:
256,192,19123,1,0,0:0:0:0:
460,192,19123,1,0,0:0:0:0:
51,192,19280,1,0,0:0:0:0:
256,192,19280,1,0,0:0:0:0:
153,192,19594,1,0,0:0:0:0:
358,192,19594,1,0,0:0:0:0:
460,192,19751,1,0,0:0:0:0:
358,192,19829,1,0,0:0:0:0:
256,192,19908,1,0,0:0:0:0:
153,192,19987,1,0,0:0:0:0:
358,192,20065,1,0,0:0:0:0:
256,192,20144,1,0,0:0:0:0:
153,192,20222,1,0,0:0:0:0:
51,192,20301,1,0,0:0:0:0:
460,192,20379,1,0,0:0:0:0:
358,192,20379,1,0,0:0:0:0:
256,192,20536,1,0,0:0:0:0:
51,192,20693,1,0,0:0:0:0:
358,192,20693,1,0,0:0:0:0:
153,192,20850,1,0,0:0:0:0:
256,192,21007,1,0,0:0:0:0:
358,192,21165,1,0,0:0:0:0:
51,192,21322,1,0,0:0:0:0:
460,192,21322,1,0,0:0:0:0:
358,192,21479,1,0,0:0:0:0:
153,192,21636,1,0,0:0:0:0:
256,192,21793,1,0,0:0:0:0:
51,192,21950,1,0,0:0:0:0:
358,192,21950,1,0,0:0:0:0:
153,192,22107,1,0,0:0:0:0:
256,192,22264,1,0,0:0:0:0:
358,192,22421,1,0,0:0:0:0:
153,192,22578,1,0,0:0:0:0:
51,192,22579,1,0,0:0:0:0:
460,192,22735,1,0,0:0:0:0:
153,192,22892,1,0,0:0:0:0:
256,192,23049,1,0,0:0:0:0:
51,192,23206,1,0,0:0:0:0:
358,192,23206,1,0,0:0:0:0:
460,192,23364,1,0,0:0:0:0:
358,192,23521,1,0,0:0:0:0:
256,192,23678,1,0,0:0:0:0:
51,192,23835,1,0,0:0:0:0:
460,192,23835,1,0,0:0:0:0:
358,192,23992,1,0,0:0:0:0:
460,192,24149,1,0,0:0:0:0:
358,192,24306,1,0,0:0:0:0:
51,192,24463,1,0,0:0:0:0:
256,192,24463,1,0,0:0:0:0:
153,192,24620,1,0,0:0:0:0:
460,192,24777,1,0,0:0:0:0:
358,192,24856,1,0,0:0:0:0:
256,192,24934,1,0,0:0:0:0:
153,192,25013,1,0,0:0:0:0:
51,192,25091,1,0,0:0:0:0:
460,192,25091,1,0,0:0:0:0:
358,192,25170,1,0,0:0:0:0:
256,192,25248,1,0,0:0:0:0:
153,192,25327,1,0,0:0:0:0:
51,192,25405,1,0,0:0:0:0:
358,192,25562,1,0,0:0:0:0:
256,192,25720,1,0,0:0:0:0:
460,192,25720,1,0,0:0:0:0:
51,192,25877,1,0,0:0:0:0:
153,192,26034,1,0,0:0:0:0:
358,192,26191,1,0,0:0:0:0:
256,192,26348,1,0,0:0:0:0:
460,192,26348,1,0,0:0:0:0:
358,192,26505,1,0,0:0:0:0:
51,192,26662,1,0,0:0:0:0:
460,192,26819,1,0,0:0:0:0:
51,192,26976,1,0,0:0:0:0:
256,192,26976,1,0,0:0:0:0:
460,192,27133,1,0,0:0:0:0:
51,192,27290,1,0,0:0:0:0:
153,192,27447,1,0,0:0:0:0:
460,192,27604,1,0,0:0:0:0:
256,192,27604,1,0,0:0:0:0:
358,192,27761,1,0,0:0:0:0:
256,192,27918,1,0,0:0:0:0:
153,192,27918,1,0,0:0:0:0:
358,192,28076,1,0,0:0:0:0:
460,192,28233,1,0,0:0:0:0:
153,192,28390,1,0,0:0:0:0:
256,192,28390,1,0,0:0:0:0:
358,192,28547,1,0,0:0:0:0:
460,192,28704,1,0,0:0:0:0:
153,192,28861,1,0,0:0:0:0:
256,192,28861,1,0,0:0:0:0:
51,192,29018,1,0,0:0:0:0:
256,192,29175,1,0,0:0:0:0:
460,192,29175,1,0,0:0:0:0:
153,192,29332,1,0,0:0:0:0:
256,192,29489,1,0,0:0:0:0:
460,192,29489,1,0,0:0:0:0:
153,192,29646,1,0,0:0:0:0:
256,192,29803,1,0,0:0:0:0:
358,192,29803,1,0,0:0:0:0:
153,192,29960,1,0,0:0:0:0:
51,192,29960,1,0,0:0:0:0:
358,192,30117,1,0,0:0:0:0:
256,192,30117,1,0,0:0:0:0:
358,192,30432,1,0,0:0:0:0:
153,192,30432,1,0,0:0:0:0:
51,192,30432,1,0,0:0:0:0:
256,192,30589,1,0,0:0:0:0:
460,192,30746,1,0,0:0:0:0:
153,192,30746,1,0,0:0:0:0:
358,192,30903,1,0,0:0:0:0:
256,192,31060,1,0,0:0:0:0:
153,192,31217,1,0,0:0:0:0:
460,192,31374,1,0,0:0:0:0:
51,192,31374,1,0,0:0:0:0:
153,192,31531,1,0,0:0:0:0:
51,192,31688,1,0,0:0:0:0:
153,192,31845,1,0,0:0:0:0:
256,192,32002,1,0,0:0:0:0:
460,192,32002,1,0,0:0:0:0:
153,192,32159,1,0,0:0:0:0:
256,192,32316,1,0,0:0:0:0:
358,192,32473,1,0,0:0:0:0:
460,192,32631,1,0,0:0:0:0:
51,192,32631,1,0,0:0:0:0:
256,192,32788,1,0,0:0:0:0:
51,192,32945,1,0,0:0:0:0:
256,192,33102,1,0,0:0:0:0:
358,192,33259,1,0,0:0:0:0:
460,192,33259,1,0,0:0:0:0:
51,192,33416,1,0,0:0:0:0:
256,192,33573,1,0,0:0:0:0:
358,192,33730,1,0,0:0:0:0:
51,192,33887,1,0,0:0:0:0:
460,192,33887,1,0,0:0:0:0:
256,192,34044,1,0,0:0:0:0:
51,192,34201,1,0,0:0:0:0:
153,192,34358,1,0,0:0:0:0:
256,192,34515,1,0,0:0:0:0:
460,192,34515,1,0,0:0:0:0:
153,192,34672,1,0,0:0:0:0:
358,192,34829,1,0,0:0:0:0:
256,192,34908,1,0,0:0:0:0:
153,192,34987,1,0,0:0:0:0:
51,192,35065,1,0,0:0:0:0:
460,192,35144,1,0,0:0:0:0:
153,192,35144,1,0,0:0:0:0:
256,192,35222,1,0,0:0:0:0:
358,192,35301,1,0,0:0:0:0:
460,192,35379,1,0,0:0:0:0:
51,192,35458,1,0,0:0:0:0:
358,192,35615,1,0,0:0:0:0:
256,192,35772,1,0,0:0:0:0:
460,192,35772,1,0,0:0:0:0:
51,192,35929,1,0,0:0:0:0:
256,192,36086,1,0,0:0:0:0:
153,192,36243,1,0,0:0:0:0:
460,192,36400,1,0,0:0:0:0:
358,192,36400,1,0,0:0:0:0:
256,192,36557,1,0,0:0:0:0:
51,192,36714,1,0,0:0:0:0:
358,192,36871,1,0,0:0:0:0:
460,192,37028,1,0,0:0:0:0:
256,192,37028,1,0,0:0:0:0:
153,192,37185,1,0,0:0:0:0:
358,192,37343,1,0,0:0:0:0:
256,192,37500,1,0,0:0:0:0:
460,192,37657,1,0,0:0:0:0:
51,192,37657,1,0,0:0:0:0:
153,192,37814,1,0,0:0:0:0:
256,192,37971,1,0,0:0:0:0:
51,192,37971,1,0,0:0:0:0:
358,192,38128,1,0,0:0:0:0:
460,192,38285,1,0,0:0:0:0:
51,192,38442,1,0,0:0:0:0:
256,192,38442,1,0,0:0:0:0:
358,192,38599,1,0,0:0:0:0:
460,192,38756,1,0,0:0:0:0:
51,192,38913,1,0,0:0:0:0:
256,192,38913,1,0,0:0:0:0:
358,192,39070,1,0,0:0:0:0:
51,192,39227,1,0,0:0:0:0:
256,192,39227,1,0,0:0:0:0:
358,192,39384,5,0,0:0:0:0:
460,192,39542,1,0,0:0:0:0:
256,192,39542,1,0,0:0:0:0:
358,192,39699,1,0,0:0:0:0:
51,192,39856,1,0,0:0:0:0:
153,192,39856,1,0,0:0:0:0:
460,192,39856,1,0,0:0:0:0:
51,192,40013,1,0,0:0:0:0:
153,192,40013,1,0,0:0:0:0:
460,192,40013,1,0,0:0:0:0:
51,192,40170,1,0,0:0:0:0:
153,192,40170,1,0,0:0:0:0:
460,192,40170,1,0,0:0:0:0:
460,192,40484,1,0,0:0:0:0:
358,192,40484,1,0,0:0:0:0:
256,192,40641,1,0,0:0:0:0:
358,192,40798,1,0,0:0:0:0:
153,192,40955,1,0,0:0:0:0:
256,192,40955,1,0,0:0:0:0:
358,192,41112,1,0,0:0:0:0:
460,192,41269,1,0,0:0:0:0:
51,192,41426,1,0,0:0:0:0:
256,192,41583,1,0,0:0:0:0:
358,192,41740,1,0,0:0:0:0:
460,192,41740,1,0,0:0:0:0:
51,192,41898,1,0,0:0:0:0:
153,192,42055,1,0,0:0:0:0:
256,192,42212,1,0,0:0:0:0:
358,192,42212,1,0,0:0:0:0:
51,192,42369,1,0,0:0:0:0:
153,192,42526,1,0,0:0:0:0:
460,192,42683,1,0,0:0:0:0:
358,192,42840,1,0,0:0:0:0:
51,192,42997,1,0,0:0:0:0:
153,192,42997,1,0,0:0:0:0:
460,192,43154,1,0,0:0:0:0:
358,192,43311,1,0,0:0:0:0:
51,192,43468,1,0,0:0:0:0:
153,192,43468,1,0,0:0:0:0:
460,192,43625,1,0,0:0:0:0:
358,192,43782,1,0,0:0:0:0:
256,192,43939,1,0,0:0:0:0:
153,192,44096,1,0,0:0:0:0:
256,192,44254,1,0,0:0:0:0:
358,192,44254,1,0,0:0:0:0:
153,192,44411,1,0,0:0:0:0:
51,192,44568,1,0,0:0:0:0:
358,192,44725,1,0,0:0:0:0:
460,192,44725,1,0,0:0:0:0:
51,192,44882,1,0,0:0:0:0:
153,192,44960,1,0,0:0:0:0:
358,192,45039,1,0,0:0:0:0:
460,192,45117,1,0,0:0:0:0:
51,192,45196,1,0,0:0:0:0:
153,192,45274,1,0,0:0:0:0:
358,192,45353,1,0,0:0:0:0:
460,192,45432,1,0,0:0:0:0:
153,192,45510,1,0,0:0:0:0:
51,192,45510,1,0,0:0:0:0:
256,192,45667,1,0,0:0:0:0:
358,192,45824,1,0,0:0:0:0:
51,192,45981,1,0,0:0:0:0:
153,192,45981,1,0,0:0:0:0:
358,192,46138,1,0,0:0:0:0:
460,192,46295,1,0,0:0:0:0:
51,192,46453,1,0,0:0:0:0:
153,192,46610,1,0,0:0:0:0:
256,192,46767,1,0,0:0:0:0:
358,192,46767,1,0,0:0:0:0:
460,192,46924,1,0,0:0:0:0:
153,192,47081,1,0,0:0:0:0:
256,192,47238,1,0,0:0:0:0:
358,192,47238,1,0,0:0:0:0:
460,192,47395,1,0,0:0:0:0:
51,192,47552,1,0,0:0:0:0:
358,192,47709,1,0,0:0:0:0:
153,192,47866,1,0,0:0:0:0:
358,192,48023,1,0,0:0:0:0:
460,192,48023,1,0,0:0:0:0:
153,192,48180,1,0,0:0:0:0:
51,192,48337,1,0,0:0:0:0:
358,192,48494,1,0,0:0:0:0:
460,192,48494,1,0,0:0:0:0:
153,192,48651,1,0,0:0:0:0:
51,192,48809,1,0,0:0:0:0:
358,192,48966,1,0,0:0:0:0:
460,192,48966,1,0,0:0:0:0:
153,192,49123,1,0,0:0:0:0:
256,192,49280,1,0,0:0:0:0:
460,192,49280,1,0,0:0:0:0:
153,192,49437,1,0,0:0:0:0:
256,192,49594,1,0,0:0:0:0:
51,192,49751,1,0,0:0:0:0:
358,192,49908,1,0,0:0:0:0:
460,192,49908,1,0,0:0:0:0:
358,192,50065,1,0,0:0:0:0:
460,192,50065,1,0,0:0:0:0:
358,192,50222,1,0,0:0:0:0:
460,192,50222,1,0,0:0:0:0:
51,192,50536,1,0,0:0:0:0:
256,192,50536,1,0,0:0:0:0:
153,192,50693,1,0,0:0:0:0:
358,192,50850,1,0,0:0:0:0:
51,192,51007,1,0,0:0:0:0:
256,192,51007,1,0,0:0:0:0:
358,192,51165,1,0,0:0:0:0:
460,192,51322,1,0,0:0:0:0:
153,192,51479,1,0,0:0:0:0:
358,192,51636,1,0,0:0:0:0:
256,192,51793,1,0,0:0:0:0:
460,192,51793,1,0,0:0:0:0:
358,192,51950,1,0,0:0:0:0:
153,192,52107,1,0,0:0:0:0:
460,192,52264,1,0,0:0:0:0:
256,192,52264,1,0,0:0:0:0:
51,192,52421,1,0,0:0:0:0:
153,192,52578,1,0,0:0:0:0:
358,192,52735,1,0,0:0:0:0:
460,192,52892,1,0,0:0:0:0:
153,192,53049,1,0,0:0:0:0:
358,192,53049,1,0,0:0:0:0:
51,192,53206,1,0,0:0:0:0:
460,192,53364,1,0,0:0:0:0:
153,192,53521,1,0,0:0:0:0:
358,192,53521,1,0,0:0:0:0:
51,192,53678,1,0,0:0:0:0:
460,192,53835,1,0,0:0:0:0:
153,192,53992,1,0,0:0:0:0:
358,192,54149,1,0,0:0:0:0:
51,192,54306,1,0,0:0:0:0:
460,192,54306,1,0,0:0:0:0:
358,192,54463,1,0,0:0:0:0:
256,192,54620,1,0,0:0:0:0:
51,192,54777,1,0,0:0:0:0:
460,192,54777,1,0,0:0:0:0:
153,192,54934,1,0,0:0:0:0:
256,192,55013,1,0,0:0:0:0:
358,192,55091,1,0,0:0:0:0:
460,192,55170,1,0,0:0:0:0:
51,192,55248,1,0,0:0:0:0:
256,192,55327,1,0,0:0:0:0:
358,192,55405,1,0,0:0:0:0:
460,192,55484,1,0,0:0:0:0:
51,192,55562,1,0,0:0:0:0:
358,192,55562,1,0,0:0:0:0:
153,192,55720,1,0,0:0:0:0:
256,192,55877,1,0,0:0:0:0:
358,192,56034,1,0,0:0:0:0:
51,192,56034,1,0,0:0:0:0:
460,192,56191,1,0,0:0:0:0:
358,192,56348,1,0,0:0:0:0:
153,192,56505,1,0,0:0:0:0:
51,192,56662,1,0,0:0:0:0:
153,192,56819,1,0,0:0:0:0:
460,192,56819,1,0,0:0:0:0:
358,192,56976,1,0,0:0:0:0:
51,192,57133,1,0,0:0:0:0:
460,192,57290,1,0,0:0:0:0:
153,192,57290,1,0,0:0:0:0:
256,192,57447,1,0,0:0:0:0:
51,192,57604,1,0,0:0:0:0:
460,192,57761,1,0,0:0:0:0:
358,192,57918,1,0,0:0:0:0:
153,192,58076,1,0,0:0:0:0:
256,192,58076,1,0,0:0:0:0:
51,192,58233,1,0,0:0:0:0:
358,192,58390,1,0,0:0:0:0:
460,192,58390,1,0,0:0:0:0:
153,192,58547,1,0,0:0:0:0:
256,192,58547,1,0,0:0:0:0:
51,192,58704,1,0,0:0:0:0:
358,192,58861,1,0,0:0:0:0:
460,192,58861,1,0,0:0:0:0:
153,192,59018,1,0,0:0:0:0:
256,192,59018,1,0,0:0:0:0:
51,192,59175,1,0,0:0:0:0:
153,192,59332,1,0,0:0:0:0:
256,192,59332,1,0,0:0:0:0:
358,192,59489,1,0,0:0:0:0:
51,192,59646,1,0,0:0:0:0:
256,192,59725,1,0,0:0:0:0:
358,192,59803,1,0,0:0:0:0:
460,192,59882,1,0,0:0:0:0:
51,192,59960,1,0,0:0:0:0:
256,192,59960,1,0,0:0:0:0:
153,192,60117,1,0,0:0:0:0:
358,192,60117,1,0,0:0:0:0:
51,192,60274,1,0,0:0:0:0:
256,192,60274,1,0,0:0:0:0:
460,192,60589,1,2,0:0:0:0:
153,192,60589,1,0,0:0:0:0:
51,192,60746,1,0,0:0:0:0:
153,192,60903,1,0,0:0:0:0:
460,192,61060,1,2,0:0:0:0:
51,192,61060,1,0,0:0:0:0:
153,192,61217,1,0,0:0:0:0:
51,192,61374,1,0,0:0:0:0:
153,192,61531,1,0,0:0:0:0:
51,192,61688,1,0,0:0:0:0:
460,192,61845,1,2,0:0:0:0:
256,192,61845,1,0,0:0:0:0:
358,192,62002,1,0,0:0:0:0:
256,192,62159,1,0,0:0:0:0:
460,192,62316,1,2,0:0:0:0:
358,192,62316,1,0,0:0:0:0:
256,192,62473,1,0,0:0:0:0:
358,192,62631,1,0,0:0:0:0:
256,192,62788,1,2,0:0:0:0:
51,192,62788,1,0,0:0:0:0:
358,192,62945,1,0,0:0:0:0:
460,192,63102,1,2,0:0:0:0:
153,192,63102,1,0,0:0:0:0:
256,192,63259,1,0,0:0:0:0:
51,192,63416,1,0,0:0:0:0:
153,192,63573,1,0,0:0:0:0:
460,192,63573,1,2,0:0:0:0:
256,192,63730,1,0,0:0:0:0:
153,192,63887,1,0,0:0:0:0:
358,192,64044,1,0,0:0:0:0:
256,192,64201,1,0,0:0:0:0:
460,192,64358,1,2,0:0:0:0:
51,192,64358,1,0,0:0:0:0:
256,192,64515,1,0,0:0:0:0:
51,192,64672,1,0,0:0:0:0:
460,192,64829,1,2,0:0:0:0:
256,192,64829,1,0,0:0:0:0:
51,192,64987,1,0,0:0:0:0:
358,192,65144,1,0,0:0:0:0:
256,192,65222,1,0,0:0:0:0:
153,192,65301,1,0,0:0:0:0:
51,192,65379,1,0,0:0:0:0:
256,192,65458,1,0,0:0:0:0:
358,192,65536,1,0,0:0:0:0:
460,192,65615,1,2,0:0:0:0:
51,192,65615,1,0,0:0:0:0:
153,192,65772,1,0,0:0:0:0:
51,192,65929,1,0,0:0:0:0:
460,192,66086,1,2,0:0:0:0:
153,192,66086,1,0,0:0:0:0:
256,192,66243,1,0,0:0:0:0:
153,192,66400,1,0,0:0:0:0:
256,192,66557,1,0,0:0:0:0:
153,192,66714,1,0,0:0:0:0:
460,192,66871,1,2,0:0:0:0:
358,192,66871,1,0,0:0:0:0:
256,192,67028,1,0,0:0:0:0:
358,192,67185,1,0,0:0:0:0:
460,192,67343,1,2,0:0:0:0:
256,192,67343,1,0,0:0:0:0:
51,192,67500,1,0,0:0:0:0:
153,192,67657,1,0,0:0:0:0:
51,192,67814,1,0,0:0:0:0:
153,192,67971,1,0,0:0:0:0:
460,192,68128,1,2,0:0:0:0:
358,192,68128,1,0,0:0:0:0:
256,192,68285,1,0,0:0:0:0:
153,192,68442,1,0,0:0:0:0:
460,192,68599,1,2,0:0:0:0:
51,192,68599,1,0,0:0:0:0:
358,192,68756,1,0,0:0:0:0:
256,192,68913,1,0,0:0:0:0:
460,192,69070,1,2,0:0:0:0:
153,192,69070,1,0,0:0:0:0:
51,192,69227,1,0,0:0:0:0:
460,192,69384,1,2,0:0:0:0:
256,192,69384,1,0,0:0:0:0:
153,192,69542,1,0,0:0:0:0:
51,192,69699,1,0,0:0:0:0:
153,192,69856,1,0,0:0:0:0:
256,192,70013,1,0,0:0:0:0:
460,192,70013,1,2,0:0:0:0:
460,192,70170,1,0,0:0:0:0:
256,192,70170,1,0,0:0:0:0:
460,192,70327,1,2,0:0:0:0:
256,192,70327,1,0,0:0:0:0:
460,192,70641,1,2,0:0:0:0:
256,192,70641,1,0,0:0:0:0:
358,192,70641,1,0,0:0:0:0:
460,192,71112,1,2,0:0:0:0:
460,192,71898,1,2,0:0:0:0:
358,192,71898,1,0,0:0:0:0:
460,192,72369,1,2,0:0:0:0:
460,192,72840,1,2,0:0:0:0:
256,192,73154,1,0,0:0:0:0:
460,192,73154,1,2,0:0:0:0:
460,192,73625,1,2,0:0:0:0:
460,192,74411,1,2,0:0:0:0:
256,192,74411,1,0,0:0:0:0:
460,192,74882,1,2,0:0:0:0:
51,192,75196,1,0,0:0:0:0:
153,192,75274,1,0,0:0:0:0:
256,192,75353,1,0,0:0:0:0:
460,192,75432,1,0,0:0:0:0:
358,192,75510,1,0,0:0:0:0:
256,192,75589,1,0,0:0:0:0:
51,192,75667,128,0,77552:0:0:0:0:
153,192,75667,1,2,0:0:0:0:
153,192,76453,1,0,0:0:0:0:
256,192,76610,1,0,0:0:0:0:
358,192,76767,1,0,0:0:0:0:
256,192,76924,1,0,0:0:0:0:
460,192,76924,1,2,0:0:0:0:
256,192,77552,1,0,0:0:0:0:
460,192,78180,1,2,0:0:0:0:
358,192,78180,1,0,0:0:0:0:
51,192,78809,1,0,0:0:0:0:
51,192,79123,1,0,0:0:0:0:
460,192,79437,1,0,0:0:0:0:
358,192,79515,1,0,0:0:0:0:
256,192,79594,1,0,0:0:0:0:
153,192,79672,1,0,0:0:0:0:
358,192,79751,1,0,0:0:0:0:
256,192,79829,1,0,0:0:0:0:
153,192,79908,1,0,0:0:0:0:
51,192,79987,1,0,0:0:0:0:
460,192,80065,1,0,0:0:0:0:
358,192,80144,1,0,0:0:0:0:
256,192,80222,1,0,0:0:0:0:
153,192,80301,1,0,0:0:0:0:
358,192,80379,1,0,0:0:0:0:
256,192,80458,1,0,0:0:0:0:
153,192,80536,1,0,0:0:0:0:
51,192,80615,1,0,0:0:0:0:
358,192,80693,1,0,0:0:0:0:
460,192,80693,1,0,0:0:0:0:
256,192,80850,1,0,0:0:0:0:
460,192,81007,1,0,0:0:0:0:
358,192,81007,1,0,0:0:0:0:
51,192,81165,128,0,82892:0:0:0:0:
256,192,81165,1,0,0:0:0:0:
358,192,81322,1,0,0:0:0:0:
460,192,81479,1,0,0:0:0:0:
153,192,81636,1,0,0:0:0:0:
256,192,81636,1,0,0:0:0:0:
256,192,81950,1,0,0:0:0:0:
358,192,82107,1,0,0:0:0:0:
460,192,82264,1,0,0:0:0:0:
256,192,82264,1,0,0:0:0:0:
358,192,82421,1,0,0:0:0:0:
256,192,82578,1,0,0:0:0:0:
153,192,82735,1,0,0:0:0:0:
358,192,82892,1,0,0:0:0:0:
460,192,82892,1,0,0:0:0:0:
256,192,83049,1,0,0:0:0:0:
153,192,83206,1,0,0:0:0:0:
51,192,83206,1,0,0:0:0:0:
256,192,83364,1,0,0:0:0:0:
358,192,83521,1,0,0:0:0:0:
256,192,83678,128,0,85405:0:0:0:0:
460,192,83678,1,0,0:0:0:0:
51,192,83835,1,0,0:0:0:0:
153,192,83992,1,0,0:0:0:0:
358,192,84149,1,0,0:0:0:0:
460,192,84149,1,0,0:0:0:0:
153,192,84463,1,0,0:0:0:0:
51,192,84620,1,0,0:0:0:0:
153,192,84777,1,0,0:0:0:0:
51,192,84934,1,0,0:0:0:0:
460,192,85091,1,0,0:0:0:0:
153,192,85248,1,0,0:0:0:0:
51,192,85405,1,0,0:0:0:0:
460,192,85405,1,0,0:0:0:0:
153,192,85562,1,0,0:0:0:0:
358,192,85720,1,0,0:0:0:0:
460,192,85720,128,0,86976:0:0:0:0:
51,192,86034,1,0,0:0:0:0:
358,192,86348,1,0,0:0:0:0:
51,192,86505,1,0,0:0:0:0:
153,192,86662,1,0,0:0:0:0:
256,192,86819,1,0,0:0:0:0:
51,192,86976,128,0,88233:0:0:0:0:
256,192,87290,1,0,0:0:0:0:
460,192,87604,1,0,0:0:0:0:
256,192,87761,1,0,0:0:0:0:
153,192,87918,1,0,0:0:0:0:
358,192,88076,1,0,0:0:0:0:
256,192,88233,128,0,89489:0:0:0:0:
460,192,88390,1,0,0:0:0:0:
153,192,88547,1,0,0:0:0:0:
358,192,88704,1,0,0:0:0:0:
153,192,88861,1,0,0:0:0:0:
51,192,89018,1,0,0:0:0:0:
460,192,89175,1,0,0:0:0:0:
358,192,89332,1,0,0:0:0:0:
51,192,89489,1,0,0:0:0:0:
153,192,89568,1,0,0:0:0:0:
256,192,89646,1,0,0:0:0:0:
358,192,89725,1,0,0:0:0:0:
460,192,89803,1,0,0:0:0:0:
153,192,89803,1,0,0:0:0:0:
460,192,89960,1,0,0:0:0:0:
153,192,89960,1,0,0:0:0:0:
358,192,90117,1,0,0:0:0:0:
256,192,90196,1,0,0:0:0:0:
153,192,90274,1,0,0:0:0:0:
51,192,90353,1,0,0:0:0:0:
358,192,90432,1,0,0:0:0:0:
256,192,90510,1,0,0:0:0:0:
153,192,90589,1,0,0:0:0:0:
51,192,90667,1,0,0:0:0:0:
358,192,90746,1,0,0:0:0:0:
460,192,90746,1,0,0:0:0:0:
256,192,90903,1,0,0:0:0:0:
153,192,91060,1,0,0:0:0:0:
358,192,91060,1,0,0:0:0:0:
460,192,91217,128,0,92945:0:0:0:0:
51,192,91217,1,0,0:0:0:0:
153,192,91374,1,0,0:0:0:0:
256,192,91531,1,0,0:0:0:0:
358,192,91688,1,0,0:0:0:0:
51,192,91688,1,0,0:0:0:0:
153,192,92002,1,0,0:0:0:0:
358,192,92159,1,0,0:0:0:0:
51,192,92316,1,0,0:0:0:0:
256,192,92473,1,0,0:0:0:0:
358,192,92631,1,0,0:0:0:0:
256,192,92788,1,0,0:0:0:0:
153,192,92945,1,0,0:0:0:0:
51,192,93102,1,0,0:0:0:0:
153,192,93259,1,0,0:0:0:0:
256,192,93259,1,0,0:0:0:0:
460,192,93416,1,0,0:0:0:0:
358,192,93573,1,0,0:0:0:0:
153,192,93730,1,0,0:0:0:0:
51,192,93730,1,0,0:0:0:0:
460,192,93887,1,0,0:0:0:0:
256,192,94044,128,0,95458:0:0:0:0:
51,192,94044,1,0,0:0:0:0:
153,192,94201,1,0,0:0:0:0:
358,192,94201,1,0,0:0:0:0:
460,192,94515,1,0,0:0:0:0:
358,192,94672,1,0,0:0:0:0:
153,192,94829,1,0,0:0:0:0:
51,192,94987,1,0,0:0:0:0:
153,192,95144,1,0,0:0:0:0:
358,192,95301,1,0,0:0:0:0:
460,192,95458,1,0,0:0:0:0:
51,192,95458,1,0,0:0:0:0:
51,192,95615,1,0,0:0:0:0:
460,192,95615,1,0,0:0:0:0:
51,192,95772,1,0,0:0:0:0:
460,192,95772,1,0,0:0:0:0:
153,192,96086,1,0,0:0:0:0:
358,192,96086,1,0,0:0:0:0:
51,192,96400,1,0,0:0:0:0:
460,192,96400,1,0,0:0:0:0:
153,192,96557,1,0,0:0:0:0:
358,192,96557,1,0,0:0:0:0:
460,192,96714,1,0,0:0:0:0:
256,192,96871,1,0,0:0:0:0:
51,192,96871,1,0,0:0:0:0:
460,192,97028,1,0,0:0:0:0:
358,192,97185,1,0,0:0:0:0:
460,192,97343,1,0,0:0:0:0:
256,192,97343,1,0,0:0:0:0:
51,192,97657,1,0,0:0:0:0:
153,192,97814,1,0,0:0:0:0:
256,192,97971,1,0,0:0:0:0:
51,192,97971,1,0,0:0:0:0:
358,192,98128,128,0,100798:0:0:0:0:
153,192,98285,1,0,0:0:0:0:
51,192,98285,1,0,0:0:0:0:
256,192,98442,1,0,0:0:0:0:
51,192,98599,1,0,0:0:0:0:
256,192,98756,1,0,0:0:0:0:
460,192,98913,1,0,0:0:0:0:
256,192,99070,1,0,0:0:0:0:
153,192,99227,1,0,0:0:0:0:
51,192,99384,1,0,0:0:0:0:
460,192,99542,1,0,0:0:0:0:
256,192,99699,1,0,0:0:0:0:
153,192,99856,1,0,0:0:0:0:
51,192,100013,1,0,0:0:0:0:
256,192,100170,1,0,0:0:0:0:
153,192,100248,1,0,0:0:0:0:
51,192,100327,1,0,0:0:0:0:
460,192,100484,1,0,0:0:0:0:
256,192,100641,1,0,0:0:0:0:
51,192,100798,128,0,101269:0:0:0:0:
460,192,100798,1,0,0:0:0:0:
256,192,100955,1,0,0:0:0:0:
358,192,101112,1,0,0:0:0:0:
153,192,101269,128,0,102997:0:0:0:0:
460,192,101269,1,0,0:0:0:0:
256,192,101426,1,0,0:0:0:0:
358,192,101583,1,0,0:0:0:0:
460,192,101740,1,0,0:0:0:0:
51,192,101740,1,0,0:0:0:0:
256,192,102055,1,0,0:0:0:0:
358,192,102212,1,0,0:0:0:0:
460,192,102369,1,0,0:0:0:0:
51,192,102369,1,0,0:0:0:0:
358,192,102526,1,0,0:0:0:0:
256,192,102683,1,0,0:0:0:0:
358,192,102840,1,0,0:0:0:0:
460,192,102997,1,0,0:0:0:0:
256,192,103154,1,0,0:0:0:0:
460,192,103311,128,0,103782:0:0:0:0:
51,192,103311,1,0,0:0:0:0:
153,192,103468,1,0,0:0:0:0:
256,192,103625,1,0,0:0:0:0:
358,192,103782,128,0,105510:0:0:0:0:
51,192,103782,1,0,0:0:0:0:
256,192,103939,1,0,0:0:0:0:
153,192,104096,1,0,0:0:0:0:
51,192,104254,1,0,0:0:0:0:
460,192,104254,1,0,0:0:0:0:
153,192,104411,1,0,0:0:0:0:
460,192,104568,1,0,0:0:0:0:
256,192,104725,1,0,0:0:0:0:
153,192,104882,1,0,0:0:0:0:
51,192,105039,1,0,0:0:0:0:
460,192,105196,1,0,0:0:0:0:
256,192,105353,1,0,0:0:0:0:
153,192,105510,1,0,0:0:0:0:
51,192,105667,1,0,0:0:0:0:
256,192,105824,128,0,107081:0:0:0:0:
358,192,106138,1,0,0:0:0:0:
460,192,106138,1,0,0:0:0:0:
51,192,106453,1,0,0:0:0:0:
460,192,106610,1,0,0:0:0:0:
358,192,106767,1,0,0:0:0:0:
460,192,106924,1,0,0:0:0:0:
51,192,107081,128,0,108337:0:0:0:0:
460,192,107395,1,0,0:0:0:0:
256,192,107395,1,0,0:0:0:0:
358,192,107709,1,0,0:0:0:0:
153,192,107866,1,0,0:0:0:0:
256,192,108023,1,0,0:0:0:0:
358,192,108180,1,0,0:0:0:0:
460,192,108337,128,0,110850:0:0:0:0:
256,192,108494,1,0,0:0:0:0:
153,192,108651,1,0,0:0:0:0:
256,192,108809,1,0,0:0:0:0:
153,192,108966,1,0,0:0:0:0:
51,192,109123,1,0,0:0:0:0:
358,192,109280,1,0,0:0:0:0:
256,192,109437,1,0,0:0:0:0:
51,192,109594,1,0,0:0:0:0:
153,192,109672,1,0,0:0:0:0:
256,192,109751,1,0,0:0:0:0:
358,192,109829,1,0,0:0:0:0:
51,192,109908,1,0,0:0:0:0:
153,192,109908,1,0,0:0:0:0:
256,192,110065,1,0,0:0:0:0:
358,192,110065,1,0,0:0:0:0:
51,192,110222,1,0,0:0:0:0:
153,192,110301,1,0,0:0:0:0:
256,192,110379,1,0,0:0:0:0:
153,192,110458,1,0,0:0:0:0:
51,192,110536,1,0,0:0:0:0:
153,192,110615,1,0,0:0:0:0:
256,192,110693,1,0,0:0:0:0:
358,192,110772,1,0,0:0:0:0:
51,192,110850,1,0,0:0:0:0:
153,192,110850,1,0,0:0:0:0:
358,192,111007,1,0,0:0:0:0:
153,192,111165,1,0,0:0:0:0:
460,192,111165,1,0,0:0:0:0:
256,192,111322,1,0,0:0:0:0:
358,192,111479,1,0,0:0:0:0:
460,192,111479,1,0,0:0:0:0:
256,192,111636,1,0,0:0:0:0:
51,192,111793,1,0,0:0:0:0:
358,192,111793,1,0,0:0:0:0:
460,192,111950,1,0,0:0:0:0:
153,192,112107,1,0,0:0:0:0:
256,192,112107,1,0,0:0:0:0:
460,192,112264,1,0,0:0:0:0:
51,192,112421,1,0,0:0:0:0:
358,192,112421,1,0,0:0:0:0:
256,192,112578,1,0,0:0:0:0:
51,192,112735,1,0,0:0:0:0:
358,192,112735,1,0,0:0:0:0:
460,192,112892,1,0,0:0:0:0:
153,192,113049,1,0,0:0:0:0:
358,192,113049,1,0,0:0:0:0:
256,192,113206,1,0,0:0:0:0:
460,192,113364,1,0,0:0:0:0:
51,192,113364,1,0,0:0:0:0:
358,192,113521,1,0,0:0:0:0:
256,192,113678,1,0,0:0:0:0:
358,192,113835,1,0,0:0:0:0:
153,192,113835,1,0,0:0:0:0:
460,192,113992,1,0,0:0:0:0:
51,192,114149,1,0,0:0:0:0:
460,192,114306,1,0,0:0:0:0:
153,192,114306,1,0,0:0:0:0:
358,192,114463,1,0,0:0:0:0:
51,192,114620,1,0,0:0:0:0:
153,192,114620,1,0,0:0:0:0:
460,192,114620,1,0,0:0:0:0:
256,192,114777,1,0,0:0:0:0:
153,192,114934,1,0,0:0:0:0:
358,192,114934,1,0,0:0:0:0:
51,192,115091,1,0,0:0:0:0:
460,192,115091,1,0,0:0:0:0:
153,192,115248,1,0,0:0:0:0:
358,192,115248,1,0,0:0:0:0:
460,192,115405,1,0,0:0:0:0:
256,192,115405,1,0,0:0:0:0:
51,192,115562,1,0,0:0:0:0:
256,192,115720,1,0,0:0:0:0:
153,192,115877,1,0,0:0:0:0:
358,192,115877,1,0,0:0:0:0:
460,192,115877,1,0,0:0:0:0:
153,192,116191,1,0,0:0:0:0:
358,192,116191,1,0,0:0:0:0:
460,192,116191,1,0,0:0:0:0:
51,192,116505,1,0,0:0:0:0:
256,192,116505,1,0,0:0:0:0:
358,192,116662,1,0,0:0:0:0:
460,192,116662,1,0,0:0:0:0:
153,192,116662,1,0,0:0:0:0:
153,192,116976,1,0,0:0:0:0:
358,192,116976,1,0,0:0:0:0:
460,192,116976,1,0,0:0:0:0:
153,192,117447,1,0,0:0:0:0:
51,192,117447,1,0,0:0:0:0:
358,192,117447,1,0,0:0:0:0:
460,192,117447,1,0,0:0:0:0:
153,192,117761,1,0,0:0:0:0:
358,192,117761,1,0,0:0:0:0:
460,192,117918,1,0,0:0:0:0:
256,192,117997,1,0,0:0:0:0:
51,192,118076,1,0,0:0:0:0:
358,192,118233,1,0,0:0:0:0:
153,192,118233,1,0,0:0:0:0:
256,192,118390,1,0,0:0:0:0:
460,192,118390,1,0,0:0:0:0:
153,192,118547,1,0,0:0:0:0:
358,192,118704,1,0,0:0:0:0:
51,192,118704,1,0,0:0:0:0:
153,192,118861,1,0,0:0:0:0:
256,192,119018,1,0,0:0:0:0:
460,192,119018,1,0,0:0:0:0:
358,192,119175,1,0,0:0:0:0:
460,192,119332,1,0,0:0:0:0:
51,192,119332,1,0,0:0:0:0:
153,192,119489,1,0,0:0:0:0:
256,192,119646,1,0,0:0:0:0:
460,192,119646,1,0,0:0:0:0:
153,192,119803,1,0,0:0:0:0:
358,192,119803,1,0,0:0:0:0:
51,192,119960,1,0,0:0:0:0:
256,192,119960,1,0,0:0:0:0:
153,192,120117,1,0,0:0:0:0:
256,192,120274,1,0,0:0:0:0:
358,192,120274,1,0,0:0:0:0:
460,192,120274,1,0,0:0:0:0:
256,192,120510,1,0,0:0:0:0:
358,192,120510,1,0,0:0:0:0:
460,192,120510,1,0,0:0:0:0:
256,192,120746,1,0,0:0:0:0:
358,192,120746,1,0,0:0:0:0:
460,192,120746,1,0,0:0:0:0:
51,192,120903,1,0,0:0:0:0:
153,192,120903,1,0,0:0:0:0:
256,192,120903,1,0,0:0:0:0:
