osu file format v14

[General]
AudioFilename: Long.mp3
AudioLeadIn: 0
PreviewTime: -1
Countdown: 1
SampleSet: Soft
StackLeniency: 0.7
Mode: 0
LetterboxInBreaks: 1
WidescreenStoryboard: 0

[Editor]
DistanceSpacing: 0.5
BeatDivisor: 8
GridSize: 32
TimelineZoom: 4.299998

[Metadata]
Title:PianoSolo Chapter III
TitleUnicode:PianoSolo Chapter III
Artist:pandorawindy
ArtistUnicode:pandorawindy
Creator:pandorawindy
Version:Standard
Source:
Tags:
BeatmapID:736992
BeatmapSetID:332946

[Difficulty]
HPDrainRate:5
CircleSize:5
OverallDifficulty:5
ApproachRate:8
SliderMultiplier:1.4
SliderTickRate:1

[Events]
//Background and Video events
//Break Periods
//Storyboard Layer 0 (Background)
//Storyboard Layer 1 (Fail)
//Storyboard Layer 2 (Pass)
//Storyboard Layer 3 (Foreground)
//Storyboard Sound Samples
Sample,1714,0,"soft-hitnormal121.ogg",65
Sample,1714,0,"soft-hitnormal43.ogg",100
Sample,2571,0,"soft-hitnormal42.ogg",100
Sample,2571,0,"soft-hitnormal126.ogg",65
Sample,3428,0,"soft-hitnormal119.ogg",65
Sample,3428,0,"soft-hitnormal38.ogg",100
Sample,4071,0,"soft-hitnormal134.ogg",65
Sample,5142,0,"soft-hitnormal43.ogg",100
Sample,5142,0,"soft-hitnormal122.ogg",65
Sample,5142,0,"soft-hitnormal110.ogg",65
Sample,5571,0,"soft-hitnormal53.ogg",100
Sample,5785,0,"soft-hitnormal50.ogg",100
Sample,6214,0,"soft-hitnormal110.ogg",65
Sample,6214,0,"soft-hitnormal34.ogg",100
Sample,6214,0,"soft-hitnormal122.ogg",65
Sample,6857,0,"soft-hitnormal34.ogg",100
Sample,6857,0,"soft-hitnormal103.ogg",65
Sample,6857,0,"soft-hitnormal115.ogg",65
Sample,7071,0,"soft-hitnormal122.ogg",65
Sample,7071,0,"soft-hitnormal36.ogg",100
Sample,7285,0,"soft-hitnormal50.ogg",100
Sample,7285,0,"soft-hitnormal126.ogg",65
Sample,7500,0,"soft-hitnormal36.ogg",100
Sample,7500,0,"soft-hitnormal131.ogg",65
Sample,7928,0,"soft-hitnormal34.ogg",100
Sample,8571,0,"soft-hitnormal34.ogg",100
Sample,8571,0,"soft-hitnormal102.ogg",65
Sample,8571,0,"soft-hitnormal114.ogg",65
Sample,8785,0,"soft-hitnormal122.ogg",65
Sample,8785,0,"soft-hitnormal36.ogg",100
Sample,9000,0,"soft-hitnormal50.ogg",100
Sample,9000,0,"soft-hitnormal126.ogg",65
Sample,9214,0,"soft-hitnormal36.ogg",100
Sample,9214,0,"soft-hitnormal129.ogg",65
Sample,9642,0,"soft-hitnormal34.ogg",100
Sample,10071,0,"soft-hitnormal29.ogg",100
Sample,10285,0,"soft-hitnormal112.ogg",65
Sample,10285,0,"soft-hitnormal28.ogg",100
Sample,10714,0,"soft-hitnormal122.ogg",65
Sample,11142,0,"soft-hitnormal122.ogg",65
Sample,11357,0,"soft-hitnormal119.ogg",65
Sample,11571,0,"soft-hitnormal122.ogg",65
Sample,12000,0,"soft-hitnormal105.ogg",65
Sample,15428,0,"soft-hitnormal126.ogg",65
Sample,15428,0,"soft-hitnormal122.ogg",65
Sample,15428,0,"soft-hitnormal129.ogg",65
Sample,17142,0,"soft-hitnormal130.ogg",65
Sample,17142,0,"soft-hitnormal124.ogg",65
Sample,18000,0,"soft-hitnormal30.ogg",100
Sample,18000,0,"soft-hitnormal114.ogg",65
Sample,18857,0,"soft-hitnormal33.ogg",100
Sample,18857,0,"soft-hitnormal119.ogg",65
Sample,20571,0,"soft-hitnormal117.ogg",65
Sample,21000,0,"soft-hitnormal127.ogg",65
Sample,21428,0,"soft-hitnormal41.ogg",100
Sample,21428,0,"soft-hitnormal122.ogg",65
Sample,22285,0,"soft-hitnormal115.ogg",65
Sample,22928,0,"soft-hitnormal122.ogg",65
Sample,23357,0,"soft-hitnormal131.ogg",65
Sample,23571,0,"soft-hitnormal122.ogg",65
Sample,24000,0,"soft-hitnormal114.ogg",65
Sample,24000,0,"soft-hitnormal29.ogg",100
Sample,24857,0,"soft-hitnormal124.ogg",65
Sample,25285,0,"soft-hitnormal122.ogg",65
Sample,25714,0,"soft-hitnormal33.ogg",100
Sample,25714,0,"soft-hitnormal112.ogg",65
Sample,26571,0,"soft-hitnormal31.ogg",100
Sample,27428,0,"soft-hitnormal117.ogg",65
Sample,27428,0,"soft-hitnormal31.ogg",100
Sample,29142,0,"soft-hitnormal110.ogg",65
Sample,29571,0,"soft-hitnormal117.ogg",65
Sample,30000,0,"soft-hitnormal122.ogg",65
Sample,30428,0,"soft-hitnormal126.ogg",65
Sample,30857,0,"soft-hitnormal109.ogg",65
Sample,30857,0,"soft-hitnormal121.ogg",65
Sample,31714,0,"soft-hitnormal102.ogg",65
Sample,31714,0,"soft-hitnormal114.ogg",65
Sample,32142,0,"soft-hitnormal121.ogg",65
Sample,32571,0,"soft-hitnormal107.ogg",65
Sample,32571,0,"soft-hitnormal119.ogg",65
Sample,32571,0,"soft-hitnormal31.ogg",100
Sample,33000,0,"soft-hitnormal117.ogg",65
Sample,33428,0,"soft-hitnormal122.ogg",65
Sample,33857,0,"soft-hitnormal119.ogg",65
Sample,34071,0,"soft-hitnormal118.ogg",65
Sample,34285,0,"soft-hitnormal105.ogg",65
Sample,34714,0,"soft-hitnormal117.ogg",65
Sample,35357,0,"soft-hitnormal104.ogg",65
Sample,35357,0,"soft-hitnormal116.ogg",65
Sample,36000,0,"soft-hitnormal115.ogg",65
Sample,36000,0,"soft-hitnormal103.ogg",65
Sample,36214,0,"soft-hitnormal117.ogg",65
Sample,36428,0,"soft-hitnormal119.ogg",65
Sample,37714,0,"soft-hitnormal114.ogg",65
Sample,37714,0,"soft-hitnormal102.ogg",65
Sample,38357,0,"soft-hitnormal114.ogg",65
Sample,38571,0,"soft-hitnormal22.ogg",100
Sample,38571,0,"soft-hitnormal119.ogg",65
Sample,38571,0,"soft-hitnormal107.ogg",65
Sample,39428,0,"soft-hitnormal40.ogg",100
Sample,39428,0,"soft-hitnormal104.ogg",65
Sample,39428,0,"soft-hitnormal116.ogg",65
Sample,39857,0,"soft-hitnormal40.ogg",100
Sample,39857,0,"soft-hitnormal119.ogg",65
Sample,40071,0,"soft-hitnormal40.ogg",100
Sample,40285,0,"soft-hitnormal124.ogg",65
Sample,40714,0,"soft-hitnormal41.ogg",100
Sample,40714,0,"soft-hitnormal119.ogg",65
Sample,40928,0,"soft-hitnormal41.ogg",100
Sample,41142,0,"soft-hitnormal105.ogg",65
Sample,42000,0,"soft-hitnormal127.ogg",65
Sample,42000,0,"soft-hitnormal29.ogg",100
Sample,42428,0,"soft-hitnormal105.ogg",65
Sample,42428,0,"soft-hitnormal38.ogg",100
Sample,42642,0,"soft-hitnormal107.ogg",65
Sample,42642,0,"soft-hitnormal39.ogg",100
Sample,42857,0,"soft-hitnormal117.ogg",65
Sample,42857,0,"soft-hitnormal29.ogg",100
Sample,42857,0,"soft-hitnormal105.ogg",65
Sample,42857,0,"soft-hitnormal41.ogg",100
Sample,43071,0,"soft-hitnormal105.ogg",65
Sample,43714,0,"soft-hitnormal105.ogg",65
Sample,43714,0,"soft-hitnormal41.ogg",100
Sample,43714,0,"soft-hitnormal117.ogg",65
Sample,44142,0,"soft-hitnormal39.ogg",100
Sample,44142,0,"soft-hitnormal105.ogg",65
Sample,44571,0,"soft-hitnormal38.ogg",100
Sample,44571,0,"soft-hitnormal110.ogg",65
Sample,44785,0,"soft-hitnormal41.ogg",100
Sample,45000,0,"soft-hitnormal117.ogg",65
Sample,45000,0,"soft-hitnormal41.ogg",100
Sample,45428,0,"soft-hitnormal126.ogg",65
Sample,46071,0,"soft-hitnormal38.ogg",100
Sample,46285,0,"soft-hitnormal33.ogg",100
Sample,46285,0,"soft-hitnormal109.ogg",65
Sample,46500,0,"soft-hitnormal41.ogg",100
Sample,46714,0,"soft-hitnormal41.ogg",100
Sample,46714,0,"soft-hitnormal117.ogg",65
Sample,46928,0,"soft-hitnormal43.ogg",100
Sample,47142,0,"soft-hitnormal121.ogg",65
Sample,47357,0,"soft-hitnormal45.ogg",100
Sample,47785,0,"soft-hitnormal43.ogg",100
Sample,48857,0,"soft-hitnormal119.ogg",65
Sample,49285,0,"soft-hitnormal29.ogg",100
Sample,49285,0,"soft-hitnormal114.ogg",65
Sample,49500,0,"soft-hitnormal29.ogg",100
Sample,49714,0,"soft-hitnormal50.ogg",100
Sample,49714,0,"soft-hitnormal105.ogg",65
Sample,50142,0,"soft-hitnormal117.ogg",65
Sample,50142,0,"soft-hitnormal51.ogg",100
Sample,50357,0,"soft-hitnormal50.ogg",100
Sample,50571,0,"soft-hitnormal120.ogg",65
Sample,50785,0,"soft-hitnormal48.ogg",100
Sample,51000,0,"soft-hitnormal117.ogg",65
Sample,51000,0,"soft-hitnormal46.ogg",100
Sample,51214,0,"soft-hitnormal46.ogg",100
Sample,52285,0,"soft-hitnormal127.ogg",65
Sample,52285,0,"soft-hitnormal43.ogg",100
Sample,52500,0,"soft-hitnormal45.ogg",100
Sample,52714,0,"soft-hitnormal103.ogg",65
Sample,52714,0,"soft-hitnormal115.ogg",65
Sample,52714,0,"soft-hitnormal39.ogg",100
Sample,52928,0,"soft-hitnormal40.ogg",100
Sample,53142,0,"soft-hitnormal104.ogg",65
Sample,53571,0,"soft-hitnormal50.ogg",100
Sample,53571,0,"soft-hitnormal126.ogg",65
Sample,53785,0,"soft-hitnormal40.ogg",100
Sample,54000,0,"soft-hitnormal131.ogg",65
Sample,54428,0,"soft-hitnormal116.ogg",65
Sample,54428,0,"soft-hitnormal104.ogg",65
Sample,54428,0,"soft-hitnormal43.ogg",100
Sample,54642,0,"soft-hitnormal45.ogg",100
Sample,54857,0,"soft-hitnormal39.ogg",100
Sample,54857,0,"soft-hitnormal117.ogg",65
Sample,54857,0,"soft-hitnormal105.ogg",65
Sample,55928,0,"soft-hitnormal45.ogg",100
Sample,56357,0,"soft-hitnormal39.ogg",100
Sample,56357,0,"soft-hitnormal107.ogg",65
Sample,56571,0,"soft-hitnormal41.ogg",100
Sample,56571,0,"soft-hitnormal117.ogg",65
Sample,56571,0,"soft-hitnormal105.ogg",65
Sample,57428,0,"soft-hitnormal29.ogg",100
Sample,57428,0,"soft-hitnormal41.ogg",100
Sample,57428,0,"soft-hitnormal117.ogg",65
Sample,57857,0,"soft-hitnormal39.ogg",100
Sample,57857,0,"soft-hitnormal33.ogg",100
Sample,57857,0,"soft-hitnormal112.ogg",65
Sample,58285,0,"soft-hitnormal38.ogg",100
Sample,58285,0,"soft-hitnormal110.ogg",65
Sample,58500,0,"soft-hitnormal41.ogg",100
Sample,58714,0,"soft-hitnormal41.ogg",100
Sample,58714,0,"soft-hitnormal117.ogg",65
Sample,59142,0,"soft-hitnormal126.ogg",65
Sample,59785,0,"soft-hitnormal38.ogg",100
Sample,60000,0,"soft-hitnormal102.ogg",65
Sample,60000,0,"soft-hitnormal42.ogg",100
Sample,60000,0,"soft-hitnormal114.ogg",65
Sample,60000,0,"soft-hitnormal33.ogg",100
Sample,60214,0,"soft-hitnormal42.ogg",100
Sample,60214,0,"soft-hitnormal33.ogg",100
Sample,60428,0,"soft-hitnormal42.ogg",100
Sample,60428,0,"soft-hitnormal33.ogg",100
Sample,60642,0,"soft-hitnormal104.ogg",65
Sample,60642,0,"soft-hitnormal33.ogg",100
Sample,60642,0,"soft-hitnormal116.ogg",65
Sample,61071,0,"soft-hitnormal106.ogg",65
Sample,61071,0,"soft-hitnormal118.ogg",65
Sample,61071,0,"soft-hitnormal45.ogg",100
Sample,61071,0,"soft-hitnormal33.ogg",100
Sample,61500,0,"soft-hitnormal45.ogg",100
Sample,61714,0,"soft-hitnormal107.ogg",65
Sample,61714,0,"soft-hitnormal46.ogg",100
Sample,62142,0,"soft-hitnormal114.ogg",65
Sample,62142,0,"soft-hitnormal41.ogg",100
Sample,62357,0,"soft-hitnormal41.ogg",100
Sample,62571,0,"soft-hitnormal119.ogg",65
Sample,62785,0,"soft-hitnormal41.ogg",100
Sample,62785,0,"soft-hitnormal38.ogg",100
Sample,63000,0,"soft-hitnormal102.ogg",65
Sample,63428,0,"soft-hitnormal55.ogg",100
Sample,63428,0,"soft-hitnormal117.ogg",65
Sample,63428,0,"soft-hitnormal105.ogg",65
Sample,63857,0,"soft-hitnormal53.ogg",100
Sample,64071,0,"soft-hitnormal50.ogg",100
Sample,64071,0,"soft-hitnormal110.ogg",65
Sample,64071,0,"soft-hitnormal122.ogg",65
Sample,64500,0,"soft-hitnormal104.ogg",65
Sample,64500,0,"soft-hitnormal46.ogg",100
Sample,64500,0,"soft-hitnormal116.ogg",65
Sample,65142,0,"soft-hitnormal103.ogg",65
Sample,66000,0,"soft-hitnormal46.ogg",100
Sample,66428,0,"soft-hitnormal103.ogg",65
Sample,66857,0,"soft-hitnormal102.ogg",65
Sample,67714,0,"soft-hitnormal46.ogg",100
Sample,67928,0,"soft-hitnormal48.ogg",100
Sample,67928,0,"soft-hitnormal110.ogg",65
Sample,67928,0,"soft-hitnormal122.ogg",65
Sample,68142,0,"soft-hitnormal50.ogg",100
Sample,68357,0,"soft-hitnormal50.ogg",100
Sample,68571,0,"soft-hitnormal104.ogg",65
Sample,69000,0,"soft-hitnormal116.ogg",65
Sample,69000,0,"soft-hitnormal48.ogg",100
Sample,69214,0,"soft-hitnormal46.ogg",100
Sample,69428,0,"soft-hitnormal119.ogg",65
Sample,69857,0,"soft-hitnormal116.ogg",65
Sample,69857,0,"soft-hitnormal104.ogg",65
Sample,69857,0,"soft-hitnormal43.ogg",100
Sample,70285,0,"soft-hitnormal41.ogg",100
Sample,70285,0,"soft-hitnormal48.ogg",100
Sample,70285,0,"soft-hitnormal105.ogg",65
Sample,70285,0,"soft-hitnormal117.ogg",65
Sample,70671,0,"soft-hitnormal41.ogg",100
Sample,70714,0,"soft-hitnormal117.ogg",65
Sample,70714,0,"soft-hitnormal105.ogg",65
Sample,71142,0,"soft-hitnormal105.ogg",65
Sample,71142,0,"soft-hitnormal117.ogg",65
Sample,71571,0,"soft-hitnormal117.ogg",65
Sample,71571,0,"soft-hitnormal105.ogg",65
Sample,72000,0,"soft-hitnormal105.ogg",65
Sample,72000,0,"soft-hitnormal48.ogg",100
Sample,72000,0,"soft-hitnormal117.ogg",65
Sample,75428,0,"soft-hitnormal105.ogg",65
Sample,75642,0,"soft-hitnormal50.ogg",100
Sample,75857,0,"soft-hitnormal51.ogg",100
Sample,76071,0,"soft-hitnormal105.ogg",65
Sample,76071,0,"soft-hitnormal117.ogg",65
Sample,76071,0,"soft-hitnormal50.ogg",100
Sample,76285,0,"soft-hitnormal51.ogg",100
Sample,76285,0,"soft-hitnormal105.ogg",65
Sample,76285,0,"soft-hitnormal117.ogg",65
Sample,76500,0,"soft-hitnormal107.ogg",65
Sample,76500,0,"soft-hitnormal50.ogg",100
Sample,76500,0,"soft-hitnormal119.ogg",65
Sample,76714,0,"soft-hitnormal39.ogg",100
Sample,76714,0,"soft-hitnormal122.ogg",65
Sample,76714,0,"soft-hitnormal110.ogg",65
Sample,77142,0,"soft-hitnormal110.ogg",65
Sample,77571,0,"soft-hitnormal117.ogg",65
Sample,78000,0,"soft-hitnormal122.ogg",65
Sample,78428,0,"soft-hitnormal126.ogg",65
Sample,78857,0,"soft-hitnormal121.ogg",65
Sample,78857,0,"soft-hitnormal109.ogg",65
Sample,79714,0,"soft-hitnormal102.ogg",65
Sample,79714,0,"soft-hitnormal114.ogg",65
Sample,80142,0,"soft-hitnormal121.ogg",65
Sample,80571,0,"soft-hitnormal107.ogg",65
Sample,80571,0,"soft-hitnormal119.ogg",65
Sample,80571,0,"soft-hitnormal31.ogg",100
Sample,81000,0,"soft-hitnormal117.ogg",65
Sample,81428,0,"soft-hitnormal122.ogg",65
Sample,81857,0,"soft-hitnormal119.ogg",65
Sample,82071,0,"soft-hitnormal118.ogg",65
Sample,82285,0,"soft-hitnormal105.ogg",65
Sample,82714,0,"soft-hitnormal117.ogg",65
Sample,83357,0,"soft-hitnormal116.ogg",65
Sample,83357,0,"soft-hitnormal104.ogg",65
Sample,84000,0,"soft-hitnormal103.ogg",65
Sample,84000,0,"soft-hitnormal115.ogg",65
Sample,84214,0,"soft-hitnormal117.ogg",65
Sample,84428,0,"soft-hitnormal119.ogg",65
Sample,85714,0,"soft-hitnormal114.ogg",65
Sample,85714,0,"soft-hitnormal102.ogg",65
Sample,86357,0,"soft-hitnormal114.ogg",65
Sample,86571,0,"soft-hitnormal22.ogg",100
Sample,86571,0,"soft-hitnormal119.ogg",65
Sample,86571,0,"soft-hitnormal107.ogg",65
Sample,87428,0,"soft-hitnormal40.ogg",100
Sample,87428,0,"soft-hitnormal116.ogg",65
Sample,87428,0,"soft-hitnormal104.ogg",65
Sample,87857,0,"soft-hitnormal40.ogg",100
Sample,87857,0,"soft-hitnormal119.ogg",65
Sample,88071,0,"soft-hitnormal40.ogg",100
Sample,88285,0,"soft-hitnormal124.ogg",65
Sample,88714,0,"soft-hitnormal119.ogg",65
Sample,88714,0,"soft-hitnormal41.ogg",100
Sample,88928,0,"soft-hitnormal41.ogg",100
Sample,89142,0,"soft-hitnormal105.ogg",65
Sample,90000,0,"soft-hitnormal29.ogg",100
Sample,90000,0,"soft-hitnormal127.ogg",65
Sample,90428,0,"soft-hitnormal38.ogg",100
Sample,90428,0,"soft-hitnormal105.ogg",65
Sample,90642,0,"soft-hitnormal107.ogg",65
Sample,90642,0,"soft-hitnormal39.ogg",100
Sample,90857,0,"soft-hitnormal41.ogg",100
Sample,90857,0,"soft-hitnormal29.ogg",100
Sample,90857,0,"soft-hitnormal105.ogg",65
Sample,90857,0,"soft-hitnormal117.ogg",65
Sample,91071,0,"soft-hitnormal105.ogg",65
Sample,91714,0,"soft-hitnormal105.ogg",65
Sample,91714,0,"soft-hitnormal117.ogg",65
Sample,91714,0,"soft-hitnormal41.ogg",100
Sample,92142,0,"soft-hitnormal39.ogg",100
Sample,92142,0,"soft-hitnormal105.ogg",65
Sample,92571,0,"soft-hitnormal110.ogg",65
Sample,92571,0,"soft-hitnormal34.ogg",100
Sample,92785,0,"soft-hitnormal41.ogg",100
Sample,93000,0,"soft-hitnormal117.ogg",65
Sample,93000,0,"soft-hitnormal41.ogg",100
Sample,93428,0,"soft-hitnormal126.ogg",65
Sample,94071,0,"soft-hitnormal34.ogg",100
Sample,94285,0,"soft-hitnormal33.ogg",100
Sample,94285,0,"soft-hitnormal109.ogg",65
Sample,94500,0,"soft-hitnormal41.ogg",100
Sample,94714,0,"soft-hitnormal41.ogg",100
Sample,94714,0,"soft-hitnormal117.ogg",65
Sample,94928,0,"soft-hitnormal43.ogg",100
Sample,95142,0,"soft-hitnormal121.ogg",65
Sample,95357,0,"soft-hitnormal45.ogg",100
Sample,95785,0,"soft-hitnormal43.ogg",100
Sample,96857,0,"soft-hitnormal119.ogg",65
Sample,97285,0,"soft-hitnormal29.ogg",100
Sample,97285,0,"soft-hitnormal114.ogg",65
Sample,97500,0,"soft-hitnormal29.ogg",100
Sample,97714,0,"soft-hitnormal50.ogg",100
Sample,97714,0,"soft-hitnormal105.ogg",65
Sample,98142,0,"soft-hitnormal51.ogg",100
Sample,98142,0,"soft-hitnormal117.ogg",65
Sample,98357,0,"soft-hitnormal50.ogg",100
Sample,98571,0,"soft-hitnormal120.ogg",65
Sample,98785,0,"soft-hitnormal48.ogg",100
Sample,99000,0,"soft-hitnormal117.ogg",65
Sample,99000,0,"soft-hitnormal46.ogg",100
Sample,99214,0,"soft-hitnormal46.ogg",100
Sample,100285,0,"soft-hitnormal127.ogg",65
Sample,100285,0,"soft-hitnormal43.ogg",100
Sample,100500,0,"soft-hitnormal45.ogg",100
Sample,100714,0,"soft-hitnormal115.ogg",65
Sample,100714,0,"soft-hitnormal103.ogg",65
Sample,100714,0,"soft-hitnormal39.ogg",100
Sample,100928,0,"soft-hitnormal40.ogg",100
Sample,101142,0,"soft-hitnormal104.ogg",65
Sample,101571,0,"soft-hitnormal126.ogg",65
Sample,101571,0,"soft-hitnormal50.ogg",100
Sample,101785,0,"soft-hitnormal40.ogg",100
Sample,102000,0,"soft-hitnormal131.ogg",65
Sample,102428,0,"soft-hitnormal43.ogg",100
Sample,102428,0,"soft-hitnormal116.ogg",65
Sample,102428,0,"soft-hitnormal104.ogg",65
Sample,102642,0,"soft-hitnormal45.ogg",100
Sample,102857,0,"soft-hitnormal105.ogg",65
Sample,102857,0,"soft-hitnormal117.ogg",65
Sample,102857,0,"soft-hitnormal39.ogg",100
Sample,103928,0,"soft-hitnormal45.ogg",100
Sample,104357,0,"soft-hitnormal107.ogg",65
Sample,104357,0,"soft-hitnormal39.ogg",100
Sample,104571,0,"soft-hitnormal105.ogg",65
Sample,104571,0,"soft-hitnormal41.ogg",100
Sample,104571,0,"soft-hitnormal117.ogg",65
Sample,105428,0,"soft-hitnormal41.ogg",100
Sample,105428,0,"soft-hitnormal117.ogg",65
Sample,105428,0,"soft-hitnormal29.ogg",100
Sample,105857,0,"soft-hitnormal33.ogg",100
Sample,105857,0,"soft-hitnormal112.ogg",65
Sample,105857,0,"soft-hitnormal39.ogg",100
Sample,106285,0,"soft-hitnormal110.ogg",65
Sample,106285,0,"soft-hitnormal34.ogg",100
Sample,106500,0,"soft-hitnormal41.ogg",100
Sample,106714,0,"soft-hitnormal117.ogg",65
Sample,106714,0,"soft-hitnormal41.ogg",100
Sample,107142,0,"soft-hitnormal126.ogg",65
Sample,107785,0,"soft-hitnormal34.ogg",100
Sample,108000,0,"soft-hitnormal42.ogg",100
Sample,108000,0,"soft-hitnormal114.ogg",65
Sample,108000,0,"soft-hitnormal102.ogg",65
Sample,108000,0,"soft-hitnormal33.ogg",100
Sample,108214,0,"soft-hitnormal33.ogg",100
Sample,108214,0,"soft-hitnormal42.ogg",100
Sample,108428,0,"soft-hitnormal33.ogg",100
Sample,108428,0,"soft-hitnormal42.ogg",100
Sample,108642,0,"soft-hitnormal33.ogg",100
Sample,108642,0,"soft-hitnormal104.ogg",65
Sample,108642,0,"soft-hitnormal116.ogg",65
Sample,109071,0,"soft-hitnormal45.ogg",100
Sample,109071,0,"soft-hitnormal106.ogg",65
Sample,109071,0,"soft-hitnormal118.ogg",65
Sample,109071,0,"soft-hitnormal33.ogg",100
Sample,109500,0,"soft-hitnormal45.ogg",100
Sample,109714,0,"soft-hitnormal107.ogg",65
Sample,109714,0,"soft-hitnormal46.ogg",100
Sample,110142,0,"soft-hitnormal114.ogg",65
Sample,110142,0,"soft-hitnormal41.ogg",100
Sample,110357,0,"soft-hitnormal41.ogg",100
Sample,110571,0,"soft-hitnormal119.ogg",65
Sample,110785,0,"soft-hitnormal34.ogg",100
Sample,110785,0,"soft-hitnormal41.ogg",100
Sample,111000,0,"soft-hitnormal102.ogg",65
Sample,111428,0,"soft-hitnormal55.ogg",100
Sample,111428,0,"soft-hitnormal105.ogg",65
Sample,111428,0,"soft-hitnormal117.ogg",65
Sample,111857,0,"soft-hitnormal53.ogg",100
Sample,112071,0,"soft-hitnormal122.ogg",65
Sample,112071,0,"soft-hitnormal110.ogg",65
Sample,112071,0,"soft-hitnormal50.ogg",100
Sample,112500,0,"soft-hitnormal104.ogg",65
Sample,112500,0,"soft-hitnormal116.ogg",65
Sample,112500,0,"soft-hitnormal46.ogg",100
Sample,113142,0,"soft-hitnormal103.ogg",65
Sample,114000,0,"soft-hitnormal46.ogg",100
Sample,114428,0,"soft-hitnormal103.ogg",65
Sample,114857,0,"soft-hitnormal102.ogg",65
Sample,115714,0,"soft-hitnormal46.ogg",100
Sample,115928,0,"soft-hitnormal110.ogg",65
Sample,115928,0,"soft-hitnormal122.ogg",65
Sample,115928,0,"soft-hitnormal48.ogg",100
Sample,116142,0,"soft-hitnormal50.ogg",100
Sample,116357,0,"soft-hitnormal50.ogg",100
Sample,116571,0,"soft-hitnormal104.ogg",65
Sample,117000,0,"soft-hitnormal48.ogg",100
Sample,117000,0,"soft-hitnormal116.ogg",65
Sample,117214,0,"soft-hitnormal46.ogg",100
Sample,117428,0,"soft-hitnormal119.ogg",65
Sample,117857,0,"soft-hitnormal116.ogg",65
Sample,117857,0,"soft-hitnormal43.ogg",100
Sample,117857,0,"soft-hitnormal104.ogg",65
Sample,118285,0,"soft-hitnormal117.ogg",65
Sample,118285,0,"soft-hitnormal105.ogg",65
Sample,118285,0,"soft-hitnormal48.ogg",100
Sample,118285,0,"soft-hitnormal41.ogg",100
Sample,118671,0,"soft-hitnormal41.ogg",100
Sample,118714,0,"soft-hitnormal105.ogg",65
Sample,118714,0,"soft-hitnormal117.ogg",65
Sample,119142,0,"soft-hitnormal105.ogg",65
Sample,119142,0,"soft-hitnormal117.ogg",65
Sample,119571,0,"soft-hitnormal105.ogg",65
Sample,119571,0,"soft-hitnormal117.ogg",65
Sample,120000,0,"soft-hitnormal105.ogg",65
Sample,120000,0,"soft-hitnormal48.ogg",100
Sample,120000,0,"soft-hitnormal117.ogg",65
Sample,120428,0,"soft-hitnormal117.ogg",65
Sample,120428,0,"soft-hitnormal105.ogg",65
Sample,120857,0,"soft-hitnormal106.ogg",65
Sample,121285,0,"soft-hitnormal118.ogg",65
Sample,121285,0,"soft-hitnormal106.ogg",65
Sample,121714,0,"soft-hitnormal119.ogg",65
Sample,121714,0,"soft-hitnormal46.ogg",100
Sample,121714,0,"soft-hitnormal107.ogg",65
Sample,122571,0,"soft-hitnormal41.ogg",100
Sample,122571,0,"soft-hitnormal122.ogg",65
Sample,122571,0,"soft-hitnormal119.ogg",65
Sample,122785,0,"soft-hitnormal43.ogg",100
Sample,123000,0,"soft-hitnormal114.ogg",65
Sample,123000,0,"soft-hitnormal45.ogg",100
Sample,123214,0,"soft-hitnormal46.ogg",100
Sample,123428,0,"soft-hitnormal45.ogg",100
Sample,123428,0,"soft-hitnormal114.ogg",65
Sample,123428,0,"soft-hitnormal102.ogg",65
Sample,123857,0,"soft-hitnormal45.ogg",100
Sample,123857,0,"soft-hitnormal114.ogg",65
Sample,124071,0,"soft-hitnormal43.ogg",100
Sample,124285,0,"soft-hitnormal121.ogg",65
Sample,124500,0,"soft-hitnormal41.ogg",100
Sample,125142,0,"soft-hitnormal43.ogg",100
Sample,125142,0,"soft-hitnormal112.ogg",65
Sample,125571,0,"soft-hitnormal112.ogg",65
Sample,125571,0,"soft-hitnormal43.ogg",100
Sample,125785,0,"soft-hitnormal41.ogg",100
Sample,126000,0,"soft-hitnormal105.ogg",65
Sample,126428,0,"soft-hitnormal41.ogg",100
Sample,126428,0,"soft-hitnormal105.ogg",65
Sample,126642,0,"soft-hitnormal41.ogg",100
Sample,126857,0,"soft-hitnormal110.ogg",65
Sample,126857,0,"soft-hitnormal41.ogg",100
Sample,127285,0,"soft-hitnormal105.ogg",65
Sample,127714,0,"soft-hitnormal114.ogg",65
Sample,127714,0,"soft-hitnormal46.ogg",100
Sample,128142,0,"soft-hitnormal105.ogg",65
Sample,128142,0,"soft-hitnormal50.ogg",100
Sample,128142,0,"soft-hitnormal117.ogg",65
Sample,128357,0,"soft-hitnormal48.ogg",100
Sample,128571,0,"soft-hitnormal31.ogg",100
Sample,128571,0,"soft-hitnormal107.ogg",65
Sample,129000,0,"soft-hitnormal34.ogg",100
Sample,129000,0,"soft-hitnormal114.ogg",65
Sample,129214,0,"soft-hitnormal43.ogg",100
Sample,129428,0,"soft-hitnormal119.ogg",65
Sample,129642,0,"soft-hitnormal46.ogg",100
Sample,130285,0,"soft-hitnormal116.ogg",65
Sample,130285,0,"soft-hitnormal104.ogg",65
Sample,130285,0,"soft-hitnormal40.ogg",100
Sample,130714,0,"soft-hitnormal116.ogg",65
Sample,130714,0,"soft-hitnormal40.ogg",100
Sample,130928,0,"soft-hitnormal40.ogg",100
Sample,131142,0,"soft-hitnormal119.ogg",65
Sample,132000,0,"soft-hitnormal112.ogg",65
Sample,132000,0,"soft-hitnormal50.ogg",100
Sample,132428,0,"soft-hitnormal51.ogg",100
Sample,132428,0,"soft-hitnormal119.ogg",65
Sample,132642,0,"soft-hitnormal48.ogg",100
Sample,132857,0,"soft-hitnormal127.ogg",65
Sample,133285,0,"soft-hitnormal46.ogg",100
Sample,133285,0,"soft-hitnormal119.ogg",65
Sample,133500,0,"soft-hitnormal48.ogg",100
Sample,133714,0,"soft-hitnormal48.ogg",100
Sample,133714,0,"soft-hitnormal105.ogg",65
Sample,133714,0,"soft-hitnormal117.ogg",65
Sample,134142,0,"soft-hitnormal105.ogg",65
Sample,134571,0,"soft-hitnormal105.ogg",65
Sample,134571,0,"soft-hitnormal117.ogg",65
Sample,135000,0,"soft-hitnormal117.ogg",65
Sample,135000,0,"soft-hitnormal105.ogg",65
Sample,135428,0,"soft-hitnormal105.ogg",65
Sample,135428,0,"soft-hitnormal117.ogg",65
Sample,140571,0,"soft-hitnormal41.ogg",100
Sample,140571,0,"soft-hitnormal122.ogg",65
Sample,140571,0,"soft-hitnormal48.ogg",100
Sample,141214,0,"soft-hitnormal129.ogg",65
Sample,141214,0,"soft-hitnormal46.ogg",100
Sample,142285,0,"soft-hitnormal121.ogg",65
Sample,142285,0,"soft-hitnormal43.ogg",100
Sample,142714,0,"soft-hitnormal129.ogg",65
Sample,143142,0,"soft-hitnormal33.ogg",100
Sample,143142,0,"soft-hitnormal133.ogg",65
Sample,144000,0,"soft-hitnormal119.ogg",65
Sample,144000,0,"soft-hitnormal34.ogg",100
Sample,144000,0,"soft-hitnormal46.ogg",100
Sample,144642,0,"soft-hitnormal126.ogg",65
Sample,144857,0,"soft-hitnormal131.ogg",65
Sample,145285,0,"soft-hitnormal119.ogg",65
Sample,145285,0,"soft-hitnormal107.ogg",65
Sample,145714,0,"soft-hitnormal106.ogg",65
Sample,145714,0,"soft-hitnormal35.ogg",100
Sample,145714,0,"soft-hitnormal118.ogg",65
Sample,145714,0,"soft-hitnormal30.ogg",100
Sample,145928,0,"soft-hitnormal30.ogg",100
Sample,145928,0,"soft-hitnormal35.ogg",100
Sample,145928,0,"soft-hitnormal118.ogg",65
Sample,145928,0,"soft-hitnormal106.ogg",65
Sample,146571,0,"soft-hitnormal118.ogg",65
Sample,146571,0,"soft-hitnormal42.ogg",100
Sample,147000,0,"soft-hitnormal106.ogg",65
Sample,147000,0,"soft-hitnormal37.ogg",100
Sample,147428,0,"soft-hitnormal111.ogg",65
Sample,147428,0,"soft-hitnormal35.ogg",100
Sample,147642,0,"soft-hitnormal42.ogg",100
Sample,147857,0,"soft-hitnormal118.ogg",65
Sample,147857,0,"soft-hitnormal42.ogg",100
Sample,148285,0,"soft-hitnormal123.ogg",65
Sample,148928,0,"soft-hitnormal35.ogg",100
Sample,149142,0,"soft-hitnormal110.ogg",65
Sample,149142,0,"soft-hitnormal37.ogg",100
Sample,149357,0,"soft-hitnormal37.ogg",100
Sample,149571,0,"soft-hitnormal37.ogg",100
Sample,149785,0,"soft-hitnormal115.ogg",65
Sample,149785,0,"soft-hitnormal103.ogg",65
Sample,149785,0,"soft-hitnormal44.ogg",100
Sample,150214,0,"soft-hitnormal107.ogg",65
Sample,150214,0,"soft-hitnormal39.ogg",100
Sample,150642,0,"soft-hitnormal47.ogg",100
Sample,151714,0,"soft-hitnormal123.ogg",65
Sample,152142,0,"soft-hitnormal30.ogg",100
Sample,152142,0,"soft-hitnormal108.ogg",65
Sample,152357,0,"soft-hitnormal30.ogg",100
Sample,152357,0,"soft-hitnormal107.ogg",65
Sample,152571,0,"soft-hitnormal51.ogg",100
Sample,152571,0,"soft-hitnormal106.ogg",65
Sample,153000,0,"soft-hitnormal52.ogg",100
Sample,153000,0,"soft-hitnormal106.ogg",65
Sample,153214,0,"soft-hitnormal51.ogg",100
Sample,153642,0,"soft-hitnormal49.ogg",100
Sample,153857,0,"soft-hitnormal123.ogg",65
Sample,153857,0,"soft-hitnormal115.ogg",65
Sample,153857,0,"soft-hitnormal118.ogg",65
Sample,153857,0,"soft-hitnormal47.ogg",100
Sample,154071,0,"soft-hitnormal47.ogg",100
Sample,155142,0,"soft-hitnormal128.ogg",65
Sample,155142,0,"soft-hitnormal44.ogg",100
Sample,155357,0,"soft-hitnormal40.ogg",100
Sample,155571,0,"soft-hitnormal47.ogg",100
Sample,155571,0,"soft-hitnormal104.ogg",65
Sample,155571,0,"soft-hitnormal116.ogg",65
Sample,155785,0,"soft-hitnormal49.ogg",100
Sample,156000,0,"soft-hitnormal105.ogg",65
Sample,156428,0,"soft-hitnormal51.ogg",100
Sample,156428,0,"soft-hitnormal127.ogg",65
Sample,156642,0,"soft-hitnormal49.ogg",100
Sample,156857,0,"soft-hitnormal132.ogg",65
Sample,157285,0,"soft-hitnormal105.ogg",65
Sample,157285,0,"soft-hitnormal44.ogg",100
Sample,157285,0,"soft-hitnormal117.ogg",65
Sample,157500,0,"soft-hitnormal39.ogg",100
Sample,157714,0,"soft-hitnormal106.ogg",65
Sample,157714,0,"soft-hitnormal47.ogg",100
Sample,157714,0,"soft-hitnormal118.ogg",65
Sample,158785,0,"soft-hitnormal101.ogg",65
Sample,158785,0,"soft-hitnormal40.ogg",100
Sample,159214,0,"soft-hitnormal44.ogg",100
Sample,159214,0,"soft-hitnormal108.ogg",65
Sample,159428,0,"soft-hitnormal118.ogg",65
Sample,159428,0,"soft-hitnormal37.ogg",100
Sample,159428,0,"soft-hitnormal106.ogg",65
Sample,160285,0,"soft-hitnormal30.ogg",100
Sample,160285,0,"soft-hitnormal118.ogg",65
Sample,160285,0,"soft-hitnormal42.ogg",100
Sample,160714,0,"soft-hitnormal37.ogg",100
Sample,160714,0,"soft-hitnormal40.ogg",100
Sample,160714,0,"soft-hitnormal113.ogg",65
Sample,161142,0,"soft-hitnormal35.ogg",100
Sample,161142,0,"soft-hitnormal111.ogg",65
Sample,161357,0,"soft-hitnormal42.ogg",100
Sample,161571,0,"soft-hitnormal42.ogg",100
Sample,162000,0,"soft-hitnormal111.ogg",65
Sample,162000,0,"soft-hitnormal51.ogg",100
Sample,162285,0,"soft-hitnormal113.ogg",65
Sample,162285,0,"soft-hitnormal49.ogg",100
Sample,162285,0,"soft-hitnormal101.ogg",65
Sample,162571,0,"soft-hitnormal114.ogg",65
Sample,162571,0,"soft-hitnormal35.ogg",100
Sample,162571,0,"soft-hitnormal102.ogg",65
Sample,162857,0,"soft-hitnormal46.ogg",100
Sample,162857,0,"soft-hitnormal115.ogg",65
Sample,162857,0,"soft-hitnormal103.ogg",65
Sample,163285,0,"soft-hitnormal27.ogg",100
Sample,163285,0,"soft-hitnormal115.ogg",65
Sample,163500,0,"soft-hitnormal51.ogg",100
Sample,163714,0,"soft-hitnormal107.ogg",65
Sample,164142,0,"soft-hitnormal115.ogg",65
Sample,164142,0,"soft-hitnormal49.ogg",100
Sample,164142,0,"soft-hitnormal103.ogg",65
Sample,164357,0,"soft-hitnormal35.ogg",100
Sample,165000,0,"soft-hitnormal42.ogg",100
Sample,165000,0,"soft-hitnormal115.ogg",65
Sample,165214,0,"soft-hitnormal42.ogg",100
Sample,165428,0,"soft-hitnormal120.ogg",65
Sample,165642,0,"soft-hitnormal42.ogg",100
Sample,165642,0,"soft-hitnormal35.ogg",100
Sample,165857,0,"soft-hitnormal103.ogg",65
Sample,166285,0,"soft-hitnormal106.ogg",65
Sample,166285,0,"soft-hitnormal118.ogg",65
Sample,166285,0,"soft-hitnormal56.ogg",100
Sample,166714,0,"soft-hitnormal54.ogg",100
Sample,166928,0,"soft-hitnormal47.ogg",100
Sample,166928,0,"soft-hitnormal123.ogg",65
Sample,166928,0,"soft-hitnormal111.ogg",65
Sample,167357,0,"soft-hitnormal105.ogg",65
Sample,167357,0,"soft-hitnormal47.ogg",100
Sample,167357,0,"soft-hitnormal117.ogg",65
Sample,168000,0,"soft-hitnormal104.ogg",65
Sample,168857,0,"soft-hitnormal47.ogg",100
Sample,169285,0,"soft-hitnormal104.ogg",65
Sample,169714,0,"soft-hitnormal103.ogg",65
Sample,170571,0,"soft-hitnormal47.ogg",100
Sample,170785,0,"soft-hitnormal49.ogg",100
Sample,170785,0,"soft-hitnormal123.ogg",65
Sample,170785,0,"soft-hitnormal111.ogg",65
Sample,171000,0,"soft-hitnormal51.ogg",100
Sample,171214,0,"soft-hitnormal51.ogg",100
Sample,171428,0,"soft-hitnormal105.ogg",65
Sample,171857,0,"soft-hitnormal49.ogg",100
Sample,171857,0,"soft-hitnormal117.ogg",65
Sample,172071,0,"soft-hitnormal47.ogg",100
Sample,172285,0,"soft-hitnormal120.ogg",65
Sample,172714,0,"soft-hitnormal44.ogg",100
Sample,172714,0,"soft-hitnormal105.ogg",65
Sample,172714,0,"soft-hitnormal117.ogg",65
Sample,173142,0,"soft-hitnormal49.ogg",100
Sample,173142,0,"soft-hitnormal118.ogg",65
Sample,173142,0,"soft-hitnormal37.ogg",100
Sample,173142,0,"soft-hitnormal106.ogg",65
Sample,173528,0,"soft-hitnormal37.ogg",100
Sample,173571,0,"soft-hitnormal118.ogg",65
Sample,173571,0,"soft-hitnormal106.ogg",65
Sample,174000,0,"soft-hitnormal106.ogg",65
Sample,174000,0,"soft-hitnormal118.ogg",65
Sample,174428,0,"soft-hitnormal106.ogg",65
Sample,174428,0,"soft-hitnormal118.ogg",65
Sample,174857,0,"soft-hitnormal118.ogg",65
Sample,174857,0,"soft-hitnormal49.ogg",100
Sample,174857,0,"soft-hitnormal106.ogg",65
Sample,178285,0,"soft-hitnormal128.ogg",65
Sample,178285,0,"soft-hitnormal44.ogg",100
Sample,178285,0,"soft-hitnormal51.ogg",100
Sample,178714,0,"soft-hitnormal35.ogg",100
Sample,179142,0,"soft-hitnormal127.ogg",65
Sample,179142,0,"soft-hitnormal49.ogg",100
Sample,179571,0,"soft-hitnormal46.ogg",100
Sample,180000,0,"soft-hitnormal35.ogg",100
Sample,180000,0,"soft-hitnormal125.ogg",65
Sample,180428,0,"soft-hitnormal32.ogg",100
Sample,181285,0,"soft-hitnormal28.ogg",100
Sample,181714,0,"soft-hitnormal111.ogg",65

[TimingPoints]
0,428.571428571429,4,1,0,100,1,0
0,-100,4,2,122,65,0,0
53,-100,4,2,46,100,0,0
107,-100,4,2,41,100,0,0
160,-100,4,2,38,100,0,0
642,-100,4,2,41,100,0,0
857,-100,4,2,46,100,0,0
1071,-100,4,2,48,100,0,0
1285,-100,4,2,50,100,0,0
1714,-100,4,2,50,100,0,0
2571,-100,4,2,48,100,0,0
3000,-100,4,2,43,100,0,0
3214,-100,4,2,45,100,0,0
3428,-100,4,2,46,100,0,0
3642,-100,4,2,126,65,0,0
3857,-100,4,2,133,65,0,0
4071,-100,4,2,41,100,0,0
4285,-100,4,2,34,100,0,0
4500,-100,4,2,36,100,0,0
4714,-100,4,2,38,100,0,0
5142,-100,4,2,48,100,0,0
5571,-100,4,2,41,100,0,0
5785,-100,4,2,38,100,0,0
6214,-100,4,2,46,100,0,0
6857,-100,4,2,46,100,0,0
7071,-100,4,2,48,100,0,0
7285,-100,4,2,38,100,0,0
7500,-100,4,2,48,100,0,0
7928,-100,4,2,46,100,0,0
8571,-100,4,2,46,100,0,0
8785,-100,4,2,48,100,0,0
9000,-100,4,2,38,100,0,0
9214,-100,4,2,48,100,0,0
9642,-100,4,2,46,100,0,0
10071,-100,4,2,41,100,0,0
10285,-100,4,2,40,100,0,0
10500,-100,4,2,119,65,0,0
10714,-100,4,2,34,100,0,0
10928,-100,4,2,119,65,0,0
11142,-100,4,2,34,100,0,0
11357,-100,4,2,36,100,0,0
11571,-100,4,2,38,100,0,0
12000,-100,4,2,117,65,0,0
12053,-100,4,2,41,100,0,0
12107,-100,4,2,36,100,0,0
12160,-100,4,2,34,100,0,0
15428,-100,4,2,34,100,0,0
15642,-100,4,2,34,100,0,0
15857,-100,4,2,34,100,0,0
16071,-100,4,2,29,100,0,0
16285,-100,4,2,34,100,0,0
16500,-100,4,2,36,100,0,0
16714,-100,4,2,38,100,0,0
16928,-100,4,2,38,100,0,0
17142,-100,4,2,121,65,0,0
17357,-100,4,2,36,100,0,0
17571,-100,4,2,36,100,0,0
18000,-100,4,2,38,100,0,0
18857,-100,4,2,34,100,0,0
19071,-100,4,2,34,100,0,0
19285,-100,4,2,34,100,0,0
19500,-100,4,2,29,100,0,0
19714,-100,4,2,34,100,0,0
19928,-100,4,2,36,100,0,0
20142,-100,4,2,38,100,0,0
20357,-100,4,2,43,100,0,0
20571,-100,4,2,36,100,0,0
20785,-100,4,2,41,100,0,0
21000,-100,4,2,41,100,0,0
21428,-100,4,2,38,100,0,0
22178,-100,4,2,29,100,0,0
22232,-100,4,2,34,100,0,0
22285,-100,4,2,36,100,0,0
22714,-100,4,2,38,100,0,0
22928,-100,4,2,36,100,0,0
23142,-100,4,2,129,65,0,0
23357,-100,4,2,34,100,0,0
23571,-100,4,2,34,100,0,0
24000,-100,4,2,34,100,0,0
24214,-100,4,2,36,100,0,0
24428,-100,4,2,38,100,0,0
24642,-100,4,2,36,100,0,0
24857,-100,4,2,129,65,0,0
25071,-100,4,2,34,100,0,0
25285,-100,4,2,34,100,0,0
25714,-100,4,2,38,100,0,0
26142,-100,4,2,31,100,0,0
26357,-100,4,2,31,100,0,0
26571,-100,4,2,34,100,0,0
26785,-100,4,2,36,100,0,0
27000,-100,4,2,38,100,0,0
27428,-100,4,2,36,100,0,0
28339,-100,4,2,129,65,0,0
28392,-100,4,2,124,65,0,0
28446,-100,4,2,117,65,0,0
28714,-100,4,2,122,65,0,0
28928,-100,4,2,105,65,0,0
29142,-100,4,2,31,100,0,0
29357,-100,4,2,34,100,0,0
29571,-100,4,2,34,100,0,0
29785,-100,4,2,29,100,0,0
30000,-100,4,2,34,100,0,0
30214,-100,4,2,36,100,0,0
30428,-100,4,2,38,100,0,0
30857,-100,4,2,38,100,0,0
31285,-100,4,2,36,100,0,0
31500,-100,4,2,36,100,0,0
31714,-100,4,2,30,100,0,0
32142,-100,4,2,31,100,0,0
32357,-100,4,2,33,100,0,0
32571,-100,4,2,34,100,0,0
32785,-100,4,2,34,100,0,0
33000,-100,4,2,34,100,0,0
33214,-100,4,2,29,100,0,0
33428,-100,4,2,34,100,0,0
33642,-100,4,2,36,100,0,0
33857,-100,4,2,38,100,0,0
34071,-100,4,2,43,100,0,0
34285,-100,4,2,117,65,0,0
34500,-100,4,2,41,100,0,0
34714,-100,4,2,41,100,0,0
34928,-100,4,2,122,65,0,0
35357,-100,4,2,46,100,0,0
36000,-100,4,2,38,100,0,0
36214,-100,4,2,36,100,0,0
36428,-100,4,2,34,100,0,0
36642,-100,4,2,122,65,0,0
36857,-100,4,2,126,65,0,0
37285,-100,4,2,34,100,0,0
37500,-100,4,2,34,100,0,0
37607,-100,4,2,24,100,0,0
37642,-100,4,2,26,100,0,0
37678,-100,4,2,29,100,0,0
37714,-100,4,2,38,100,0,0
37928,-100,4,2,36,100,0,0
38142,-100,4,2,34,100,0,0
38357,-100,4,2,34,100,0,0
38571,-100,4,2,26,100,0,0
39214,-100,4,2,34,100,0,0
39428,-100,4,2,43,100,0,0
39857,-100,4,2,43,100,0,0
40071,-100,4,2,43,100,0,0
40285,-100,4,2,40,100,0,0
40714,-100,4,2,36,100,0,0
40928,-100,4,2,36,100,0,0
41142,-100,4,2,117,65,0,0
41571,-100,4,2,122,65,0,0
42000,-100,4,2,34,100,0,0
42428,-100,4,2,34,100,0,0
42642,-100,4,2,36,100,0,0
42857,-100,4,2,36,100,0,0
43071,-100,4,2,117,65,0,0
43714,-100,4,2,38,100,0,0
44142,-100,4,2,36,100,0,0
44571,-100,4,2,34,100,0,0
44785,-100,4,2,38,100,0,0
45000,-100,4,2,38,100,0,0
45428,-100,4,2,122,65,0,0
45857,-100,4,2,117,65,0,0
46071,-100,4,2,34,100,0,0
46285,-100,4,2,36,100,0,0
46500,-100,4,2,36,100,0,0
46714,-100,4,2,36,100,0,0
46928,-100,4,2,36,100,0,0
47142,-100,4,2,124,65,0,0
47357,-100,4,2,41,100,0,0
47571,-100,4,2,117,65,0,0
47785,-100,4,2,46,100,0,0
48000,-100,4,2,107,65,0,0
48428,-100,4,2,114,65,0,0
48857,-100,4,2,122,65,0,0
49285,-100,4,2,41,100,0,0
49500,-100,4,2,41,100,0,0
49714,-100,4,2,38,100,0,0
50142,-100,4,2,39,100,0,0
50357,-100,4,2,38,100,0,0
50571,-100,4,2,110,65,0,0
50785,-100,4,2,38,100,0,0
51000,-100,4,2,38,100,0,0
51214,-100,4,2,38,100,0,0
51428,-100,4,2,103,65,0,0
51642,-100,4,2,115,65,0,0
51857,-100,4,2,119,65,0,0
52071,-100,4,2,122,65,0,0
52285,-100,4,2,38,100,0,0
52500,-100,4,2,39,100,0,0
52714,-100,4,2,46,100,0,0
52928,-100,4,2,48,100,0,0
53142,-100,4,2,116,65,0,0
53571,-100,4,2,41,100,0,0
53785,-100,4,2,48,100,0,0
54000,-100,4,2,122,65,0,0
54428,-100,4,2,36,100,0,0
54642,-100,4,2,38,100,0,0
54857,-100,4,2,46,100,0,0
55285,-100,4,2,112,65,0,0
55714,-100,4,2,110,65,0,0
55928,-100,4,2,39,100,0,0
56142,-100,4,2,105,65,0,0
56357,-100,4,2,43,100,0,0
56571,-100,4,2,36,100,0,0
56785,-100,4,2,107,65,0,0
57000,-100,4,2,109,65,0,0
57214,-100,4,2,110,65,0,0
57428,-100,4,2,38,100,0,0
57642,-100,4,2,105,65,0,0
57857,-100,4,2,36,100,0,0
58071,-100,4,2,115,65,0,0
58285,-100,4,2,34,100,0,0
58500,-100,4,2,38,100,0,0
58714,-100,4,2,38,100,0,0
59142,-100,4,2,122,65,0,0
59571,-100,4,2,117,65,0,0
59785,-100,4,2,34,100,0,0
60000,-100,4,2,38,100,0,0
60214,-100,4,2,38,100,0,0
60428,-100,4,2,38,100,0,0
60642,-100,4,2,43,100,0,0
61071,-100,4,2,38,100,0,0
61500,-100,4,2,33,100,0,0
61714,-100,4,2,34,100,0,0
62142,-100,4,2,38,100,0,0
62321,-100,4,2,34,100,0,0
62357,-100,4,2,38,100,0,0
62535,-100,4,2,34,100,0,0
62571,-100,4,2,122,65,0,0
62785,-100,4,2,34,100,0,0
63000,-100,4,2,114,65,0,0
63392,-100,4,2,41,100,0,0
63428,-100,4,2,46,100,0,0
63857,-100,4,2,46,100,0,0
64071,-100,4,2,46,100,0,0
64500,-100,4,2,38,100,0,0
65142,-100,4,2,115,65,0,0
65357,-100,4,2,105,65,0,0
65571,-100,4,2,107,65,0,0
65785,-100,4,2,110,65,0,0
66000,-100,4,2,38,100,0,0
66214,-100,4,2,48,100,0,0
66428,-100,4,2,50,100,0,0
66642,-100,4,2,46,100,0,0
66857,-100,4,2,114,65,0,0
67071,-100,4,2,122,65,0,0
67285,-100,4,2,124,65,0,0
67500,-100,4,2,129,65,0,0
67714,-100,4,2,38,100,0,0
67928,-100,4,2,38,100,0,0
68142,-100,4,2,38,100,0,0
68357,-100,4,2,38,100,0,0
68571,-100,4,2,116,65,0,0
69000,-100,4,2,38,100,0,0
69214,-100,4,2,38,100,0,0
69428,-100,4,2,122,65,0,0
69857,-100,4,2,38,100,0,0
70285,-100,4,2,36,100,0,0
70678,-100,4,2,36,100,0,0
70714,-100,4,2,43,100,0,0
71107,-100,4,2,36,100,0,0
71142,-100,4,2,45,100,0,0
71535,-100,4,2,36,100,0,0
71571,-100,4,2,46,100,0,0
71785,-100,4,2,36,100,0,0
72000,-100,4,2,36,100,0,0
72428,-100,4,2,46,100,0,0
72642,-100,4,2,43,100,0,0
73285,-100,4,2,146,100,0,0
73500,-100,4,2,146,100,0,0
75428,-100,4,2,117,65,0,0
75642,-100,4,2,41,100,0,0
75857,-100,4,2,43,100,0,0
76071,-100,4,2,41,100,0,0
76285,-100,4,2,43,100,0,0
76500,-100,4,2,41,100,0,0
76714,-100,4,2,48,100,0,0
77142,-100,4,2,31,100,0,0
77357,-100,4,2,34,100,0,0
77571,-100,4,2,34,100,0,0
77785,-100,4,2,29,100,0,0
78000,-100,4,2,34,100,0,0
78214,-100,4,2,36,100,0,0
78428,-100,4,2,38,100,0,0
78857,-100,4,2,38,100,0,0
79285,-100,4,2,36,100,0,0
79500,-100,4,2,36,100,0,0
79714,-100,4,2,30,100,0,0
80142,-100,4,2,31,100,0,0
80357,-100,4,2,33,100,0,0
80571,-100,4,2,34,100,0,0
80785,-100,4,2,34,100,0,0
81000,-100,4,2,34,100,0,0
81214,-100,4,2,29,100,0,0
81428,-100,4,2,34,100,0,0
81642,-100,4,2,36,100,0,0
81857,-100,4,2,38,100,0,0
82071,-100,4,2,43,100,0,0
82285,-100,4,2,117,65,0,0
82500,-100,4,2,41,100,0,0
82714,-100,4,2,41,100,0,0
82928,-100,4,2,122,65,0,0
83357,-100,4,2,46,100,0,0
84000,-100,4,2,38,100,0,0
84214,-100,4,2,36,100,0,0
84428,-100,4,2,34,100,0,0
84642,-100,4,2,122,65,0,0
84857,-100,4,2,126,65,0,0
85285,-100,4,2,34,100,0,0
85500,-100,4,2,34,100,0,0
85607,-100,4,2,24,100,0,0
85642,-100,4,2,26,100,0,0
85678,-100,4,2,29,100,0,0
85714,-100,4,2,38,100,0,0
85928,-100,4,2,36,100,0,0
86142,-100,4,2,34,100,0,0
86357,-100,4,2,34,100,0,0
86571,-100,4,2,26,100,0,0
87214,-100,4,2,34,100,0,0
87428,-100,4,2,43,100,0,0
87857,-100,4,2,43,100,0,0
88071,-100,4,2,43,100,0,0
88285,-100,4,2,40,100,0,0
88714,-100,4,2,36,100,0,0
88928,-100,4,2,36,100,0,0
89142,-100,4,2,117,65,0,0
89571,-100,4,2,122,65,0,0
90000,-100,4,2,34,100,0,0
90428,-100,4,2,34,100,0,0
90642,-100,4,2,36,100,0,0
90857,-100,4,2,36,100,0,0
91071,-100,4,2,117,65,0,0
91714,-100,4,2,38,100,0,0
92142,-100,4,2,36,100,0,0
92571,-100,4,2,38,100,0,0
92785,-100,4,2,38,100,0,0
93000,-100,4,2,38,100,0,0
93428,-100,4,2,122,65,0,0
93857,-100,4,2,117,65,0,0
94071,-100,4,2,38,100,0,0
94285,-100,4,2,36,100,0,0
94500,-100,4,2,36,100,0,0
94714,-100,4,2,36,100,0,0
94928,-100,4,2,36,100,0,0
95142,-100,4,2,124,65,0,0
95357,-100,4,2,41,100,0,0
95571,-100,4,2,117,65,0,0
95785,-100,4,2,46,100,0,0
96000,-100,4,2,107,65,0,0
96428,-100,4,2,114,65,0,0
96857,-100,4,2,122,65,0,0
97285,-100,4,2,41,100,0,0
97500,-100,4,2,41,100,0,0
97714,-100,4,2,38,100,0,0
98142,-100,4,2,39,100,0,0
98357,-100,4,2,38,100,0,0
98571,-100,4,2,110,65,0,0
98785,-100,4,2,38,100,0,0
99000,-100,4,2,38,100,0,0
99214,-100,4,2,38,100,0,0
99428,-100,4,2,103,65,0,0
99642,-100,4,2,115,65,0,0
99857,-100,4,2,119,65,0,0
100071,-100,4,2,122,65,0,0
100285,-100,4,2,38,100,0,0
100500,-100,4,2,39,100,0,0
100714,-100,4,2,46,100,0,0
100928,-100,4,2,48,100,0,0
101142,-100,4,2,116,65,0,0
101571,-100,4,2,41,100,0,0
101785,-100,4,2,48,100,0,0
102000,-100,4,2,122,65,0,0
102428,-100,4,2,36,100,0,0
102642,-100,4,2,38,100,0,0
102857,-100,4,2,46,100,0,0
103285,-100,4,2,112,65,0,0
103714,-100,4,2,110,65,0,0
103928,-100,4,2,39,100,0,0
104142,-100,4,2,105,65,0,0
104357,-100,4,2,43,100,0,0
104571,-100,4,2,36,100,0,0
104785,-100,4,2,107,65,0,0
105000,-100,4,2,109,65,0,0
105214,-100,4,2,110,65,0,0
105428,-100,4,2,38,100,0,0
105642,-100,4,2,105,65,0,0
105857,-100,4,2,36,100,0,0
106071,-100,4,2,115,65,0,0
106285,-100,4,2,38,100,0,0
106500,-100,4,2,38,100,0,0
106714,-100,4,2,38,100,0,0
107142,-100,4,2,122,65,0,0
107571,-100,4,2,117,65,0,0
107785,-100,4,2,38,100,0,0
108000,-100,4,2,38,100,0,0
108214,-100,4,2,38,100,0,0
108428,-100,4,2,38,100,0,0
108642,-100,4,2,43,100,0,0
109071,-100,4,2,38,100,0,0
109500,-100,4,2,33,100,0,0
109714,-100,4,2,34,100,0,0
110142,-100,4,2,38,100,0,0
110321,-100,4,2,34,100,0,0
110357,-100,4,2,38,100,0,0
110535,-100,4,2,34,100,0,0
110571,-100,4,2,122,65,0,0
110785,-100,4,2,38,100,0,0
111000,-100,4,2,114,65,0,0
111392,-100,4,2,41,100,0,0
111428,-100,4,2,46,100,0,0
111857,-100,4,2,46,100,0,0
112071,-100,4,2,46,100,0,0
112500,-100,4,2,38,100,0,0
113142,-100,4,2,115,65,0,0
113357,-100,4,2,105,65,0,0
113571,-100,4,2,107,65,0,0
113785,-100,4,2,110,65,0,0
114000,-100,4,2,38,100,0,0
114214,-100,4,2,48,100,0,0
114428,-100,4,2,50,100,0,0
114642,-100,4,2,46,100,0,0
114857,-100,4,2,114,65,0,0
115071,-100,4,2,122,65,0,0
115285,-100,4,2,124,65,0,0
115500,-100,4,2,129,65,0,0
115714,-100,4,2,38,100,0,0
115928,-100,4,2,38,100,0,0
116142,-100,4,2,38,100,0,0
116357,-100,4,2,38,100,0,0
116571,-100,4,2,116,65,0,0
117000,-100,4,2,38,100,0,0
117214,-100,4,2,38,100,0,0
117428,-100,4,2,122,65,0,0
117857,-100,4,2,38,100,0,0
118285,-100,4,2,36,100,0,0
118678,-100,4,2,36,100,0,0
118714,-100,4,2,43,100,0,0
119107,-100,4,2,36,100,0,0
119142,-100,4,2,45,100,0,0
119535,-100,4,2,36,100,0,0
119571,-100,4,2,46,100,0,0
119785,-100,4,2,36,100,0,0
120000,-100,4,2,36,100,0,0
120428,-100,4,2,46,100,0,0
120642,-100,4,2,43,100,0,0
120857,-100,4,2,118,65,0,0
121285,-100,4,2,46,100,0,0
121500,-100,4,2,46,100,0,0
121714,-100,4,2,34,100,0,0
122142,-100,4,2,114,65,0,0
122571,-100,4,2,38,100,0,0
122785,-100,4,2,38,100,0,0
123000,-100,4,2,38,100,0,0
123214,-100,4,2,38,100,0,0
123428,-100,4,2,38,100,0,0
123857,-100,4,2,38,100,0,0
124071,-100,4,2,38,100,0,0
124285,-100,4,2,117,65,0,0
124500,-100,4,2,38,100,0,0
124714,-100,4,2,114,65,0,0
125142,-100,4,2,34,100,0,0
125571,-100,4,2,34,100,0,0
125785,-100,4,2,34,100,0,0
126000,-100,4,2,117,65,0,0
126428,-100,4,2,36,100,0,0
126642,-100,4,2,36,100,0,0
126857,-100,4,2,34,100,0,0
127285,-100,4,2,34,100,0,0
127500,-100,4,2,110,65,0,0
127714,-100,4,2,38,100,0,0
128142,-100,4,2,38,100,0,0
128357,-100,4,2,36,100,0,0
128571,-100,4,2,34,100,0,0
129000,-100,4,2,38,100,0,0
129214,-100,4,2,34,100,0,0
129428,-100,4,2,122,65,0,0
129642,-100,4,2,38,100,0,0
129857,-100,4,2,114,65,0,0
130285,-100,4,2,50,100,0,0
130714,-100,4,2,48,100,0,0
130928,-100,4,2,48,100,0,0
131142,-100,4,2,122,65,0,0
131571,-100,4,2,116,65,0,0
131785,-100,4,2,43,100,0,0
132000,-100,4,2,41,100,0,0
132428,-100,4,2,41,100,0,0
132642,-100,4,2,41,100,0,0
132857,-100,4,2,124,65,0,0
133285,-100,4,2,41,100,0,0
133500,-100,4,2,41,100,0,0
133714,-100,4,2,41,100,0,0
134142,-100,4,2,117,65,0,0
134571,-100,4,2,29,100,0,0
134714,-100,4,2,34,100,0,0
134857,-100,4,2,36,100,0,0
135000,-100,4,2,41,100,0,0
135142,-100,4,2,46,100,0,0
135285,-100,4,2,48,100,0,0
135428,-100,4,2,53,100,0,0
138857,-100,4,2,141,100,0,0
139714,-100,4,2,139,100,0,0
140571,-100,4,2,38,100,0,0
141000,-100,4,2,41,100,0,0
141142,-100,4,2,41,100,0,0
141214,-100,4,2,38,100,0,0
141642,-100,4,2,45,100,0,0
141857,-100,4,2,129,65,0,0
142071,-100,4,2,36,100,0,0
142250,-100,4,2,36,100,0,0
142285,-100,4,2,41,100,0,0
142714,-100,4,2,41,100,0,0
143071,-100,4,2,43,100,0,0
143142,-100,4,2,41,100,0,0
143357,-100,4,2,45,100,0,0
144000,-100,4,2,38,100,0,0
144642,-100,4,2,29,100,0,0
144857,-100,4,2,34,100,0,0
145071,-100,4,2,36,100,0,0
145285,-100,4,2,38,100,0,0
145500,-100,4,2,39,100,0,0
145714,-100,4,2,40,100,0,0
145928,-100,4,2,40,100,0,0
146571,-100,4,2,39,100,0,0
146785,-100,4,2,106,65,0,0
147000,-100,4,2,40,100,0,0
147428,-100,4,2,39,100,0,0
147642,-100,4,2,39,100,0,0
147857,-100,4,2,39,100,0,0
148285,-100,4,2,127,65,0,0
148714,-100,4,2,118,65,0,0
148928,-100,4,2,39,100,0,0
149142,-100,4,2,34,100,0,0
149357,-100,4,2,42,100,0,0
149571,-100,4,2,42,100,0,0
149785,-100,4,2,37,100,0,0
150214,-100,4,2,46,100,0,0
150642,-100,4,2,44,100,0,0
150857,-100,4,2,108,65,0,0
151285,-100,4,2,115,65,0,0
151714,-100,4,2,120,65,0,0
152142,-100,4,2,42,100,0,0
152357,-100,4,2,42,100,0,0
152571,-100,4,2,39,100,0,0
153000,-100,4,2,40,100,0,0
153214,-100,4,2,39,100,0,0
153428,-100,4,2,111,65,0,0
153642,-100,4,2,39,100,0,0
153857,-100,4,2,39,100,0,0
154071,-100,4,2,39,100,0,0
154285,-100,4,2,104,65,0,0
154500,-100,4,2,116,65,0,0
154714,-100,4,2,120,65,0,0
154928,-100,4,2,123,65,0,0
155142,-100,4,2,39,100,0,0
155357,-100,4,2,46,100,0,0
155571,-100,4,2,40,100,0,0
155785,-100,4,2,41,100,0,0
156000,-100,4,2,117,65,0,0
156428,-100,4,2,42,100,0,0
156642,-100,4,2,41,100,0,0
156857,-100,4,2,123,65,0,0
157285,-100,4,2,37,100,0,0
157500,-100,4,2,46,100,0,0
157714,-100,4,2,40,100,0,0
158142,-100,4,2,113,65,0,0
158571,-100,4,2,111,65,0,0
158785,-100,4,2,46,100,0,0
159000,-100,4,2,106,65,0,0
159214,-100,4,2,40,100,0,0
159428,-100,4,2,42,100,0,0
159642,-100,4,2,108,65,0,0
159857,-100,4,2,110,65,0,0
160071,-100,4,2,111,65,0,0
160285,-100,4,2,39,100,0,0
160500,-100,4,2,106,65,0,0
160714,-100,4,2,34,100,0,0
160928,-100,4,2,116,65,0,0
161142,-100,4,2,39,100,0,0
161357,-100,4,2,39,100,0,0
161571,-100,4,2,39,100,0,0
162000,-100,4,2,39,100,0,0
162285,-100,4,2,37,100,0,0
162571,-100,4,2,47,100,0,0
162857,-100,4,2,34,100,0,0
163285,-100,4,2,39,100,0,0
163500,-100,4,2,39,100,0,0
163714,-100,4,2,119,65,0,0
164142,-100,4,2,37,100,0,0
164357,-100,4,2,47,100,0,0
164571,-100,4,2,108,65,0,0
165000,-100,4,2,39,100,0,0
165178,-100,4,2,35,100,0,0
165214,-100,4,2,39,100,0,0
165392,-100,4,2,35,100,0,0
165428,-100,4,2,123,65,0,0
165642,-100,4,2,39,100,0,0
165857,-100,4,2,115,65,0,0
166250,-100,4,2,42,100,0,0
166285,-100,4,2,47,100,0,0
166714,-100,4,2,47,100,0,0
166928,-100,4,2,51,100,0,0
167357,-100,4,2,39,100,0,0
168000,-100,4,2,116,65,0,0
168214,-100,4,2,106,65,0,0
168428,-100,4,2,108,65,0,0
168642,-100,4,2,111,65,0,0
168857,-100,4,2,39,100,0,0
169071,-100,4,2,49,100,0,0
169285,-100,4,2,51,100,0,0
169500,-100,4,2,47,100,0,0
169714,-100,4,2,115,65,0,0
169928,-100,4,2,123,65,0,0
170142,-100,4,2,125,65,0,0
170357,-100,4,2,130,65,0,0
170571,-100,4,2,39,100,0,0
170785,-100,4,2,39,100,0,0
171000,-100,4,2,39,100,0,0
171214,-100,4,2,39,100,0,0
171428,-100,4,2,117,65,0,0
171857,-100,4,2,39,100,0,0
172071,-100,4,2,39,100,0,0
172285,-100,4,2,123,65,0,0
172714,-100,4,2,39,100,0,0
173142,-100,4,2,42,100,0,0
173535,-100,4,2,42,100,0,0
173571,-100,4,2,44,100,0,0
173964,-100,4,2,37,100,0,0
174000,-100,4,2,46,100,0,0
174392,-100,4,2,37,100,0,0
174428,-100,4,2,47,100,0,0
174642,-100,4,2,37,100,0,0
174857,-100,4,2,37,100,0,0
175285,-100,4,2,47,100,0,0
175500,-100,4,2,44,100,0,0
176142,-100,4,2,147,100,0,0
176357,-100,4,2,147,100,0,0
177857,-100,4,2,35,100,0,0
178071,-100,4,2,37,100,0,0
178285,-100,4,2,39,100,0,0
178714,-100,4,2,47,100,0,0
179142,-100,4,2,37,100,0,0
179571,-100,4,2,34,100,0,0
180000,-100,4,2,47,100,0,0
180428,-100,4,2,44,100,0,0
180857,-100,4,2,109,65,0,0
180910,-100,4,2,42,100,0,0
180964,-100,4,2,37,100,0,0
181017,-100,4,2,30,100,0,0
181285,-100,4,2,40,100,0,0
181553,-100,4,2,30,100,0,0
181607,-100,4,2,35,100,0,0
181660,-100,4,2,37,100,0,0
181714,-100,4,2,39,100,0,0
182142,-100,4,2,23,100,0,0
182357,-100,4,2,25,100,0,0
182571,-100,4,2,27,100,0,0
182785,-100,4,2,30,100,0,0
183000,-100,4,2,34,100,0,0
183214,-100,4,2,35,100,0,0
183428,-100,4,2,39,100,0,0
183642,-100,4,2,42,100,0,0
183857,-100,4,2,46,100,0,0
184071,-100,4,2,47,100,0,0
184285,-100,4,2,51,100,0,0
184714,-100,4,2,54,100,0,0
185250,-100,4,2,159,100,0,0
185303,-100,4,2,154,100,0,0
185357,-100,4,2,158,100,0,0

[HitObjects]
256,192,0,5,0,0:0:0:0:
256,192,53,1,0,0:0:0:0:
256,192,107,1,0,0:0:0:0:
256,192,160,1,0,0:0:0:0:
256,192,642,1,0,0:0:0:0:
256,192,857,1,0,0:0:0:0:
256,192,1071,1,0,0:0:0:0:
256,192,1285,1,0,0:0:0:0:
256,192,1714,1,0,0:0:0:0:
256,192,2571,1,0,0:0:0:0:
256,192,3000,1,0,0:0:0:0:
256,192,3214,1,0,0:0:0:0:
256,192,3428,1,0,0:0:0:0:
256,192,3642,1,0,0:0:0:0:
256,192,3857,1,0,0:0:0:0:
256,192,4071,1,0,0:0:0:0:
256,192,4285,1,0,0:0:0:0:
256,192,4500,1,0,0:0:0:0:
256,192,4714,1,0,0:0:0:0:
256,192,5142,1,0,0:0:0:0:
256,192,5571,1,0,0:0:0:0:
256,192,5785,1,0,0:0:0:0:
256,192,6214,1,0,0:0:0:0:
256,192,6857,1,0,0:0:0:0:
256,192,7071,1,0,0:0:0:0:
256,192,7285,1,0,0:0:0:0:
256,192,7500,1,0,0:0:0:0:
256,192,7928,1,0,0:0:0:0:
256,192,8571,1,0,0:0:0:0:
256,192,8785,1,0,0:0:0:0:
256,192,9000,1,0,0:0:0:0:
256,192,9214,1,0,0:0:0:0:
256,192,9642,1,0,0:0:0:0:
256,192,10071,1,0,0:0:0:0:
256,192,10285,1,0,0:0:0:0:
256,192,10500,1,0,0:0:0:0:
256,192,10714,1,0,0:0:0:0:
256,192,10928,1,0,0:0:0:0:
256,192,11142,1,0,0:0:0:0:
256,192,11357,1,0,0:0:0:0:
256,192,11571,1,0,0:0:0:0:
256,192,12000,1,0,0:0:0:0:
256,192,12053,1,0,0:0:0:0:
256,192,12107,1,0,0:0:0:0:
256,192,12160,1,0,0:0:0:0:
256,192,15428,1,0,0:0:0:0:
256,192,15642,1,0,0:0:0:0:
256,192,15857,1,0,0:0:0:0:
256,192,16071,1,0,0:0:0:0:
256,192,16285,1,0,0:0:0:0:
256,192,16500,1,0,0:0:0:0:
256,192,16714,1,0,0:0:0:0:
256,192,16928,1,0,0:0:0:0:
256,192,17142,1,0,0:0:0:0:
256,192,17357,1,0,0:0:0:0:
256,192,17571,1,0,0:0:0:0:
256,192,18000,1,0,0:0:0:0:
256,192,18857,1,0,0:0:0:0:
256,192,19071,1,0,0:0:0:0:
256,192,19285,1,0,0:0:0:0:
256,192,19500,1,0,0:0:0:0:
256,192,19714,1,0,0:0:0:0:
256,192,19928,1,0,0:0:0:0:
256,192,20142,1,0,0:0:0:0:
256,192,20357,1,0,0:0:0:0:
256,192,20571,1,0,0:0:0:0:
256,192,20785,1,0,0:0:0:0:
256,192,21000,1,0,0:0:0:0:
256,192,21428,1,0,0:0:0:0:
256,192,22178,1,0,0:0:0:0:
256,192,22232,1,0,0:0:0:0:
256,192,22285,1,0,0:0:0:0:
256,192,22714,1,0,0:0:0:0:
256,192,22928,1,0,0:0:0:0:
256,192,23142,1,0,0:0:0:0:
256,192,23357,1,0,0:0:0:0:
256,192,23571,1,0,0:0:0:0:
256,192,24000,1,0,0:0:0:0:
256,192,24214,1,0,0:0:0:0:
256,192,24428,1,0,0:0:0:0:
256,192,24642,1,0,0:0:0:0:
256,192,24857,1,0,0:0:0:0:
256,192,25071,1,0,0:0:0:0:
256,192,25285,1,0,0:0:0:0:
256,192,25714,1,0,0:0:0:0:
256,192,26142,1,0,0:0:0:0:
256,192,26357,1,0,0:0:0:0:
256,192,26571,1,0,0:0:0:0:
256,192,26785,1,0,0:0:0:0:
256,192,27000,1,0,0:0:0:0:
256,192,27428,1,0,0:0:0:0:
256,192,28339,1,0,0:0:0:0:
256,192,28392,1,0,0:0:0:0:
256,192,28446,1,0,0:0:0:0:
256,192,28714,1,0,0:0:0:0:
256,192,28928,1,0,0:0:0:0:
256,192,29142,1,0,0:0:0:0:
256,192,29357,1,0,0:0:0:0:
256,192,29571,1,0,0:0:0:0:
256,192,29785,1,0,0:0:0:0:
256,192,30000,1,0,0:0:0:0:
256,192,30214,1,0,0:0:0:0:
256,192,30428,1,0,0:0:0:0:
256,192,30857,1,0,0:0:0:0:
256,192,31285,1,0,0:0:0:0:
256,192,31500,1,0,0:0:0:0:
256,192,31714,1,0,0:0:0:0:
256,192,32142,1,0,0:0:0:0:
256,192,32357,1,0,0:0:0:0:
256,192,32571,1,0,0:0:0:0:
256,192,32785,1,0,0:0:0:0:
256,192,33000,1,0,0:0:0:0:
256,192,33214,1,0,0:0:0:0:
256,192,33428,1,0,0:0:0:0:
256,192,33642,1,0,0:0:0:0:
256,192,33857,1,0,0:0:0:0:
256,192,34071,1,0,0:0:0:0:
256,192,34285,1,0,0:0:0:0:
256,192,34500,1,0,0:0:0:0:
256,192,34714,1,0,0:0:0:0:
256,192,34928,1,0,0:0:0:0:
256,192,35357,1,0,0:0:0:0:
256,192,36000,1,0,0:0:0:0:
256,192,36214,1,0,0:0:0:0:
256,192,36428,1,0,0:0:0:0:
256,192,36642,1,0,0:0:0:0:
256,192,36857,1,0,0:0:0:0:
256,192,37285,1,0,0:0:0:0:
256,192,37500,1,0,0:0:0:0:
256,192,37607,1,0,0:0:0:0:
256,192,37642,1,0,0:0:0:0:
256,192,37678,1,0,0:0:0:0:
256,192,37714,1,0,0:0:0:0:
256,192,37928,1,0,0:0:0:0:
256,192,38142,1,0,0:0:0:0:
256,192,38357,1,0,0:0:0:0:
256,192,38571,1,0,0:0:0:0:
256,192,39214,1,0,0:0:0:0:
256,192,39428,1,0,0:0:0:0:
256,192,39857,1,0,0:0:0:0:
256,192,40071,1,0,0:0:0:0:
256,192,40285,1,0,0:0:0:0:
256,192,40714,1,0,0:0:0:0:
256,192,40928,1,0,0:0:0:0:
256,192,41142,1,0,0:0:0:0:
256,192,41571,1,0,0:0:0:0:
256,192,42000,1,0,0:0:0:0:
256,192,42428,1,0,0:0:0:0:
256,192,42642,1,0,0:0:0:0:
256,192,42857,1,0,0:0:0:0:
256,192,43071,1,0,0:0:0:0:
256,192,43714,1,0,0:0:0:0:
256,192,44142,1,0,0:0:0:0:
256,192,44571,1,0,0:0:0:0:
256,192,44785,1,0,0:0:0:0:
256,192,45000,1,0,0:0:0:0:
256,192,45428,1,0,0:0:0:0:
256,192,45857,1,0,0:0:0:0:
256,192,46071,1,0,0:0:0:0:
256,192,46285,1,0,0:0:0:0:
256,192,46500,1,0,0:0:0:0:
256,192,46714,1,0,0:0:0:0:
256,192,46928,1,0,0:0:0:0:
256,192,47142,1,0,0:0:0:0:
256,192,47357,1,0,0:0:0:0:
256,192,47571,1,0,0:0:0:0:
256,192,47785,1,0,0:0:0:0:
256,192,48000,1,0,0:0:0:0:
256,192,48428,1,0,0:0:0:0:
256,192,48857,1,0,0:0:0:0:
256,192,49285,1,0,0:0:0:0:
256,192,49500,1,0,0:0:0:0:
256,192,49714,1,0,0:0:0:0:
256,192,50142,1,0,0:0:0:0:
256,192,50357,1,0,0:0:0:0:
256,192,50571,1,0,0:0:0:0:
256,192,50785,1,0,0:0:0:0:
256,192,51000,1,0,0:0:0:0:
256,192,51214,1,0,0:0:0:0:
256,192,51428,1,0,0:0:0:0:
256,192,51642,1,0,0:0:0:0:
256,192,51857,1,0,0:0:0:0:
256,192,52071,1,0,0:0:0:0:
256,192,52285,1,0,0:0:0:0:
256,192,52500,1,0,0:0:0:0:
256,192,52714,1,0,0:0:0:0:
256,192,52928,1,0,0:0:0:0:
256,192,53142,1,0,0:0:0:0:
256,192,53571,1,0,0:0:0:0:
256,192,53785,1,0,0:0:0:0:
256,192,54000,1,0,0:0:0:0:
256,192,54428,1,0,0:0:0:0:
256,192,54642,1,0,0:0:0:0:
256,192,54857,1,0,0:0:0:0:
256,192,55285,1,0,0:0:0:0:
256,192,55714,1,0,0:0:0:0:
256,192,55928,1,0,0:0:0:0:
256,192,56142,1,0,0:0:0:0:
256,192,56357,1,0,0:0:0:0:
256,192,56571,1,0,0:0:0:0:
256,192,56785,1,0,0:0:0:0:
256,192,57000,1,0,0:0:0:0:
256,192,57214,1,0,0:0:0:0:
256,192,57428,1,0,0:0:0:0:
256,192,57642,1,0,0:0:0:0:
256,192,57857,1,0,0:0:0:0:
256,192,58071,1,0,0:0:0:0:
256,192,58285,1,0,0:0:0:0:
256,192,58500,1,0,0:0:0:0:
256,192,58714,1,0,0:0:0:0:
256,192,59142,1,0,0:0:0:0:
256,192,59571,1,0,0:0:0:0:
256,192,59785,1,0,0:0:0:0:
256,192,60000,1,0,0:0:0:0:
256,192,60214,1,0,0:0:0:0:
256,192,60428,1,0,0:0:0:0:
256,192,60642,1,0,0:0:0:0:
256,192,61071,1,0,0:0:0:0:
256,192,61500,1,0,0:0:0:0:
256,192,61714,1,0,0:0:0:0:
256,192,62142,1,0,0:0:0:0:
256,192,62321,1,0,0:0:0:0:
256,192,62357,1,0,0:0:0:0:
256,192,62535,1,0,0:0:0:0:
256,192,62571,1,0,0:0:0:0:
256,192,62785,1,0,0:0:0:0:
256,192,63000,1,0,0:0:0:0:
256,192,63392,1,0,0:0:0:0:
256,192,63428,1,0,0:0:0:0:
256,192,63857,1,0,0:0:0:0:
256,192,64071,1,0,0:0:0:0:
256,192,64500,1,0,0:0:0:0:
256,192,65142,1,0,0:0:0:0:
256,192,65357,1,0,0:0:0:0:
256,192,65571,1,0,0:0:0:0:
256,192,65785,1,0,0:0:0:0:
256,192,66000,1,0,0:0:0:0:
256,192,66214,1,0,0:0:0:0:
256,192,66428,1,0,0:0:0:0:
256,192,66642,1,0,0:0:0:0:
256,192,66857,1,0,0:0:0:0:
256,192,67071,1,0,0:0:0:0:
256,192,67285,1,0,0:0:0:0:
256,192,67500,1,0,0:0:0:0:
256,192,67714,1,0,0:0:0:0:
256,192,67928,1,0,0:0:0:0:
256,192,68142,1,0,0:0:0:0:
256,192,68357,1,0,0:0:0:0:
256,192,68571,1,0,0:0:0:0:
256,192,69000,1,0,0:0:0:0:
256,192,69214,1,0,0:0:0:0:
256,192,69428,1,0,0:0:0:0:
256,192,69857,1,0,0:0:0:0:
256,192,70285,1,0,0:0:0:0:
256,192,70678,1,0,0:0:0:0:
256,192,70714,1,0,0:0:0:0:
256,192,71107,1,0,0:0:0:0:
256,192,71142,1,0,0:0:0:0:
256,192,71535,1,0,0:0:0:0:
256,192,71571,1,0,0:0:0:0:
256,192,71785,1,0,0:0:0:0:
256,192,72000,1,0,0:0:0:0:
256,192,72428,1,0,0:0:0:0:
256,192,72642,1,0,0:0:0:0:
256,192,73285,1,0,0:0:0:0:
256,192,73500,1,0,0:0:0:0:
256,192,75428,1,0,0:0:0:0:
256,192,75642,1,0,0:0:0:0:
256,192,75857,1,0,0:0:0:0:
256,192,76071,1,0,0:0:0:0:
256,192,76285,1,0,0:0:0:0:
256,192,76500,1,0,0:0:0:0:
256,192,76714,1,0,0:0:0:0:
256,192,77142,1,0,0:0:0:0:
256,192,77357,1,0,0:0:0:0:
256,192,77571,1,0,0:0:0:0:
256,192,77785,1,0,0:0:0:0:
256,192,78000,1,0,0:0:0:0:
256,192,78214,1,0,0:0:0:0:
256,192,78428,1,0,0:0:0:0:
256,192,78857,1,0,0:0:0:0:
256,192,79285,1,0,0:0:0:0:
256,192,79500,1,0,0:0:0:0:
256,192,79714,1,0,0:0:0:0:
256,192,80142,1,0,0:0:0:0:
256,192,80357,1,0,0:0:0:0:
256,192,80571,1,0,0:0:0:0:
256,192,80785,1,0,0:0:0:0:
256,192,81000,1,0,0:0:0:0:
256,192,81214,1,0,0:0:0:0:
256,192,81428,1,0,0:0:0:0:
256,192,81642,1,0,0:0:0:0:
256,192,81857,1,0,0:0:0:0:
256,192,82071,1,0,0:0:0:0:
256,192,82285,1,0,0:0:0:0:
256,192,82500,1,0,0:0:0:0:
256,192,82714,1,0,0:0:0:0:
256,192,82928,1,0,0:0:0:0:
256,192,83357,1,0,0:0:0:0:
256,192,84000,1,0,0:0:0:0:
256,192,84214,1,0,0:0:0:0:
256,192,84428,1,0,0:0:0:0:
256,192,84642,1,0,0:0:0:0:
256,192,84857,1,0,0:0:0:0:
256,192,85285,1,0,0:0:0:0:
256,192,85500,1,0,0:0:0:0:
256,192,85607,1,0,0:0:0:0:
256,192,85642,1,0,0:0:0:0:
256,192,85678,1,0,0:0:0:0:
256,192,85714,1,0,0:0:0:0:
256,192,85928,1,0,0:0:0:0:
256,192,86142,1,0,0:0:0:0:
256,192,86357,1,0,0:0:0:0:
256,192,86571,1,0,0:0:0:0:
256,192,87214,1,0,0:0:0:0:
256,192,87428,1,0,0:0:0:0:
256,192,87857,1,0,0:0:0:0:
256,192,88071,1,0,0:0:0:0:
256,192,88285,1,0,0:0:0:0:
256,192,88714,1,0,0:0:0:0:
256,192,88928,1,0,0:0:0:0:
256,192,89142,1,0,0:0:0:0:
256,192,89571,1,0,0:0:0:0:
256,192,90000,1,0,0:0:0:0:
256,192,90428,1,0,0:0:0:0:
256,192,90642,1,0,0:0:0:0:
256,192,90857,1,0,0:0:0:0:
256,192,91071,1,0,0:0:0:0:
256,192,91714,1,0,0:0:0:0:
256,192,92142,1,0,0:0:0:0:
256,192,92571,1,0,0:0:0:0:
256,192,92785,1,0,0:0:0:0:
256,192,93000,1,0,0:0:0:0:
256,192,93428,1,0,0:0:0:0:
256,192,93857,1,0,0:0:0:0:
256,192,94071,1,0,0:0:0:0:
256,192,94285,1,0,0:0:0:0:
256,192,94500,1,0,0:0:0:0:
256,192,94714,1,0,0:0:0:0:
256,192,94928,1,0,0:0:0:0:
256,192,95142,1,0,0:0:0:0:
256,192,95357,1,0,0:0:0:0:
256,192,95571,1,0,0:0:0:0:
256,192,95785,1,0,0:0:0:0:
256,192,96000,1,0,0:0:0:0:
256,192,96428,1,0,0:0:0:0:
256,192,96857,1,0,0:0:0:0:
256,192,97285,1,0,0:0:0:0:
256,192,97500,1,0,0:0:0:0:
256,192,97714,1,0,0:0:0:0:
256,192,98142,1,0,0:0:0:0:
256,192,98357,1,0,0:0:0:0:
256,192,98571,1,0,0:0:0:0:
256,192,98785,1,0,0:0:0:0:
256,192,99000,1,0,0:0:0:0:
256,192,99214,1,0,0:0:0:0:
256,192,99428,1,0,0:0:0:0:
256,192,99642,1,0,0:0:0:0:
256,192,99857,1,0,0:0:0:0:
256,192,100071,1,0,0:0:0:0:
256,192,100285,1,0,0:0:0:0:
256,192,100500,1,0,0:0:0:0:
256,192,100714,1,0,0:0:0:0:
256,192,100928,1,0,0:0:0:0:
256,192,101142,1,0,0:0:0:0:
256,192,101571,1,0,0:0:0:0:
256,192,101785,1,0,0:0:0:0:
256,192,102000,1,0,0:0:0:0:
256,192,102428,1,0,0:0:0:0:
256,192,102642,1,0,0:0:0:0:
256,192,102857,1,0,0:0:0:0:
256,192,103285,1,0,0:0:0:0:
256,192,103714,1,0,0:0:0:0:
256,192,103928,1,0,0:0:0:0:
256,192,104142,1,0,0:0:0:0:
256,192,104357,1,0,0:0:0:0:
256,192,104571,1,0,0:0:0:0:
256,192,104785,1,0,0:0:0:0:
256,192,105000,1,0,0:0:0:0:
256,192,105214,1,0,0:0:0:0:
256,192,105428,1,0,0:0:0:0:
256,192,105642,1,0,0:0:0:0:
256,192,105857,1,0,0:0:0:0:
256,192,106071,1,0,0:0:0:0:
256,192,106285,1,0,0:0:0:0:
256,192,106500,1,0,0:0:0:0:
256,192,106714,1,0,0:0:0:0:
256,192,107142,1,0,0:0:0:0:
256,192,107571,1,0,0:0:0:0:
256,192,107785,1,0,0:0:0:0:
256,192,108000,1,0,0:0:0:0:
256,192,108214,1,0,0:0:0:0:
256,192,108428,1,0,0:0:0:0:
256,192,108642,1,0,0:0:0:0:
256,192,109071,1,0,0:0:0:0:
256,192,109500,1,0,0:0:0:0:
256,192,109714,1,0,0:0:0:0:
256,192,110142,1,0,0:0:0:0:
256,192,110321,1,0,0:0:0:0:
256,192,110357,1,0,0:0:0:0:
256,192,110535,1,0,0:0:0:0:
256,192,110571,1,0,0:0:0:0:
256,192,110785,1,0,0:0:0:0:
256,192,111000,1,0,0:0:0:0:
256,192,111392,1,0,0:0:0:0:
256,192,111428,1,0,0:0:0:0:
256,192,111857,1,0,0:0:0:0:
256,192,112071,1,0,0:0:0:0:
256,192,112500,1,0,0:0:0:0:
256,192,113142,1,0,0:0:0:0:
256,192,113357,1,0,0:0:0:0:
256,192,113571,1,0,0:0:0:0:
256,192,113785,1,0,0:0:0:0:
256,192,114000,1,0,0:0:0:0:
256,192,114214,1,0,0:0:0:0:
256,192,114428,1,0,0:0:0:0:
256,192,114642,1,0,0:0:0:0:
256,192,114857,1,0,0:0:0:0:
256,192,115071,1,0,0:0:0:0:
256,192,115285,1,0,0:0:0:0:
256,192,115500,1,0,0:0:0:0:
256,192,115714,1,0,0:0:0:0:
256,192,115928,1,0,0:0:0:0:
256,192,116142,1,0,0:0:0:0:
256,192,116357,1,0,0:0:0:0:
256,192,116571,1,0,0:0:0:0:
256,192,117000,1,0,0:0:0:0:
256,192,117214,1,0,0:0:0:0:
256,192,117428,1,0,0:0:0:0:
256,192,117857,1,0,0:0:0:0:
256,192,118285,1,0,0:0:0:0:
256,192,118678,1,0,0:0:0:0:
256,192,118714,1,0,0:0:0:0:
256,192,119107,1,0,0:0:0:0:
256,192,119142,1,0,0:0:0:0:
256,192,119535,1,0,0:0:0:0:
256,192,119571,1,0,0:0:0:0:
256,192,119785,1,0,0:0:0:0:
256,192,120000,1,0,0:0:0:0:
256,192,120428,1,0,0:0:0:0:
256,192,120642,1,0,0:0:0:0:
256,192,120857,1,0,0:0:0:0:
256,192,121285,1,0,0:0:0:0:
256,192,121500,1,0,0:0:0:0:
256,192,121714,1,0,0:0:0:0:
256,192,122142,1,0,0:0:0:0:
256,192,122571,1,0,0:0:0:0:
256,192,122785,1,0,0:0:0:0:
256,192,123000,1,0,0:0:0:0:
256,192,123214,1,0,0:0:0:0:
256,192,123428,1,0,0:0:0:0:
256,192,123857,1,0,0:0:0:0:
256,192,124071,1,0,0:0:0:0:
256,192,124285,1,0,0:0:0:0:
256,192,124500,1,0,0:0:0:0:
256,192,124714,1,0,0:0:0:0:
256,192,125142,1,0,0:0:0:0:
256,192,125571,1,0,0:0:0:0:
256,192,125785,1,0,0:0:0:0:
256,192,126000,1,0,0:0:0:0:
256,192,126428,1,0,0:0:0:0:
256,192,126642,1,0,0:0:0:0:
256,192,126857,1,0,0:0:0:0:
256,192,127285,1,0,0:0:0:0:
256,192,127500,1,0,0:0:0:0:
256,192,127714,1,0,0:0:0:0:
256,192,128142,1,0,0:0:0:0:
256,192,128357,1,0,0:0:0:0:
256,192,128571,1,0,0:0:0:0:
256,192,129000,1,0,0:0:0:0:
256,192,129214,1,0,0:0:0:0:
256,192,129428,1,0,0:0:0:0:
256,192,129642,1,0,0:0:0:0:
256,192,129857,1,0,0:0:0:0:
256,192,130285,1,0,0:0:0:0:
256,192,130714,1,0,0:0:0:0:
256,192,130928,1,0,0:0:0:0:
256,192,131142,1,0,0:0:0:0:
256,192,131571,1,0,0:0:0:0:
256,192,131785,1,0,0:0:0:0:
256,192,132000,1,0,0:0:0:0:
256,192,132428,1,0,0:0:0:0:
256,192,132642,1,0,0:0:0:0:
256,192,132857,1,0,0:0:0:0:
256,192,133285,1,0,0:0:0:0:
256,192,133500,1,0,0:0:0:0:
256,192,133714,1,0,0:0:0:0:
256,192,134142,1,0,0:0:0:0:
256,192,134571,1,0,0:0:0:0:
256,192,134714,1,0,0:0:0:0:
256,192,134857,1,0,0:0:0:0:
256,192,135000,1,0,0:0:0:0:
256,192,135142,1,0,0:0:0:0:
256,192,135285,1,0,0:0:0:0:
256,192,135428,1,0,0:0:0:0:
256,192,138857,1,0,0:0:0:0:
256,192,139714,1,0,0:0:0:0:
256,192,140571,1,0,0:0:0:0:
256,192,141000,1,0,0:0:0:0:
256,192,141142,1,0,0:0:0:0:
256,192,141214,1,0,0:0:0:0:
256,192,141642,1,0,0:0:0:0:
256,192,141857,1,0,0:0:0:0:
256,192,142071,1,0,0:0:0:0:
256,192,142250,1,0,0:0:0:0:
256,192,142285,1,0,0:0:0:0:
256,192,142714,1,0,0:0:0:0:
256,192,143071,1,0,0:0:0:0:
256,192,143142,1,0,0:0:0:0:
256,192,143357,1,0,0:0:0:0:
256,192,144000,1,0,0:0:0:0:
256,192,144642,1,0,0:0:0:0:
256,192,144857,1,0,0:0:0:0:
256,192,145071,1,0,0:0:0:0:
256,192,145285,1,0,0:0:0:0:
256,192,145500,1,0,0:0:0:0:
256,192,145714,1,0,0:0:0:0:
256,192,145928,1,0,0:0:0:0:
256,192,146571,1,0,0:0:0:0:
256,192,146785,1,0,0:0:0:0:
256,192,147000,1,0,0:0:0:0:
256,192,147428,1,0,0:0:0:0:
256,192,147642,1,0,0:0:0:0:
256,192,147857,1,0,0:0:0:0:
256,192,148285,1,0,0:0:0:0:
256,192,148714,1,0,0:0:0:0:
256,192,148928,1,0,0:0:0:0:
256,192,149142,1,0,0:0:0:0:
256,192,149357,1,0,0:0:0:0:
256,192,149571,1,0,0:0:0:0:
256,192,149785,1,0,0:0:0:0:
256,192,150214,1,0,0:0:0:0:
256,192,150642,1,0,0:0:0:0:
256,192,150857,1,0,0:0:0:0:
256,192,151285,1,0,0:0:0:0:
256,192,151714,1,0,0:0:0:0:
256,192,152142,1,0,0:0:0:0:
256,192,152357,1,0,0:0:0:0:
256,192,152571,1,0,0:0:0:0:
256,192,153000,1,0,0:0:0:0:
256,192,153214,1,0,0:0:0:0:
256,192,153428,1,0,0:0:0:0:
256,192,153642,1,0,0:0:0:0:
256,192,153857,1,0,0:0:0:0:
256,192,154071,1,0,0:0:0:0:
256,192,154285,1,0,0:0:0:0:
256,192,154500,1,0,0:0:0:0:
256,192,154714,1,0,0:0:0:0:
256,192,154928,1,0,0:0:0:0:
256,192,155142,1,0,0:0:0:0:
256,192,155357,1,0,0:0:0:0:
256,192,155571,1,0,0:0:0:0:
256,192,155785,1,0,0:0:0:0:
256,192,156000,1,0,0:0:0:0:
256,192,156428,1,0,0:0:0:0:
256,192,156642,1,0,0:0:0:0:
256,192,156857,1,0,0:0:0:0:
256,192,157285,1,0,0:0:0:0:
256,192,157500,1,0,0:0:0:0:
256,192,157714,1,0,0:0:0:0:
256,192,158142,1,0,0:0:0:0:
256,192,158571,1,0,0:0:0:0:
256,192,158785,1,0,0:0:0:0:
256,192,159000,1,0,0:0:0:0:
256,192,159214,1,0,0:0:0:0:
256,192,159428,1,0,0:0:0:0:
256,192,159642,1,0,0:0:0:0:
256,192,159857,1,0,0:0:0:0:
256,192,160071,1,0,0:0:0:0:
256,192,160285,1,0,0:0:0:0:
256,192,160500,1,0,0:0:0:0:
256,192,160714,1,0,0:0:0:0:
256,192,160928,1,0,0:0:0:0:
256,192,161142,1,0,0:0:0:0:
256,192,161357,1,0,0:0:0:0:
256,192,161571,1,0,0:0:0:0:
256,192,162000,1,0,0:0:0:0:
256,192,162285,1,0,0:0:0:0:
256,192,162571,1,0,0:0:0:0:
256,192,162857,1,0,0:0:0:0:
256,192,163285,1,0,0:0:0:0:
256,192,163500,1,0,0:0:0:0:
256,192,163714,1,0,0:0:0:0:
256,192,164142,1,0,0:0:0:0:
256,192,164357,1,0,0:0:0:0:
256,192,164571,1,0,0:0:0:0:
256,192,165000,1,0,0:0:0:0:
256,192,165178,1,0,0:0:0:0:
256,192,165214,1,0,0:0:0:0:
256,192,165392,1,0,0:0:0:0:
256,192,165428,1,0,0:0:0:0:
256,192,165642,1,0,0:0:0:0:
256,192,165857,1,0,0:0:0:0:
256,192,166250,1,0,0:0:0:0:
256,192,166285,1,0,0:0:0:0:
256,192,166714,1,0,0:0:0:0:
256,192,166928,1,0,0:0:0:0:
256,192,167357,1,0,0:0:0:0:
256,192,168000,1,0,0:0:0:0:
256,192,168214,1,0,0:0:0:0:
256,192,168428,1,0,0:0:0:0:
256,192,168642,1,0,0:0:0:0:
256,192,168857,1,0,0:0:0:0:
256,192,169071,1,0,0:0:0:0:
256,192,169285,1,0,0:0:0:0:
256,192,169500,1,0,0:0:0:0:
256,192,169714,1,0,0:0:0:0:
256,192,169928,1,0,0:0:0:0:
256,192,170142,1,0,0:0:0:0:
256,192,170357,1,0,0:0:0:0:
256,192,170571,1,0,0:0:0:0:
256,192,170785,1,0,0:0:0:0:
256,192,171000,1,0,0:0:0:0:
256,192,171214,1,0,0:0:0:0:
256,192,171428,1,0,0:0:0:0:
256,192,171857,1,0,0:0:0:0:
256,192,172071,1,0,0:0:0:0:
256,192,172285,1,0,0:0:0:0:
256,192,172714,1,0,0:0:0:0:
256,192,173142,1,0,0:0:0:0:
256,192,173535,1,0,0:0:0:0:
256,192,173571,1,0,0:0:0:0:
256,192,173964,1,0,0:0:0:0:
256,192,174000,1,0,0:0:0:0:
256,192,174392,1,0,0:0:0:0:
256,192,174428,1,0,0:0:0:0:
256,192,174642,1,0,0:0:0:0:
256,192,174857,1,0,0:0:0:0:
256,192,175285,1,0,0:0:0:0:
256,192,175500,1,0,0:0:0:0:
256,192,176142,1,0,0:0:0:0:
256,192,176357,1,0,0:0:0:0:
256,192,177857,1,0,0:0:0:0:
256,192,178071,1,0,0:0:0:0:
256,192,178285,1,0,0:0:0:0:
256,192,178714,1,0,0:0:0:0:
256,192,179142,1,0,0:0:0:0:
256,192,179571,1,0,0:0:0:0:
256,192,180000,1,0,0:0:0:0:
256,192,180428,1,0,0:0:0:0:
256,192,180857,1,0,0:0:0:0:
256,192,180910,1,0,0:0:0:0:
256,192,180964,1,0,0:0:0:0:
256,192,181017,1,0,0:0:0:0:
256,192,181285,1,0,0:0:0:0:
256,192,181553,1,0,0:0:0:0:
256,192,181607,1,0,0:0:0:0:
256,192,181660,1,0,0:0:0:0:
256,192,181714,1,0,0:0:0:0:
256,192,182142,5,0,0:0:0:0:
256,192,182357,1,0,0:0:0:0:
256,192,182571,1,0,0:0:0:0:
256,192,182785,1,0,0:0:0:0:
256,192,183000,1,0,0:0:0:0:
256,192,183214,1,0,0:0:0:0:
256,192,183428,1,0,0:0:0:0:
256,192,183642,1,0,0:0:0:0:
256,192,183857,1,0,0:0:0:0:
256,192,184071,1,0,0:0:0:0:
256,192,184285,1,0,0:0:0:0:
256,192,184714,1,0,0:0:0:0:
256,192,185250,1,0,0:0:0:0:
256,192,185303,1,0,0:0:0:0:
256,192,185357,1,0,0:0:0:0:
