osu file format v14

[General]
AudioFilename: Nimbasa CORE.mp3
AudioLeadIn: 0
PreviewTime: 68968
Countdown: 0
SampleSet: Soft
StackLeniency: 0.7
Mode: 0
LetterboxInBreaks: 0
WidescreenStoryboard: 1

[Editor]
Bookmarks: 4920,9853,19718,39449,69045,78911,98641,118372,128237,138103,147968
DistanceSpacing: 1.7
BeatDivisor: 16
GridSize: 4
TimelineZoom: 2.1

[Metadata]
Title:Nimbasa CORE
TitleUnicode:Nimbasa CORE
Artist:pLasterbrain
ArtistUnicode:pLasterbrain
Creator:TyTy
Version:2013 is next year [Collab]
Source:
Tags:
BeatmapID:875412
BeatmapSetID:402549

[Difficulty]
HPDrainRate:6
CircleSize:4
OverallDifficulty:7
ApproachRate:9
SliderMultiplier:1.4
SliderTickRate:1

[Events]
//Background and Video events
0,0,"NIMBASA.jpg",0,0
//Break Periods
2,69245,78311
2,103312,116539
//Storyboard Layer 0 (Background)
//Storyboard Layer 1 (Fail)
//Storyboard Layer 2 (Pass)
//Storyboard Layer 3 (Foreground)
//Storyboard Sound Samples

[TimingPoints]
-12,308.293083958483,4,2,0,64,1,0
4920,-166.666666666667,4,2,0,64,0,0
19718,-125,4,2,0,64,0,0
69045,-166.666666666667,4,2,0,64,0,0
78911,-125,4,2,0,64,0,0
98641,-166.666666666667,4,2,0,64,0,0
118372,-100,4,2,0,64,0,1
128237,-125,4,2,0,64,0,0
128237,-200,4,2,0,64,0,0
138103,-100,4,2,0,64,0,1
141455,-200,4,2,0,64,0,1
141764,-100,4,2,0,64,0,1
147968,-125,4,2,0,64,0,0

[HitObjects]
152,138,4920,5,0,0:0:0:0:
260,310,5537,1,0,0:0:0:0:
354,130,6153,1,0,0:0:0:0:
158,254,6770,1,0,0:0:0:0:
360,246,7387,1,0,0:0:0:0:
252,74,8003,1,0,0:0:0:0:
256,192,8620,5,0,0:0:0:0:
256,192,8928,1,0,0:0:0:0:
360,246,9236,2,0,L|396:240,7,20.9999993591309
424,272,9853,5,0,0:0:0:0:
424,272,10161,1,0,0:0:0:0:
424,272,10469,2,0,L|428:176,1,83.9999974365235
456,148,10932,2,0,L|460:52,1,83.9999974365235
360,40,11548,1,0,0:0:0:0:
360,40,11703,2,0,P|364:72|344:124,1,83.9999974365235
248,104,12319,5,0,0:0:0:0:
248,104,12628,1,0,0:0:0:0:
248,104,12936,2,0,L|160:108,1,83.9999974365235
116,124,13398,2,0,L|199:120,1,83.9999974365235
280,184,14015,1,0,0:0:0:0:
280,184,14169,2,0,P|288:224|272:280,1,83.9999974365235
192,316,14786,5,0,0:0:0:0:
192,316,15094,1,0,0:0:0:0:
192,316,15402,2,0,P|240:308|285:320,1,83.9999974365235
316,344,15865,2,0,P|364:352|409:340,1,83.9999974365235
464,268,16481,1,0,0:0:0:0:
464,268,16635,2,0,L|468:172,1,83.9999974365235
400,108,17252,5,0,0:0:0:0:
400,108,17560,1,0,0:0:0:0:
400,108,17868,2,0,L|304:104,1,83.9999974365235
268,124,18331,2,0,L|172:120,1,83.9999974365235
92,156,18948,1,0,0:0:0:0:
92,156,19102,6,0,L|88:192,3,20.9999993591309
96,200,19410,2,0,L|92:236,3,20.9999993591309
112,268,19718,5,0,0:0:0:0:
201,314,19872,1,0,0:0:0:0:
196,213,20027,1,0,0:0:0:0:
112,268,20181,1,0,0:0:0:0:
201,314,20335,2,0,L|332:304,1,112
472,260,20797,1,0,0:0:0:0:
472,260,20951,2,0,L|476:200,1,56
384,156,21260,2,0,L|380:211,1,56
408,336,21568,1,0,0:0:0:0:
460,120,21876,2,0,P|432:87|376:71,1,84
320,104,22185,5,0,0:0:0:0:
348,232,22339,1,0,0:0:0:0:
465,175,22493,2,0,P|466:147|460:120,1,56
320,104,22801,2,0,L|200:112,1,112
211,270,23264,1,0,0:0:0:0:
211,270,23418,2,0,P|211:243|204:216,1,56
35,216,23726,2,0,P|28:243|28:270,1,56
120,164,24034,1,0,0:0:0:0:
136,364,24343,1,0,0:0:0:0:
112,148,24497,1,0,0:0:0:0:
112,148,24574,1,0,0:0:0:0:
112,148,24651,5,0,0:0:0:0:
128,264,24805,1,0,0:0:0:0:
120,164,24959,1,0,0:0:0:0:
128,264,25113,1,0,0:0:0:0:
272,224,25268,2,0,L|396:228,1,112
440,312,25730,1,0,0:0:0:0:
440,312,25884,2,0,L|384:310,1,56
328,144,26192,2,0,L|390:146,1,56
272,224,26501,2,0,P|233:162|240:104,1,112
483,149,26963,1,0,0:0:0:0:
328,144,27117,6,0,L|272:142,1,56
481,122,27426,2,0,P|455:132|428:136,1,56
233,125,27734,2,0,P|259:74|312:49,1,112
422,162,28196,2,0,P|396:213|343:238,1,112
217,141,28659,1,0,0:0:0:0:
217,141,28813,1,0,0:0:0:0:
252,236,28967,2,0,L|244:308,1,56
100,241,29275,2,0,L|156:248,1,56
36,296,29584,6,0,P|18:258|18:220,1,56
248,152,29892,2,0,P|221:158|197:172,1,56
56,152,30200,2,0,P|108:132|148:84,1,112
312,84,30663,1,0,0:0:0:0:
312,84,30817,2,0,L|380:76,1,56
419,186,31125,2,0,L|364:180,1,56
228,32,31433,1,0,0:0:0:0:
244,232,31742,2,0,P|279:216|332:224,1,84
368,288,32050,5,0,0:0:0:0:
316,200,32204,1,0,0:0:0:0:
419,186,32358,1,0,0:0:0:0:
368,288,32512,1,0,0:0:0:0:
435,170,32667,2,0,L|432:44,1,112
195,36,33129,1,0,0:0:0:0:
195,36,33283,2,0,P|188:63|190:90,1,56
331,75,33591,2,0,P|303:68|276:70,1,56
293,279,33900,2,0,L|296:153,1,112
104,144,34362,1,0,0:0:0:0:
104,144,34439,1,0,0:0:0:0:
104,144,34516,5,0,0:0:0:0:
168,224,34670,1,0,0:0:0:0:
190,90,34825,1,0,0:0:0:0:
168,224,34979,1,0,0:0:0:0:
295,167,35133,2,0,P|344:160|400:192,1,112
396,360,35595,1,0,0:0:0:0:
331,305,35749,2,0,P|328:277|330:250,1,56
480,152,36058,2,0,P|488:190|478:230,1,56
396,360,36366,2,0,P|340:352|296:301,1,112
184,160,36829,1,0,0:0:0:0:
200,316,36983,6,0,L|205:260,1,56
44,210,37291,2,0,L|100:216,1,56
268,163,37599,2,0,P|252:111|207:79,1,112
360,120,38062,2,0,L|428:116,1,56
380,212,38370,2,0,P|377:165|403:86,1,112
484,56,38832,1,0,0:0:0:0:
472,252,38987,1,0,0:0:0:0:
324,215,39141,2,0,L|380:212,1,56
472,252,39449,5,0,0:0:0:0:
444,332,39603,1,0,0:0:0:0:
368,368,39757,1,0,0:0:0:0:
284,360,39911,1,0,0:0:0:0:
220,304,40066,2,0,L|228:180,1,112
220,20,40528,1,0,0:0:0:0:
284,128,40682,2,0,L|287:72,1,56
140,40,40991,1,0,0:0:0:0:
64,4,41145,1,0,0:0:0:0:
28,80,41299,2,0,P|60:124|52:204,1,112
8,244,41761,1,0,0:0:0:0:
48,320,41915,6,0,L|108:312,1,56
168,256,42224,1,0,0:0:0:0:
244,292,42378,1,0,0:0:0:0:
312,244,42532,2,0,P|329:192|314:126,1,112
448,176,42994,1,0,0:0:0:0:
405,52,43149,2,0,L|400:108,1,56
424,256,43457,1,0,0:0:0:0:
348,292,43611,1,0,0:0:0:0:
263,275,43765,2,0,P|216:262|139:267,1,112
136,348,44228,1,0,0:0:0:0:
256,330,44382,6,0,P|261:302|263:275,1,56
224,200,44690,1,0,0:0:0:0:
200,120,44844,1,0,0:0:0:0:
236,44,44998,2,0,P|280:24|344:32,1,112
476,56,45461,1,0,0:0:0:0:
399,92,45615,2,0,P|387:116|383:144,1,56
396,228,45923,1,0,0:0:0:0:
472,260,46077,1,0,0:0:0:0:
460,176,46231,2,0,L|340:168,1,112
276,208,46694,1,0,0:0:0:0:
168,148,46848,6,0,L|219:125,1,56
32,125,47156,2,0,L|84:148,1,56
107,325,47465,2,0,P|130:275|127:220,1,112
44,232,47927,1,0,0:0:0:0:
208,312,48081,1,0,0:0:0:0:
288,336,48235,1,0,0:0:0:0:
368,312,48390,1,0,0:0:0:0:
420,248,48544,1,0,0:0:0:0:
313,133,48698,2,0,P|304:187|336:232,1,112
484,196,49160,1,0,0:0:0:0:
416,40,49314,6,0,L|412:152,1,112
332,56,49777,1,0,0:0:0:0:
252,88,49931,1,0,0:0:0:0:
180,44,50085,1,0,0:0:0:0:
256,8,50239,1,0,0:0:0:0:
272,164,50393,1,0,0:0:0:0:
272,164,50702,5,0,0:0:0:0:
248,244,50856,1,0,0:0:0:0:
172,284,51010,1,0,0:0:0:0:
56,226,51164,2,0,L|112:224,1,56
248,244,51472,2,0,L|303:246,1,56
462,280,51781,6,0,P|406:282|360:312,1,112
236,256,52243,1,0,0:0:0:0:
376,204,52397,2,0,P|380:166|376:136,1,56
228,88,52706,1,0,0:0:0:0:
268,208,52860,1,0,0:0:0:0:
268,208,53168,5,0,0:0:0:0:
312,96,53322,1,0,0:0:0:0:
144,80,53476,1,0,0:0:0:0:
144,80,53553,1,0,0:0:0:0:
144,80,53630,1,0,0:0:0:0:
184,200,53785,1,0,0:0:0:0:
228,88,53940,1,0,0:0:0:0:
110,106,54093,1,0,0:0:0:0:
184,200,54247,6,0,L|320:192,1,112
432,212,54710,1,0,0:0:0:0:
432,212,54864,2,0,L|376:215,1,56
488,48,55172,1,0,0:0:0:0:
448,192,55326,1,0,0:0:0:0:
448,192,55634,5,0,0:0:0:0:
256,192,55789,1,0,0:0:0:0:
256,24,55943,1,0,0:0:0:0:
335,93,56097,2,0,P|336:120|328:147,1,56
183,147,56405,2,0,P|175:121|176:93,1,56
256,192,56713,6,0,B|241:254|271:245|257:308,1,112
72,208,57176,1,0,0:0:0:0:
119,277,57330,2,0,P|146:280|174:280,1,56
335,223,57638,1,0,0:0:0:0:
240,112,57792,1,0,0:0:0:0:
240,112,58101,5,0,0:0:0:0:
300,56,58255,1,0,0:0:0:0:
256,192,58409,1,0,0:0:0:0:
256,192,58486,1,0,0:0:0:0:
256,192,58563,1,0,0:0:0:0:
176,168,58717,1,0,0:0:0:0:
160,84,58871,1,0,0:0:0:0:
300,56,59026,1,0,0:0:0:0:
176,168,59180,6,0,P|126:163|77:103,1,112
160,84,59642,1,0,0:0:0:0:
256,192,59796,2,0,P|237:225|200:249,1,56
160,84,60105,2,0,P|198:83|237:103,1,56
179,279,60413,2,0,L|176:168,1,112
214,88,60875,1,0,0:0:0:0:
339,134,61030,2,0,L|284:136,1,56
402,21,61338,2,0,L|404:76,1,56
352,216,61646,5,0,0:0:0:0:
352,216,61800,1,0,0:0:0:0:
416,272,61954,2,0,P|374:299|300:284,1,112
232,300,62417,1,0,0:0:0:0:
283,138,62571,2,0,P|331:165|352:216,1,112
232,300,63033,1,0,0:0:0:0:
152,268,63188,1,0,0:0:0:0:
124,188,63342,1,0,0:0:0:0:
124,188,63419,1,0,0:0:0:0:
124,188,63496,2,0,L|132:128,1,56
44,48,63804,2,0,L|52:104,1,56
212,112,64112,6,0,P|260:96|325:102,1,112
276,172,64575,1,0,0:0:0:0:
216,116,64729,1,0,0:0:0:0:
272,180,64883,1,0,0:0:0:0:
204,128,65037,2,0,L|144:144,1,56
308,256,65346,2,0,L|362:241,1,56
300,184,65654,1,0,0:0:0:0:
224,220,65808,1,0,0:0:0:0:
232,304,65962,1,0,0:0:0:0:
232,304,66271,5,0,0:0:0:0:
232,32,66579,1,0,0:0:0:0:
232,304,67504,5,0,0:0:0:0:
232,32,67812,1,0,0:0:0:0:
404,188,68121,1,0,0:0:0:0:
352,208,68429,2,0,L|316:214,7,20.9999993591309
324,240,68891,2,0,P|280:280|264:296,1,56
40,132,78911,5,0,0:0:0:0:
68,52,79065,1,0,0:0:0:0:
144,16,79219,1,0,0:0:0:0:
228,24,79373,1,0,0:0:0:0:
292,80,79528,2,0,L|284:204,1,112
292,364,79990,1,0,0:0:0:0:
228,256,80144,2,0,L|225:312,1,56
372,344,80453,1,0,0:0:0:0:
448,380,80607,1,0,0:0:0:0:
484,304,80761,2,0,P|452:260|460:180,1,112
504,140,81223,1,0,0:0:0:0:
464,64,81377,6,0,L|404:72,1,56
344,128,81686,1,0,0:0:0:0:
268,92,81840,1,0,0:0:0:0:
200,140,81994,2,0,P|183:192|198:258,1,112
64,208,82456,1,0,0:0:0:0:
107,332,82611,2,0,L|112:276,1,56
88,128,82919,1,0,0:0:0:0:
164,92,83073,1,0,0:0:0:0:
249,109,83227,2,0,P|296:122|373:117,1,112
376,36,83690,1,0,0:0:0:0:
256,54,83844,6,0,P|251:82|249:109,1,56
288,184,84152,1,0,0:0:0:0:
312,264,84306,1,0,0:0:0:0:
276,340,84460,2,0,P|232:360|168:352,1,112
36,328,84923,1,0,0:0:0:0:
113,292,85077,2,0,P|125:268|129:240,1,56
116,156,85385,1,0,0:0:0:0:
40,124,85539,1,0,0:0:0:0:
52,208,85693,2,0,L|172:216,1,112
236,176,86156,1,0,0:0:0:0:
344,236,86310,6,0,L|293:259,1,56
480,259,86618,2,0,L|428:236,1,56
405,59,86927,2,0,P|382:109|385:164,1,112
468,152,87389,1,0,0:0:0:0:
304,72,87543,1,0,0:0:0:0:
224,48,87697,1,0,0:0:0:0:
144,72,87852,1,0,0:0:0:0:
92,136,88006,1,0,0:0:0:0:
199,251,88160,2,0,P|208:197|176:152,1,112
28,188,88622,1,0,0:0:0:0:
88,256,88776,1,0,0:0:0:0:
88,256,88930,1,0,0:0:0:0:
156,292,89084,2,0,L|180:216,1,56
288,248,89392,2,0,L|272:328,1,56
360,320,89701,1,0,0:0:0:0:
432,268,89855,1,0,0:0:0:0:
444,184,90009,1,0,0:0:0:0:
444,184,90317,2,0,P|384:148|356:136,1,84
340,164,90626,2,0,P|284:140|264:132,1,56
256,168,90934,2,0,L|152:128,1,112
72,104,91396,1,0,0:0:0:0:
72,104,91551,1,0,0:0:0:0:
280,272,91705,1,0,0:0:0:0:
280,272,91859,1,0,0:0:0:0:
256,192,92013,12,0,93400,0:0:0:0:
352,164,93709,6,0,B|379:144|379:144|428:136,1,56
484,188,94017,1,0,0:0:0:0:
424,256,94171,1,0,0:0:0:0:
424,256,94325,1,0,0:0:0:0:
336,280,94479,2,0,B|312:256|312:256|320:224,1,56
392,160,94787,6,0,B|400:193|400:193|384:228,1,56
288,220,95096,1,0,0:0:0:0:
216,168,95250,1,0,0:0:0:0:
204,84,95404,1,0,0:0:0:0:
276,28,95558,1,0,0:0:0:0:
372,56,95712,6,0,P|334:74|304:92,1,56
304,124,96021,2,0,L|252:152,1,56
232,192,96329,2,0,P|182:210|140:256,1,112
120,308,96791,1,0,0:0:0:0:
120,308,96946,1,0,0:0:0:0:
404,120,97100,1,0,0:0:0:0:
404,120,97254,1,0,0:0:0:0:
256,192,98641,12,0,100645,0:0:0:0:
256,192,101108,12,0,103112,0:0:0:0:
136,68,117139,5,0,0:0:0:0:
384,68,117447,1,0,0:0:0:0:
164,120,117755,2,0,L|180:156,3,20.9999993591309
140,160,118064,2,0,L|128:192,3,20.9999993591309
184,184,118372,6,0,P|194:147|244:120,1,70
316,224,118680,6,0,P|307:257|282:281,1,70
184,184,118989,6,0,P|194:147|244:120,1,70
316,224,119297,6,0,P|307:257|282:281,1,70
164,260,119605,1,0,0:0:0:0:
124,148,119759,1,0,0:0:0:0:
236,184,119914,1,0,0:0:0:0:
156,280,120068,1,0,0:0:0:0:
236,192,120222,1,0,0:0:0:0:
104,320,120530,2,0,L|168:264,1,70
416,240,120838,6,0,L|360:260,2,35
260,112,121147,2,0,L|292:100,2,35
116,288,121455,2,0,L|100:300,2,17.5
24,144,121763,1,0,0:0:0:0:
264,148,122072,5,0,0:0:0:0:
264,148,122226,1,0,0:0:0:0:
160,244,122380,1,0,0:0:0:0:
264,148,122534,1,0,0:0:0:0:
160,244,122688,1,0,0:0:0:0:
160,244,122996,1,0,0:0:0:0:
208,152,123305,2,0,L|288:96,1,70
356,156,123613,1,0,0:0:0:0:
304,268,123767,1,0,0:0:0:0:
196,312,123921,1,0,0:0:0:0:
212,152,124230,1,0,0:0:0:0:
116,196,124538,6,0,P|126:232|176:260,1,70
248,156,124846,6,0,P|239:122|214:98,1,70
116,196,125155,6,0,P|126:232|176:260,1,70
248,156,125463,6,0,P|239:122|214:98,1,70
96,120,125771,1,0,0:0:0:0:
56,232,125925,1,0,0:0:0:0:
168,196,126080,1,0,0:0:0:0:
88,100,126234,1,0,0:0:0:0:
188,208,126388,2,0,P|240:240|328:232,1,140
260,136,127004,1,0,0:0:0:0:
144,148,127158,1,0,0:0:0:0:
124,112,127313,1,0,0:0:0:0:
248,96,127467,1,0,0:0:0:0:
108,80,127621,1,0,0:0:0:0:
64,236,127929,5,0,0:0:0:0:
160,260,128237,5,0,0:0:0:0:
252,264,128392,1,0,0:0:0:0:
212,332,128546,1,0,0:0:0:0:
236,192,128700,1,0,0:0:0:0:
252,264,128854,1,0,0:0:0:0:
256,28,129162,1,0,0:0:0:0:
256,192,129471,1,0,0:0:0:0:
256,192,129625,1,0,0:0:0:0:
256,192,129779,1,0,0:0:0:0:
408,192,129933,1,0,0:0:0:0:
256,192,130087,1,0,0:0:0:0:
64,196,130395,2,0,L|100:172,1,35
220,56,130704,5,0,0:0:0:0:
268,76,130858,1,0,0:0:0:0:
232,120,131012,1,0,0:0:0:0:
276,136,131166,1,0,0:0:0:0:
248,184,131320,1,0,0:0:0:0:
308,200,131629,6,0,L|268:228,1,35
184,284,131937,1,0,0:0:0:0:
180,168,132091,1,0,0:0:0:0:
300,164,132245,1,0,0:0:0:0:
300,284,132399,1,0,0:0:0:0:
300,164,132554,1,0,0:0:0:0:
176,168,132862,1,0,0:0:0:0:
404,320,133170,6,0,L|444:320,1,35
296,272,133478,2,0,L|336:272,1,35
184,204,133787,2,0,L|224:204,1,35
92,144,134095,1,0,0:0:0:0:
156,232,134403,6,0,L|121:232,1,35
252,172,134711,2,0,L|217:172,1,35
192,96,135020,2,0,L|157:96,1,35
124,204,135328,2,0,P|168:204|200:188,1,70
146,137,135791,2,0,P|214:120|157:329,1,455
328,200,138103,6,0,P|317:236|268:264,1,70
196,160,138411,6,0,P|204:126|229:102,1,70
328,200,138720,6,0,P|317:236|268:264,1,70
196,160,139028,6,0,P|204:126|229:102,1,70
348,124,139336,1,0,0:0:0:0:
388,236,139490,1,0,0:0:0:0:
276,200,139645,1,0,0:0:0:0:
356,104,139799,1,0,0:0:0:0:
276,192,139953,1,0,0:0:0:0:
408,64,140261,2,0,L|344:120,1,70
136,60,140569,6,0,L|200:48,1,52.5
104,196,140878,2,0,L|68:264,1,70
312,220,141186,2,0,L|248:176,1,70
136,60,141494,6,0,L|172:52,1,35
248,236,141803,5,0,0:0:0:0:
248,236,141957,1,0,0:0:0:0:
352,140,142111,5,0,0:0:0:0:
248,236,142265,5,0,0:0:0:0:
352,140,142419,1,0,0:0:0:0:
352,140,142727,5,0,0:0:0:0:
304,232,143036,2,0,L|224:288,1,70
156,228,143344,1,0,0:0:0:0:
208,116,143498,1,0,0:0:0:0:
316,72,143652,1,0,0:0:0:0:
300,232,143961,1,0,0:0:0:0:
396,188,144269,6,0,P|385:151|336:124,1,70
264,228,144577,6,0,P|272:261|297:285,1,70
396,188,144886,6,0,P|385:151|336:124,2,70
416,264,145502,1,0,0:0:0:0:
456,152,145656,1,0,0:0:0:0:
344,188,145811,1,0,0:0:0:0:
424,284,145965,1,0,0:0:0:0:
352,184,146119,2,0,B|380:124|380:124|344:60,1,140
268,200,146735,1,0,0:0:0:0:
152,180,146889,1,0,0:0:0:0:
208,272,147044,1,0,0:0:0:0:
96,252,147198,1,0,0:0:0:0:
164,356,147352,1,0,0:0:0:0:
448,148,147660,5,0,0:0:0:0:
