osu file format v12

[General]
AudioFilename: 19 - Princess.mp3
AudioLeadIn: 0
PreviewTime: 105401
Countdown: 0
SampleSet: Soft
StackLeniency: 0.7
Mode: 0
LetterboxInBreaks: 0

[Editor]
Bookmarks: 26404
DistanceSpacing: 1
BeatDivisor: 4
GridSize: 4

[Metadata]
Title:Princess
TitleUnicode:Princess
Artist:oukaitou
ArtistUnicode:α·Pav
Creator:JauiPlaY
Version:Fear
Source:
Tags:Dulcet Series summer special collection good machine oil
BeatmapID:201018
BeatmapSetID:69781

[Difficulty]
HPDrainRate:7
CircleSize:4
OverallDifficulty:7
ApproachRate:8
SliderMultiplier:1.6
SliderTickRate:1

[Events]
//Background and Video events
0,0,"108ec8144a98c0c69621f4f4c831a13f.jpg",0,0
//Break Periods
2,138477,144103
//Storyboard Layer 0 (Background)
//Storyboard Layer 1 (Fail)
//Storyboard Layer 2 (Pass)
//Storyboard Layer 3 (Foreground)
//Storyboard Sound Samples
//Background Colour Transformations
3,100,0,0,0

[TimingPoints]
26497,410.958904109589,4,2,1,35,1,0
105401,-100,4,2,1,35,0,1
131702,-100,4,2,1,35,0,0
158003,-100,4,2,1,35,0,1
158106,-100,4,2,1,35,0,0
184305,-100,4,2,1,35,0,1
210503,-100,4,2,1,35,0,0
210606,-100,4,2,1,35,0,1
210709,-100,4,2,1,35,0,0
229099,-200,4,2,1,35,0,0
229510,-100,4,2,1,35,0,0
230332,-100,4,2,2,25,0,0

[Colours]
Combo1 : 255,17,142
Combo2 : 69,36,255
Combo3 : 236,88,252
Combo4 : 143,32,255

[HitObjects]
256,192,26496,2,0,P|280:272|352:288,1,160
336,208,27113,1,0,0:0:0:0:
415,212,27318,2,0,P|403:164|378:140,1,80,2|0,0:0|0:0,0:0:0:0:
438,85,27729,2,0,P|393:62|359:65,1,80
295,104,28140,2,0,P|204:110|144:82,1,160
208,32,28757,2,0,P|177:117|127:161,1,160,0|2,0:0|0:0,0:0:0:0:
56,208,29373,1,0,0:0:0:0:
56,208,29476,2,0,L|72:288,1,80,0|0,0:0|0:0,0:0:0:0:
104,304,29784,6,0,P|184:296|256:336,1,160,0|0,0:0|0:0,0:0:0:0:
279,256,30401,1,0,0:0:0:0:
255,179,30606,2,0,L|175:179,1,80,2|0,0:0|0:0,0:0:0:0:
252,332,31017,2,0,L|332:332,1,80
407,359,31428,2,0,B|440:328|440:328|456:209,1,160
304,34,32044,2,0,B|271:65|271:65|255:184,1,160,0|2,0:0|0:0,0:0:0:0:
353,223,32661,1,0,0:0:0:0:
353,223,32764,2,0,L|364:137,1,80
393,117,33072,6,0,P|314:85|243:108,1,160,0|0,0:0|0:0,0:0:0:0:
188,162,33688,1,0,0:0:0:0:
131,105,33894,2,0,P|112:180|174:241,1,160,2|0,0:0|0:0,0:0:0:0:
219,294,34510,1,0,0:0:0:0:
219,294,34716,2,0,P|238:219|176:158,1,160
245,106,35332,1,0,0:0:0:0:
314,145,35538,2,0,L|394:137,1,80,0|2,0:0|0:0,0:0:0:0:
512,292,35949,2,0,L|432:300,1,80
371,351,36360,6,0,P|327:289|354:217,1,160
405,278,36976,2,0,L|324:284,1,80,0|2,0:0|0:0,0:0:0:0:
291,262,37284,2,0,P|281:305|262:335,1,80
224,348,37592,1,0,0:0:0:0:
186,334,37695,2,0,L|103:339,1,80
80,307,38003,6,0,P|106:234|51:167,1,160
36,95,38620,1,0,0:0:0:0:
140,128,38825,2,0,L|117:95,2,40,0|0|2,0:0|0:0|0:0,0:0:0:0:
178,118,39133,1,0,0:0:0:0:
217,121,39236,1,0,0:0:0:0:
253,137,39339,2,0,P|291:144|333:139,1,80
356,102,39647,6,0,B|366:236|366:236|385:252,1,160
448,304,40264,1,0,0:0:0:0:
384,352,40469,2,0,P|320:360|280:336,1,80,2|0,0:0|0:0,0:0:0:0:
194,275,40880,2,0,P|258:267|272:272,1,80
128,336,41291,2,0,P|64:288|48:200,1,160
194,276,41907,2,0,P|273:270|343:326,1,160,0|2,0:0|0:0,0:0:0:0:
367,240,42524,1,0,0:0:0:0:
400,262,42627,2,0,P|413:260|467:225,1,80
446,191,42935,6,0,P|430:100|456:41,1,160
378,20,43551,1,0,0:0:0:0:
311,65,43757,2,0,L|231:71,1,80,2|0,0:0|0:0,0:0:0:0:
150,233,44168,2,0,L|230:227,1,80
274,293,44579,2,0,P|312:213|275:163,1,160
194,150,45195,2,0,P|164:121|155:85,1,80
274,163,45606,2,0,P|303:191|312:227,1,80,2|0,0:0|0:0,0:0:0:0:
347,248,45914,2,0,L|433:237,1,80
461,257,46223,6,0,P|445:162|451:99,1,160
398,38,46839,1,0,0:0:0:0:
338,90,47044,2,0,P|332:153|348:248,1,160,2|0,0:0|0:0,0:0:0:0:
400,309,47661,1,0,0:0:0:0:
461,257,47866,2,0,P|449:217|448:174,1,80
337,90,48277,2,0,P|329:127|332:169,1,80
447,178,48688,1,0,0:0:0:0:
332,169,48894,1,2,0:0:0:0:
461,257,49099,1,0,0:0:0:0:
337,90,49305,1,0,0:0:0:0:
270,45,49510,6,0,P|228:116|152:106,1,160
92,156,50127,1,0,0:0:0:0:
34,100,50332,2,0,P|75:28|151:38,1,160,2|0,0:0|0:0,0:0:0:0:
159,112,50949,1,0,0:0:0:0:
92,156,51154,2,0,P|88:196|79:237,1,80
234,285,51565,2,0,P|238:245|247:204,1,80
79,234,51976,1,0,0:0:0:0:
246,206,52181,1,2,0:0:0:0:
92,156,52387,1,0,0:0:0:0:
234,285,52592,1,0,0:0:0:0:
164,245,52798,6,0,P|163:321|227:368,1,160,0|2,0:0|0:0,0:0:0:0:
348,139,53620,2,0,P|348:62|284:15,1,160,2|0,0:0|0:0,0:0:0:0:
279,96,54236,1,0,0:0:0:0:
276,176,54442,2,0,P|336:228|415:246,1,160
279,95,55058,2,0,P|203:120|148:180,1,160,0|2,0:0|0:0,0:0:0:0:
348,139,55675,1,0,0:0:0:0:
348,139,55777,2,0,P|357:97|351:57,1,80
312,63,56086,6,0,P|238:82|209:156,1,160,0|2,0:0|0:0,0:0:0:0:
200,321,56907,2,0,P|273:301|302:227,1,160,2|0,0:0|0:0,0:0:0:0:
222,240,57524,1,0,0:0:0:0:
222,240,57729,2,0,P|264:306|343:360,1,160
252,165,58346,2,0,P|173:168|86:210,1,160,0|2,0:0|0:0,0:0:0:0:
302,229,58962,2,0,P|330:191|332:155,1,80
366,137,59270,1,0,0:0:0:0:
405,132,59373,6,0,P|343:64|278:47,1,160,0|2,0:0|0:0,0:0:0:0:
107,252,60195,2,0,P|169:320|234:337,1,160,2|0,0:0|0:0,0:0:0:0:
230,256,60812,1,0,0:0:0:0:
208,179,61017,2,0,P|287:201|305:277,1,160
129,180,61633,2,0,P|169:108|247:109,1,160,0|2,0:0|0:0,0:0:0:0:
107,252,62250,1,0,0:0:0:0:
107,252,62353,2,0,P|70:228|54:196,1,80
30,164,62661,6,0,P|49:104|111:31,1,160,0|2,0:0|0:0,0:0:0:0:
482,220,63483,2,0,P|463:280|401:353,1,160,2|0,0:0|0:0,0:0:0:0:
335,307,64099,1,0,0:0:0:0:
338,226,64305,2,0,P|327:183|322:143,1,80
174,158,64716,2,0,P|184:200|189:240,1,80
361,141,65127,2,0,P|320:127|283:109,1,80,0|2,0:0|0:0,0:0:0:0:
151,243,65538,2,0,P|192:257|229:275,1,80
240,291,65846,1,0,0:0:0:0:
254,308,65949,6,0,P|164:274|101:269,1,160,0|2,0:0|0:0,0:0:0:0:
258,76,66770,2,0,P|348:110|411:115,1,160,2|0,0:0|0:0,0:0:0:0:
471,168,67387,1,0,0:0:0:0:
486,246,67592,2,0,P|392:225|336:195,1,160,0|0,0:0|0:0,0:0:0:0:
263,120,68209,2,0,P|258:183|224:273,1,160,0|2,0:0|0:0,0:0:0:0:
209,371,68825,1,0,0:0:0:0:
209,371,68928,2,0,P|243:355|285:347,1,80
305,312,69236,6,0,P|320:250|369:168,1,160,0|2,0:0|0:0,0:0:0:0:
207,72,70058,2,0,P|191:133|142:215,1,160,2|0,0:0|0:0,0:0:0:0:
62,227,70675,1,0,0:0:0:0:
91,152,70880,2,0,P|162:139|251:149,1,160
142,214,71496,2,0,P|213:227|293:266,1,160,0|2,0:0|0:0,0:0:0:0:
168,296,72113,2,0,P|201:319|230:352,1,80
227,348,72421,1,0,0:0:0:0:
227,348,72524,6,0,P|297:276|268:226,1,160,0|2,0:0|0:0,0:0:0:0:
284,43,73346,2,0,P|214:115|243:165,1,160,2|0,0:0|0:0,0:0:0:0:
278,226,73962,1,0,0:0:0:0:
317,152,74168,2,0,P|361:90|382:2,1,160
232,156,74784,2,0,P|157:148|70:175,1,160,0|2,0:0|0:0,0:0:0:0:
278,226,75401,1,0,0:0:0:0:
278,226,75503,2,0,P|296:271|318:297,1,80
318,335,75812,6,0,P|390:319|392:240,1,160,0|2,0:0|0:0,0:0:0:0:
278,226,76429,1,0,0:0:0:0:
318,335,76634,1,2,0:0:0:0:
395,244,76839,1,0,0:0:0:0:
318,336,77044,1,0,0:0:0:0:
433,355,77250,1,0,0:0:0:0:
395,244,77455,6,0,P|389:205|393:163,1,80,0|0,0:0|0:0,0:0:0:0:
293,83,77866,2,0,P|299:122|295:164,1,80,0|0,0:0|0:0,0:0:0:0:
216,178,78277,2,0,L|178:192,3,40,0|0|2|0,0:0|0:0|0:0|0:0,0:0:0:0:
164,229,78688,1,0,0:0:0:0:
172,268,78791,2,0,P|140:293|100:294,1,80,2|2,0:0|0:0,0:0:0:0:
97,334,79099,6,0,P|23:300|28:229,1,160,0|2,0:0|0:0,0:0:0:0:
95,188,79716,1,0,0:0:0:0:
164,229,79921,1,0,0:0:0:0:
97,334,80127,1,0,0:0:0:0:
26,231,80332,1,2,0:0:0:0:
94,104,80537,1,0,0:0:0:0:
93,104,80743,2,0,P|160:69|244:62,1,160,0|2,0:0|0:0,0:0:0:0:
298,288,81360,2,0,P|259:223|246:139,1,160
375,259,81976,2,0,P|376:306|360:338,1,80,2|0,0:0|0:0,0:0:0:0:
219,312,82387,6,0,P|218:265|234:233,2,80,0|0|2,0:0|0:0|0:0,0:0:0:0:
293,72,83209,2,0,P|294:119|278:151,2,80,0|0|2,0:0|0:0|0:0,0:0:0:0:
216,97,83825,1,0,0:0:0:0:
157,42,84031,2,0,P|137:111|201:171,1,160,0|2,0:0|0:0,0:0:0:0:
135,225,84647,2,0,P|201:252|264:201,1,160
331,248,85264,1,2,0:0:0:0:
331,248,85366,2,0,P|344:203|336:168,1,80
321,134,85675,6,0,P|360:73|438:90,1,160,0|2,0:0|0:0,0:0:0:0:
416,190,86291,1,0,0:0:0:0:
331,248,86496,2,0,L|335:333,1,80
170,264,86907,2,0,L|166:184,1,80,2|0,0:0|0:0,0:0:0:0:
241,253,87318,2,0,P|193:265|96:223,1,160,0|2,0:0|0:0,0:0:0:0:
310,64,87935,2,0,P|357:51|455:94,1,160
252,121,88551,1,2,0:0:0:0:
253,121,88962,6,0,L|251:203,1,80
79,62,89373,2,0,L|77:144,1,80,2|0,0:0|0:0,0:0:0:0:
156,272,89784,2,0,L|158:193,1,80
343,67,90195,2,0,L|427:67,1,80,2|0,0:0|0:0,0:0:0:0:
468,133,90606,6,0,P|469:185|448:224,1,80,0|2,0:0|0:0,0:0:0:0:
384,181,91017,2,0,L|380:228,1,40,0|2,0:0|0:0,0:0:0:0:
300,229,91325,2,0,L|296:276,1,40,0|2,0:0|0:0,0:0:0:0:
216,277,91633,2,0,L|212:324,1,40,0|2,0:0|0:0,0:0:0:0:
132,324,91942,2,0,L|128:371,1,40,0|2,0:0|0:0,0:0:0:0:
52,304,92250,6,0,P|40:215|72:155,1,160,0|2,0:0|0:0,0:0:0:0:
105,234,92866,1,0,0:0:0:0:
23,225,93072,1,0,0:0:0:0:
71,155,93277,1,0,0:0:0:0:
190,246,93483,1,2,0:0:0:0:
52,304,93688,1,0,0:0:0:0:
71,155,93894,2,0,P|136:110|148:35,1,160,0|2,0:0|0:0,0:0:0:0:
68,67,94510,2,0,P|108:128|193:140,1,160
195,270,95127,2,0,P|222:246|240:207,1,80,2|0,0:0|0:0,0:0:0:0:
314,69,95538,6,0,P|286:93|269:132,2,80,0|0|2,0:0|0:0|0:0,0:0:0:0:
438,352,96360,2,0,P|465:327|482:288,2,80,0|0|2,0:0|0:0|0:0,0:0:0:0:
401,280,96976,1,0,0:0:0:0:
324,304,97181,2,0,P|340:225|407:197,1,160,0|2,0:0|0:0,0:0:0:0:
420,118,97798,2,0,P|482:169|473:241,1,160
401,280,98414,1,2,0:0:0:0:
401,280,98517,1,0,0:0:0:0:
382,359,98723,1,0,0:0:0:0:
382,359,98825,5,0,0:0:0:0:
401,280,99236,1,2,0:0:0:0:
407,198,100058,1,2,0:0:0:0:
130,25,100469,5,0,0:0:0:0:
111,104,100880,1,2,0:0:0:0:
105,186,101702,1,2,0:0:0:0:
256,272,102113,5,0,0:0:0:0:
256,192,102524,1,2,0:0:0:0:
256,112,103346,1,2,0:0:0:0:
256,112,103551,1,2,0:0:0:0:
407,198,103757,5,0,0:0:0:0:
401,280,103962,1,2,0:0:0:0:
382,359,104168,1,0,0:0:0:0:
105,186,104373,5,2,0:0:0:0:
111,104,104579,1,0,0:0:0:0:
130,25,104784,1,2,0:0:0:0:
256,112,104990,5,0,0:0:0:0:
256,152,105092,1,0,0:0:0:0:
256,192,105196,1,2,0:0:0:0:
256,232,105298,1,2,0:0:0:0:
256,272,105401,6,0,L|328:312,1,80,8|0,0:0|0:0,0:0:0:0:
256,112,105812,2,0,L|184:72,1,80
336,192,106223,2,0,L|376:120,1,80,2|0,0:0|0:0,0:0:0:0:
176,192,106634,2,0,L|136:264,1,80
188,322,107044,5,8,0:0:0:0:
137,262,107250,1,2,0:0:0:0:
176,192,107455,1,8,0:0:0:0:
246,228,107661,1,0,0:0:0:0:
269,120,107866,1,0,0:0:0:0:
191,113,108072,1,2,0:0:0:0:
189,33,108277,1,8,0:0:0:0:
266,11,108483,1,0,0:0:0:0:
321,70,108688,6,0,L|324:150,1,80,8|0,0:0|0:0,0:0:0:0:
134,126,109099,2,0,L|214:123,1,80
377,257,109510,2,0,L|297:260,1,80,2|0,0:0|0:0,0:0:0:0:
190,313,109921,2,0,L|187:233,1,80
297,260,110332,5,8,0:0:0:0:
190,313,110538,1,2,0:0:0:0:
198,194,110743,1,8,0:0:0:0:
268,199,110949,5,0,0:0:0:0:
161,252,111155,1,0,0:0:0:0:
169,133,111360,1,2,0:0:0:0:
239,139,111565,5,8,0:0:0:0:
132,192,111771,1,0,0:0:0:0:
140,73,111976,6,0,L|212:38,1,80,8|0,0:0|0:0,0:0:0:0:
239,139,112387,2,0,L|311:104,1,80
231,257,112798,2,0,L|303:222,1,80,2|0,0:0|0:0,0:0:0:0:
330,323,113209,2,0,L|402:288,1,80
417,280,113620,5,8,0:0:0:0:
315,332,113825,1,2,0:0:0:0:
223,148,114031,1,8,0:0:0:0:
325,96,114236,1,0,0:0:0:0:
318,214,114442,5,0,0:0:0:0:
216,266,114647,1,2,0:0:0:0:
124,82,114853,1,8,0:0:0:0:
226,30,115058,1,0,0:0:0:0:
450,61,115264,6,0,P|392:119|326:96,2,160,8|0|2,0:0|0:0|0:0,0:0:0:0:
376,32,116291,1,0,0:0:0:0:
450,61,116496,1,0,0:0:0:0:
446,142,116702,1,0,0:0:0:0:
368,161,116907,5,10,0:0:0:0:
326,96,117113,1,0,0:0:0:0:
248,115,117318,1,10,0:0:0:0:
244,196,117524,1,2,0:0:0:0:
318,225,117729,5,0,0:0:0:0:
314,306,117935,1,2,0:0:0:0:
236,325,118140,1,8,0:0:0:0:
194,260,118346,1,0,0:0:0:0:
115,248,118551,6,0,L|55:193,1,80,8|0,0:0|0:0,0:0:0:0:
102,337,118962,2,0,L|42:282,1,80
128,159,119373,6,0,L|68:104,1,80,2|0,0:0|0:0,0:0:0:0:
115,248,119784,2,0,L|55:193,1,80
69,104,120195,5,8,0:0:0:0:
128,159,120401,1,2,0:0:0:0:
204,180,120606,1,8,0:0:0:0:
284,178,120812,1,0,0:0:0:0:
442,279,121017,5,0,0:0:0:0:
384,225,121223,1,2,0:0:0:0:
308,204,121428,1,8,0:0:0:0:
228,206,121634,1,0,0:0:0:0:
270,272,121839,6,0,L|333:320,1,80,8|0,0:0|0:0,0:0:0:0:
198,304,122250,2,0,L|261:352,1,80,0|0,0:0|0:0,0:0:0:0:
342,241,122661,6,0,L|405:289,1,80,2|0,0:0|0:0,0:0:0:0:
270,272,123072,2,0,L|333:320,1,80,0|0,0:0|0:0,0:0:0:0:
407,287,123483,5,8,0:0:0:0:
415,208,123688,1,2,0:0:0:0:
343,241,123894,1,8,0:0:0:0:
407,287,124099,5,0,0:0:0:0:
350,160,124305,1,0,0:0:0:0:
269,272,124510,1,2,0:0:0:0:
343,241,124716,5,8,0:0:0:0:
277,193,124921,1,0,0:0:0:0:
269,272,125127,6,0,P|182:252|168:190,1,160,8|0,0:0|0:0,0:0:0:0:
249,80,125949,2,0,P|336:100|350:162,1,160,2|0,0:0|0:0,0:0:0:0:
277,193,126565,1,0,0:0:0:0:
343,241,126770,2,0,P|345:308|268:352,1,160,8|8,0:0|0:0,0:0:0:0:
178,190,127592,2,0,P|176:123|253:79,1,160,0|8,0:0|0:0,0:0:0:0:
315,123,128209,1,0,0:0:0:0:
277,193,128414,5,8,0:0:0:0:
347,230,128825,1,0,0:0:0:0:
385,160,129236,1,2,0:0:0:0:
315,123,129647,1,0,0:0:0:0:
169,226,130058,5,8,0:0:0:0:
239,263,130469,1,8,0:0:0:0:
277,193,130880,1,0,0:0:0:0:
207,156,131291,1,8,0:0:0:0:
256,192,131702,12,0,138277,0:0:0:0:
256,192,144853,5,8,0:0:0:0:
256,272,145264,1,4,0:0:0:0:
256,272,145880,2,0,L|256:192,1,80,0|0,0:0|0:0,0:0:0:0:
336,88,146496,5,8,0:0:0:0:
371,159,146907,1,8,0:0:0:0:
371,159,147523,2,0,L|336:88,1,80,0|4,0:0|0:0,0:0:0:0:
176,88,148140,5,8,0:0:0:0:
141,159,148551,1,4,0:0:0:0:
140,159,149167,2,0,L|176:88,1,80,0|0,0:0|0:0,0:0:0:0:
256,152,149784,5,8,0:0:0:0:
336,232,149990,1,0,0:0:0:0:
256,312,150195,1,8,0:0:0:0:
176,232,150401,1,0,0:0:0:0:
158,134,150606,5,0,0:0:0:0:
353,134,150811,1,0,0:0:0:0:
353,329,151017,1,4,0:0:0:0:
158,329,151222,1,4,0:0:0:0:
256,151,151428,6,0,P|296:143|328:119,1,80,8|0,0:0|0:0,0:0:0:0:
256,312,151839,2,0,P|222:289|182:283,1,80,4|0,0:0|0:0,0:0:0:0:
111,197,152250,2,0,P|78:222|40:233,1,80
21,199,152558,1,0,0:0:0:0:
11,159,152661,2,0,P|47:148|78:121,1,80,4|0,0:0|0:0,0:0:0:0:
165,51,153072,6,0,P|195:76|217:118,1,80,8|0,0:0|0:0,0:0:0:0:
347,333,153483,2,0,P|317:308|295:266,1,80,12|0,0:0|0:0,0:0:0:0:
296,157,153894,2,0,P|326:131|348:89,1,80
386,94,154202,1,0,0:0:0:0:
423,108,154305,2,0,P|430:146|423:186,1,80,4|0,0:0|0:0,0:0:0:0:
477,244,154716,6,0,P|391:259|348:201,1,160,8|4,0:0|0:0,0:0:0:0:
295,157,155332,1,0,0:0:0:0:
90,121,155538,2,0,P|175:105|218:163,1,160,0|4,0:0|0:0,0:0:0:0:
141,184,156154,1,0,0:0:0:0:
295,157,156360,2,0,L|356:214,1,80,8|0,0:0|0:0,0:0:0:0:
299,359,156770,2,0,L|314:280,1,80,12|0,0:0|0:0,0:0:0:0:
253,227,157181,5,0,0:0:0:0:
240,241,157284,1,0,0:0:0:0:
224,256,157387,1,0,0:0:0:0:
211,268,157489,1,0,0:0:0:0:
197,283,157592,1,4,0:0:0:0:
183,297,157695,2,0,P|144:314|102:313,1,80,0|0,0:0|0:0,0:0:0:0:
72,334,158003,6,0,P|58:257|128:217,1,160,8|4,0:0|0:0,0:0:0:0:
76,148,158620,1,0,0:0:0:0:
136,92,158825,2,0,P|170:116|217:126,1,80,0|0,0:0|0:0,0:0:0:0:
328,224,159236,2,0,P|293:199|246:189,1,80,4|0,0:0|0:0,0:0:0:0:
260,272,159647,2,0,P|297:217|307:165,1,120,8|0,0:0|0:0,0:0:0:0:
340,140,160058,2,0,P|384:167|404:194,1,80,8|0,0:0|0:0,0:0:0:0:
328,224,160469,5,4,0:0:0:0:
260,272,160675,1,2,0:0:0:0:
336,308,160880,1,0,0:0:0:0:
252,188,161086,1,6,0:0:0:0:
193,322,161291,6,0,P|139:253|196:183,1,160,8|4,0:0|0:0,0:0:0:0:
252,188,161907,1,0,0:0:0:0:
336,308,162113,1,0,0:0:0:0:
168,195,162318,1,0,0:0:0:0:
328,224,162524,1,4,0:0:0:0:
88,202,162729,5,0,0:0:0:0:
168,196,162934,1,8,0:0:0:0:
189,116,163140,1,0,0:0:0:0:
120,73,163345,1,8,0:0:0:0:
56,126,163551,5,0,0:0:0:0:
189,116,163756,1,4,0:0:0:0:
237,239,163961,1,2,0:0:0:0:
136,324,164168,1,0,0:0:0:0:
25,254,164372,1,6,0:0:0:0:
88,202,164579,6,0,B|152:176|152:176|244:176,1,160,8|4,0:0|0:0,0:0:0:0:
316,208,165195,1,0,0:0:0:0:
388,172,165401,2,0,P|392:130|404:92,1,80,0|0,0:0|0:0,0:0:0:0:
316,208,165812,2,0,P|312:250|300:288,1,80,4|0,0:0|0:0,0:0:0:0:
384,252,166223,2,0,P|324:228|268:236,1,120,8|0,0:0|0:0,0:0:0:0:
240,260,166633,2,0,L|156:256,1,80,8|0,0:0|0:0,0:0:0:0:
88,224,167044,5,4,0:0:0:0:
240,260,167250,1,2,0:0:0:0:
74,191,167455,1,0,0:0:0:0:
253,292,167661,1,6,0:0:0:0:
168,312,167866,5,8,0:0:0:0:
240,260,168072,1,0,0:0:0:0:
328,244,168277,1,4,0:0:0:0:
416,248,168483,1,0,0:0:0:0:
136,104,168688,5,0,0:0:0:0:
188,176,168894,1,0,0:0:0:0:
204,264,169099,1,4,0:0:0:0:
200,352,169305,1,0,0:0:0:0:
344,72,169510,5,8,0:0:0:0:
272,124,169716,1,0,0:0:0:0:
184,140,169921,1,8,0:0:0:0:
96,136,170127,1,0,0:0:0:0:
376,280,170332,5,4,0:0:0:0:
324,208,170538,1,2,0:0:0:0:
308,120,170743,1,2,0:0:0:0:
312,32,170949,1,6,0:0:0:0:
396,60,171154,6,0,P|440:135|406:193,1,160,8|4,0:0|0:0,0:0:0:0:
324,208,171770,1,0,0:0:0:0:
248,252,171976,2,0,P|232:292|240:328,1,80,0|0,0:0|0:0,0:0:0:0:
176,196,172387,2,0,P|192:156|184:120,1,80,4|0,0:0|0:0,0:0:0:0:
120,64,172798,5,8,0:0:0:0:
184,121,173003,1,0,0:0:0:0:
109,147,173209,1,8,0:0:0:0:
120,64,173414,1,0,0:0:0:0:
176,196,173620,1,4,0:0:0:0:
32,176,173825,2,0,L|12:217,2,40,2|0|0,0:0|0:0|0:0,0:0:0:0:
184,121,174236,1,6,0:0:0:0:
339,166,174442,6,0,P|312:239|231:245,1,160,8|4,0:0|0:0,0:0:0:0:
254,166,175058,1,0,0:0:0:0:
297,93,175264,2,0,P|336:81|389:95,1,80,0|0,0:0|0:0,0:0:0:0:
256,332,175675,2,0,P|214:326|172:293,1,80,4|0,0:0|0:0,0:0:0:0:
114,264,176086,1,8,0:0:0:0:
34,272,176291,1,0,0:0:0:0:
82,356,176496,5,8,0:0:0:0:
114,264,176702,1,0,0:0:0:0:
122,168,176907,1,4,0:0:0:0:
106,72,177113,1,2,0:0:0:0:
106,72,177216,1,0,0:0:0:0:
106,72,177318,2,0,P|149:66|189:78,1,80,0|6,0:0|0:0,0:0:0:0:
336,88,177729,6,0,L|260:116,1,80,8|0,0:0|0:0,0:0:0:0:
392,36,178140,2,0,L|316:64,1,80,4|0,0:0|0:0,0:0:0:0:
280,140,178551,6,0,L|204:168,1,80,0|0,0:0|0:0,0:0:0:0:
336,88,178962,1,4,0:0:0:0:
149,219,179168,1,0,0:0:0:0:
149,219,179373,6,0,L|225:247,1,80,8|0,0:0|0:0,0:0:0:0:
93,167,179784,2,0,L|169:195,1,80,8|0,0:0|0:0,0:0:0:0:
205,271,180195,6,0,L|281:299,1,80,4|2,0:0|0:0,0:0:0:0:
149,219,180606,1,0,0:0:0:0:
336,350,180812,1,6,0:0:0:0:
336,350,181017,6,0,P|352:305|356:269,1,80,8|0,0:0|0:0,0:0:0:0:
284,16,181428,2,0,P|244:43|220:70,1,80,4|0,0:0|0:0,0:0:0:0:
129,317,181839,2,0,P|177:319|213:311,1,80,0|0,0:0|0:0,0:0:0:0:
431,164,182250,2,0,P|393:135|360:120,1,80,4|0,0:0|0:0,0:0:0:0:
97,110,182661,2,0,P|110:157|128:188,1,80,8|0,0:0|0:0,0:0:0:0:
356,274,183072,5,8,0:0:0:0:
222,66,183277,1,0,0:0:0:0:
208,312,183483,1,4,0:0:0:0:
365,121,183688,1,2,0:0:0:0:
126,184,183894,1,2,0:0:0:0:
256,192,184099,1,6,0:0:0:0:
256,192,184202,1,0,0:0:0:0:
256,192,184305,6,0,P|280:198|334:196,1,80,8|0,0:0|0:0,0:0:0:0:
356,275,184716,2,0,P|363:298|392:344,1,80,0|0,0:0|0:0,0:0:0:0:
365,121,185127,2,0,P|357:97|328:51,1,80,4|0,0:0|0:0,0:0:0:0:
264,283,185538,2,0,P|239:277|191:252,1,80,0|2,0:0|0:0,0:0:0:0:
173,162,185949,6,0,P|87:153|41:161,1,120,8|0,0:0|0:0,0:0:0:0:
54,157,186360,1,8,0:0:0:0:
173,162,186565,1,0,0:0:0:0:
110,263,186770,1,4,0:0:0:0:
115,93,186976,1,2,0:0:0:0:
110,263,187181,2,0,L|107:342,1,80,10|6,0:0|0:0,0:0:0:0:
189,242,187592,6,0,P|233:216|248:191,1,80,8|0,0:0|0:0,0:0:0:0:
297,64,188003,2,0,P|253:90|238:115,1,80,0|0,0:0|0:0,0:0:0:0:
279,282,188414,2,0,P|291:307|288:358,1,80,4|0,0:0|0:0,0:0:0:0:
173,161,188825,2,0,P|160:136|163:85,1,80,0|2,0:0|0:0,0:0:0:0:
239,113,189236,5,8,0:0:0:0:
281,234,189442,1,0,0:0:0:0:
173,161,189647,1,8,0:0:0:0:
304,157,189852,1,0,0:0:0:0:
202,237,190058,5,4,0:0:0:0:
281,234,190264,1,2,0:0:0:0:
360,248,190469,1,10,0:0:0:0:
432,280,190675,1,6,0:0:0:0:
468,208,190880,6,0,P|467:165|474:128,1,80,8|0,0:0|0:0,0:0:0:0:
360,248,191291,2,0,P|360:290|353:327,1,80,0|0,0:0|0:0,0:0:0:0:
304,156,191702,2,0,P|278:128|252:85,1,80,4|0,0:0|0:0,0:0:0:0:
284,296,192113,2,0,P|246:291|199:273,1,80,0|2,0:0|0:0,0:0:0:0:
304,156,192524,6,0,B|251:186|251:186|224:183|194:197,1,120,8|0,0:0|0:0,0:0:0:0:
193,197,192935,1,8,0:0:0:0:
284,296,193140,1,0,0:0:0:0:
305,157,193346,1,4,0:0:0:0:
206,277,193551,1,2,0:0:0:0:
193,197,193757,1,10,0:0:0:0:
195,117,193962,1,6,0:0:0:0:
202,37,194168,6,0,P|190:135|156:187,1,160,8|0,0:0|0:0,0:0:0:0:
130,260,194784,1,0,0:0:0:0:
88,328,194990,2,0,P|56:292|49:244,1,80,4|0,0:0|0:0,0:0:0:0:
207,277,195401,2,0,P|251:294|298:284,1,80,0|2,0:0|0:0,0:0:0:0:
257,219,195812,5,8,0:0:0:0:
207,277,196017,1,0,0:0:0:0:
282,291,196223,1,8,0:0:0:0:
244,202,196428,5,0,0:0:0:0:
198,296,196633,1,4,0:0:0:0:
303,288,196839,1,2,0:0:0:0:
223,189,197044,5,8,0:0:0:0:
198,320,197249,1,6,0:0:0:0:
324,276,197455,6,0,P|358:249|396:239,1,80,8|0,0:0|0:0,0:0:0:0:
394,328,197866,2,0,P|435:317|474:322,1,80,0|0,0:0|0:0,0:0:0:0:
239,255,198277,6,0,P|260:217|291:193,1,80,4|0,0:0|0:0,0:0:0:0:
324,276,198688,2,0,P|358:249|396:239,1,80,0|2,0:0|0:0,0:0:0:0:
152,268,199099,6,0,P|156:225|176:190,1,80,8|0,0:0|0:0,0:0:0:0:
239,254,199510,2,0,P|260:216|291:192,1,80,8|0,0:0|0:0,0:0:0:0:
78,314,199921,6,0,P|65:272|69:233,1,80,4|2,0:0|0:0,0:0:0:0:
152,268,200332,1,10,0:0:0:0:
174,193,200538,1,6,0:0:0:0:
161,114,200743,6,0,P|139:76|108:52,1,80,8|0,0:0|0:0,0:0:0:0:
76,134,201154,2,0,P|41:107|3:97,1,80,0|0,0:0|0:0,0:0:0:0:
247,127,201565,6,0,P|242:84|222:49,1,80,4|0,0:0|0:0,0:0:0:0:
161,114,201976,2,0,P|139:76|108:52,1,80,0|2,0:0|0:0,0:0:0:0:
322,173,202387,6,0,P|334:131|330:95,1,80,8|0,0:0|0:0,0:0:0:0:
247,126,202798,2,0,P|242:83|222:48,1,80,8|0,0:0|0:0,0:0:0:0:
372,245,203209,6,0,P|399:211|411:173,1,80,4|2,0:0|0:0,0:0:0:0:
322,173,203620,1,10,0:0:0:0:
330,95,203825,1,6,0:0:0:0:
354,18,204031,5,8,0:0:0:0:
247,126,204236,1,0,0:0:0:0:
377,23,204442,1,0,0:0:0:0:
223,120,204647,1,0,0:0:0:0:
265,33,204853,5,4,0:0:0:0:
247,126,205058,1,0,0:0:0:0:
243,222,205264,1,0,0:0:0:0:
266,314,205469,1,2,0:0:0:0:
354,275,205675,5,8,0:0:0:0:
243,222,205880,1,0,0:0:0:0:
384,252,206086,1,8,0:0:0:0:
212,244,206291,1,0,0:0:0:0:
266,314,206496,5,4,0:0:0:0:
212,244,206702,1,2,0:0:0:0:
140,195,206907,1,10,0:0:0:0:
54,171,207113,1,6,0:0:0:0:
162,33,207318,5,8,0:0:0:0:
114,212,207524,1,0,0:0:0:0:
137,50,207729,1,0,0:0:0:0:
140,196,207935,1,0,0:0:0:0:
191,121,208140,5,4,0:0:0:0:
137,50,208346,1,0,0:0:0:0:
49,79,208551,1,0,0:0:0:0:
53,171,208757,1,2,0:0:0:0:
140,196,208962,5,8,0:0:0:0:
192,120,209168,1,0,0:0:0:0:
112,284,209373,1,8,0:0:0:0:
272,76,209579,1,0,0:0:0:0:
182,339,209784,2,0,L|182:380,4,40,4|0|2|0|8,0:0|0:0|0:0|0:0|0:0,0:0:0:0:
256,288,210401,1,6,0:0:0:0:
233,203,210607,5,8,0:0:0:0:
256,288,211017,1,0,0:0:0:0:
182,339,211428,1,4,0:0:0:0:
112,284,211839,1,0,0:0:0:0:
140,196,212250,5,0,0:0:0:0:
233,203,212455,1,0,0:0:0:0:
112,284,212661,1,0,0:0:0:0:
140,196,213072,1,4,0:0:0:0:
136,104,213483,1,0,0:0:0:0:
96,21,213894,5,0,0:0:0:0:
136,104,214305,1,0,0:0:0:0:
212,158,214716,1,4,0:0:0:0:
304,174,215127,1,0,0:0:0:0:
329,264,215538,5,0,0:0:0:0:
316,82,215743,1,4,0:0:0:0:
244,244,215949,1,0,0:0:0:0:
304,174,216360,1,4,0:0:0:0:
164,292,216770,1,0,0:0:0:0:
244,244,217181,5,0,0:0:0:0:
82,251,217592,1,0,0:0:0:0:
326,285,218003,1,4,0:0:0:0:
39,169,218414,1,0,0:0:0:0:
217,128,218825,5,0,0:0:0:0:
126,138,219030,1,0,0:0:0:0:
39,169,219236,1,0,0:0:0:0:
82,251,219647,1,4,0:0:0:0:
174,45,220058,1,0,0:0:0:0:
217,128,220469,5,0,0:0:0:0:
295,179,220880,1,0,0:0:0:0:
388,194,221291,1,4,0:0:0:0:
417,105,221702,1,0,0:0:0:0:
417,105,222113,6,0,L|421:189,1,80
134,276,222524,2,0,L|138:360,1,80,0|0,0:0|0:0,0:0:0:0:
330,248,222935,2,0,L|334:332,1,80,4|0,0:0|0:0,0:0:0:0:
221,133,223346,2,0,L|225:217,1,80,0|4,0:0|0:0,0:0:0:0:
221,133,223757,5,0,0:0:0:0:
330,248,224168,1,0,0:0:0:0:
134,276,224579,1,2,0:0:0:0:
417,105,224990,1,0,0:0:0:0:
412,280,225401,5,0,0:0:0:0:
330,248,225606,1,0,0:0:0:0:
344,335,225812,1,0,0:0:0:0:
265,187,226223,1,2,0:0:0:0:
231,105,226633,1,0,0:0:0:0:
270,276,227044,5,0,0:0:0:0:
160,45,227455,1,0,0:0:0:0:
231,105,227866,1,2,0:0:0:0:
321,131,228277,1,0,0:0:0:0:
414,127,228688,5,0,0:0:0:0:
372,209,228894,1,2,0:0:0:0:
360,36,229099,2,0,L|366:119,1,80,0|2,0:0|0:0,0:0:0:0:
372,209,229921,1,0,0:0:0:0:
329,286,230332,5,0,0:0:0:0:
183,98,230743,1,0,0:0:0:0:
256,344,231154,1,2,0:0:0:0:
256,40,231565,1,0,0:0:0:0:
256,40,231976,5,0,0:0:0:0:
256,192,232181,1,0,0:0:0:0:
256,344,232387,1,0,0:0:0:0:
176,300,232798,1,2,0:0:0:0:
84,284,233209,1,0,0:0:0:0:
144,216,233620,5,0,0:0:0:0:
256,344,234031,1,0,0:0:0:0:
336,84,234442,1,2,0:0:0:0:
176,300,234853,1,0,0:0:0:0:
176,300,235264,5,0,0:0:0:0:
309,83,235470,1,0,0:0:0:0:
202,300,235675,1,0,0:0:0:0:
286,88,235881,1,0,0:0:0:0:
225,295,236086,1,2,0:0:0:0:
266,98,236291,1,0,0:0:0:0:
245,285,236496,1,0,0:0:0:0:
256,192,236702,5,6,0:0:0:0:
