osu file format v12

[General]
AudioFilename: 19 - Princess.mp3
AudioLeadIn: 0
PreviewTime: 105401
Countdown: 0
SampleSet: Soft
StackLeniency: 0.7
Mode: 0
LetterboxInBreaks: 0

[Editor]
Bookmarks: 26404
DistanceSpacing: 0.9
BeatDivisor: 4
GridSize: 4

[Metadata]
Title:Princess
TitleUnicode:Princess
Artist:oukaitou
ArtistUnicode:α·Pav
Creator:JauiPlaY
Version:Doubt
Source:
Tags:Dulcet Series summer special collection good machine oil
BeatmapID:203818
BeatmapSetID:69781

[Difficulty]
HPDrainRate:3
CircleSize:3
OverallDifficulty:3
ApproachRate:5
SliderMultiplier:1.2
SliderTickRate:1

[Events]
//Background and Video events
0,0,"108ec8144a98c0c69621f4f4c831a13f.jpg",0,0
//Break Periods
2,138477,143653
2,217381,222557
//Storyboard Layer 0 (Background)
//Storyboard Layer 1 (Fail)
//Storyboard Layer 2 (Pass)
//Storyboard Layer 3 (Foreground)
//Storyboard Sound Samples
//Background Colour Transformations
3,100,0,0,0

[TimingPoints]
26497,410.958904109589,4,2,1,35,1,0
105401,-100,4,2,1,35,0,1
131702,-100,4,2,1,35,0,0
158003,-100,4,2,1,35,0,1
158106,-100,4,2,1,35,0,0
184305,-100,4,2,1,35,0,1
210503,-100,4,2,1,35,0,0
210606,-100,4,2,1,35,0,1
210709,-100,4,2,1,35,0,0
230332,-100,4,2,2,25,0,0

[Colours]
Combo1 : 255,17,142
Combo2 : 69,36,255
Combo3 : 236,88,252
Combo4 : 143,32,255

[HitObjects]
256,192,26497,2,0,L|272:320,1,120,2|0,0:0|0:0,0:0:0:0:
368,352,27318,2,0,P|428:299|397:205,1,180
365,175,28140,2,0,P|403:94|492:40,2,180,0|0|0,0:0|0:0|0:0,0:0:0:0:
256,192,29784,5,2,0:0:0:0:
184,112,30195,1,0,0:0:0:0:
80,96,30606,2,0,L|96:288,1,180
128,312,31428,2,0,P|200:304|312:352,2,180,0|0|0,0:0|0:0|0:0,0:0:0:0:
168,216,33072,6,0,P|192:120|272:80,1,180,2|0,0:0|0:0,0:0:0:0:
319,170,34099,2,0,L|362:126,1,60
464,96,34716,2,0,P|464:184|400:248,2,180,0|0|0,0:0|0:0|0:0,0:0:0:0:
368,144,36360,6,0,L|384:336,1,180,2|0,0:0|0:0,0:0:0:0:
278,352,37387,2,0,P|260:316|257:282,1,60
208,200,38003,2,0,P|176:266|172:388,2,180,0|0|0,0:0|0:0|0:0,0:0:0:0:
96,208,39647,6,0,L|80:80,2,120,2|0|0,0:0|0:0|0:0,0:0:0:0:
208,96,41086,1,0,0:0:0:0:
208,96,41291,2,0,P|263:36|351:62,2,180,0|0|0,0:0|0:0|0:0,0:0:0:0:
285,171,42935,6,0,L|407:162,2,120,2|0|0,0:0|0:0|0:0,0:0:0:0:
416,265,44373,1,0,0:0:0:0:
416,265,44579,2,0,P|377:332|275:349,2,180,0|0|0,0:0|0:0|0:0,0:0:0:0:
309,243,46223,6,0,P|217:277|186:352,1,180,2|0,0:0|0:0,0:0:0:0:
79,358,47250,2,0,P|76:319|60:293,1,60
93,196,47866,2,0,L|23:96,1,120,0|0,0:0|0:0,0:0:0:0:
131,84,48688,2,0,P|191:78|251:27,1,120
300,133,49510,6,0,P|396:93|472:100,1,180,2|0,0:0|0:0,0:0:0:0:
426,198,50538,2,0,L|364:208,1,60
366,207,51154,1,0,0:0:0:0:
360,315,51565,1,0,0:0:0:0:
457,268,51976,1,0,0:0:0:0:
366,207,52387,1,0,0:0:0:0:
387,101,52798,5,2,0:0:0:0:
300,38,53209,1,0,0:0:0:0:
193,53,53620,2,0,P|121:90|66:93,1,120
90,148,54236,2,0,P|62:170|47:197,1,60,0|2,0:0|0:0,0:0:0:0:
196,258,55058,2,0,P|228:332|330:347,1,180
303,244,56086,5,2,0:0:0:0:
400,197,56496,2,0,P|433:146|436:81,1,120
332,54,57318,2,0,L|274:22,2,60,0|0|2,0:0|0:0|0:0,0:0:0:0:
192,137,58346,2,0,P|96:97|55:33,1,180
3,130,59373,6,0,L|20:252,1,120,2|0,0:0|0:0,0:0:0:0:
127,258,60195,1,0,0:0:0:0:
208,328,60606,2,0,L|276:348,1,60
292,297,61017,2,0,P|373:332|472:316,2,180,2|0|0,0:0|0:0|0:0,0:0:0:0:
304,189,62661,6,0,P|238:200|191:245,2,120,2|0|0,0:0|0:0|0:0,0:0:0:0:
410,167,63894,2,0,L|454:223,2,60,0|0|2,0:0|0:0|0:0,0:0:0:0:
289,58,64921,2,0,P|215:88|145:25,1,180
80,120,65949,5,2,0:0:0:0:
176,312,66770,1,0,0:0:0:0:
80,264,67181,2,0,P|104:224|128:208,1,60
160,192,67592,2,0,P|248:200|304:136,2,180,2|0|0,0:0|0:0|0:0,0:0:0:0:
204,93,69236,5,2,0:0:0:0:
304,135,69647,1,0,0:0:0:0:
339,237,70058,1,0,0:0:0:0:
471,66,70880,2,0,B|463:189|463:189|440:245,2,180,2|0|0,0:0|0:0|0:0,0:0:0:0:
367,96,72524,6,0,P|326:185|400:309,1,240,2|0,0:0|0:0,0:0:0:0:
288,340,73757,2,0,P|249:315|224:288,1,60
196,339,74168,2,0,P|124:293|105:199,2,180,2|0|0,0:0|0:0|0:0,0:0:0:0:
207,231,75812,6,0,L|220:112,1,120,2|0,0:0|0:0,0:0:0:0:
324,83,76633,2,0,P|393:67|445:24,1,120
465,141,77455,1,2,0:0:0:0:
465,141,77866,1,0,0:0:0:0:
465,141,78277,2,0,L|437:197,1,60
448,302,78894,1,0,0:0:0:0:
448,302,79099,6,0,P|381:319|323:302,1,120,2|0,0:0|0:0,0:0:0:0:
248,240,79921,1,2,0:0:0:0:
248,348,80332,2,0,L|184:331,1,60
144,360,80743,2,0,P|160:264|136:168,2,180,0|2|2,0:0|0:0|0:0,0:0:0:0:
64,288,82387,6,0,P|32:216|24:152,2,120,2|0|2,0:0|0:0|0:0,0:0:0:0:
152,152,83825,1,0,0:0:0:0:
152,152,84031,2,0,B|168:208|168:208|240:224|280:272,2,180,0|2|2,0:0|0:0|0:0,0:0:0:0:
232,80,85675,6,0,P|296:40|360:48,1,120,2|0,0:0|0:0,0:0:0:0:
400,128,86496,1,2,0:0:0:0:
500,167,86907,2,0,P|497:215|488:238,1,60
464,272,87318,2,0,B|424:256|408:216|408:216|368:256|368:312,2,180,0|2|2,0:0|0:0|0:0,0:0:0:0:
508,370,88962,6,0,P|476:378|436:362,1,60,2|0,0:0|0:0,0:0:0:0:
368,304,89579,2,0,P|342:297|310:305,1,60,0|2,0:0|0:0,0:0:0:0:
210,346,90195,1,0,0:0:0:0:
103,326,90606,2,0,P|70:254|72:154,2,180,0|2|2,0:0|0:0|0:0,0:0:0:0:
161,234,92250,6,0,P|189:176|200:107,1,120,2|0,0:0|0:0,0:0:0:0:
301,85,93072,1,2,0:0:0:0:
401,125,93483,2,0,P|415:161|438:189,1,60
446,228,93894,2,0,P|489:290|416:333,2,180,0|2|2,0:0|0:0|0:0,0:0:0:0:
340,252,95538,5,2,0:0:0:0:
250,312,95949,1,0,0:0:0:0:
141,311,96360,1,2,0:0:0:0:
69,165,96976,1,0,0:0:0:0:
69,165,97181,2,0,B|114:179|142:220|142:220|171:198|236:209,2,180,0|2|2,0:0|0:0|0:0,0:0:0:0:
42,59,98825,6,0,P|87:40|162:37,1,120,0|2,0:0|0:0,0:0:0:0:
157,36,100058,1,2,0:0:0:0:
133,141,100469,6,0,P|178:122|253:119,1,120,0|2,0:0|0:0,0:0:0:0:
248,118,101702,1,2,0:0:0:0:
223,222,102113,6,0,P|268:203|343:200,1,120,0|2,0:0|0:0,0:0:0:0:
338,199,103346,1,2,0:0:0:0:
314,304,103757,6,0,P|359:285|434:282,1,120,0|2,0:0|0:0,0:0:0:0:
506,357,104579,2,0,P|461:376|386:379,1,120,2|2,0:0|0:0,0:0:0:0:
314,304,105401,5,8,0:0:0:0:
216,264,105812,1,0,0:0:0:0:
200,160,106223,1,2,0:0:0:0:
298,200,106633,1,0,0:0:0:0:
216,264,107044,6,0,L|208:328,2,60,8|0|8,0:0|0:0|0:0,0:0:0:0:
298,200,107866,1,0,0:0:0:0:
200,160,108277,1,8,0:0:0:0:
92,148,108688,6,0,P|76:112|104:36,1,120,8|0,0:0|0:0,0:0:0:0:
208,52,109510,2,0,P|224:88|196:164,1,120,2|0,0:0|0:0,0:0:0:0:
136,248,110332,2,0,L|76:256,2,60,8|0|8,0:0|0:0|0:0,0:0:0:0:
208,328,111154,2,0,P|262:355|343:344,1,120,0|8,0:0|0:0,0:0:0:0:
400,280,111976,5,8,0:0:0:0:
344,188,112387,1,0,0:0:0:0:
396,92,112798,1,2,0:0:0:0:
452,184,113209,1,0,0:0:0:0:
344,188,113620,6,0,L|284:168,2,60,8|0|8,0:0|0:0|0:0,0:0:0:0:
452,184,114442,1,0,0:0:0:0:
396,92,114853,1,8,0:0:0:0:
300,48,115264,6,0,P|160:24|88:88,1,240,8|2,0:0|0:0,0:0:0:0:
164,160,116497,1,0,0:0:0:0:
88,240,116907,2,0,B|136:280|204:264|204:264|180:324|212:388,1,240,8|0,0:0|0:0,0:0:0:0:
300,320,118140,1,8,0:0:0:0:
408,336,118551,5,8,0:0:0:0:
440,232,118962,2,0,B|448:176|496:144|496:144|432:152|400:128|400:128|424:96,1,240,2|2,0:0|0:0,0:0:0:0:
328,48,120195,2,0,L|264:24,2,60,8|0|8,0:0|0:0|0:0,0:0:0:0:
256,128,121017,2,0,P|192:128|128:112,1,120,0|8,0:0|0:0,0:0:0:0:
80,24,121839,5,8,0:0:0:0:
32,120,122250,2,0,B|48:168|80:192|80:192|48:248|64:304|112:336,1,240,2|2,0:0|0:0,0:0:0:0:
176,248,123483,2,0,L|232:288,2,60,8|0|8,0:0|0:0|0:0,0:0:0:0:
216,144,124305,2,0,P|256:88|312:64,1,120,0|8,0:0|0:0,0:0:0:0:
408,32,125127,6,0,P|424:80|424:160,1,120,8|2,0:0|0:0,0:0:0:0:
488,296,126154,2,0,L|440:344,1,60,0|2,0:0|0:0,0:0:0:0:
352,288,126770,2,0,P|288:272|224:288,1,120,8|8,0:0|0:0,0:0:0:0:
80,232,127798,2,0,P|80:192|88:160,1,60,0|8,0:0|0:0,0:0:0:0:
40,72,128414,6,0,P|104:48|160:56,1,120,8|2,0:0|0:0,0:0:0:0:
208,208,129442,2,0,P|232:248|248:264,1,60,0|2,0:0|0:0,0:0:0:0:
312,336,130058,2,0,P|352:296|368:224,1,120,8|8,0:0|0:0,0:0:0:0:
296,96,131086,2,0,P|336:80|368:80,2,60,0|8|0,0:0|0:0|0:0,0:0:0:0:
256,192,131702,12,0,138277,0:0:0:0:
256,192,144853,5,8,0:0:0:0:
256,304,145264,1,4,0:0:0:0:
256,88,146086,5,0,0:0:0:0:
344,152,146496,1,8,0:0:0:0:
432,216,146907,1,8,0:0:0:0:
256,88,147729,5,4,0:0:0:0:
168,152,148140,1,8,0:0:0:0:
80,216,148551,1,4,0:0:0:0:
256,88,149373,5,0,0:0:0:0:
336,168,149784,2,0,P|332:223|303:294,1,120,8|8,0:0|0:0,0:0:0:0:
202,283,150606,2,0,P|179:223|176:168,1,120,0|4,0:0|0:0,0:0:0:0:
108,84,151428,5,8,0:0:0:0:
204,36,151839,1,4,0:0:0:0:
308,36,152250,1,0,0:0:0:0:
404,84,152661,1,4,0:0:0:0:
404,192,153072,5,8,0:0:0:0:
308,240,153483,1,12,0:0:0:0:
204,240,153894,1,0,0:0:0:0:
108,192,154305,2,0,L|44:192,2,60,4|0|8,0:0|0:0|0:0,0:0:0:0:
200,136,155127,6,0,B|192:96|216:56|256:40|256:40|296:56|320:96|312:136,1,240,4|4,0:0|0:0,0:0:0:0:
256,224,156360,1,8,0:0:0:0:
344,288,156770,2,0,P|256:360|168:288,1,240,12|4,0:0|0:0,0:0:0:0:
256,224,158003,5,8,0:0:0:0:
352,184,158414,1,2,0:0:0:0:
400,88,158825,2,0,B|336:80|288:48|288:48|224:80,1,180,4|0,0:0|0:0,0:0:0:0:
227,128,159647,2,0,P|169:134|105:110,1,120,8|8,0:0|0:0,0:0:0:0:
111,114,160880,2,0,L|132:48,2,60,0|0|8,0:0|0:0|0:0,0:0:0:0:
90,220,161702,6,0,P|74:284|42:332,1,120,2|4,0:0|0:0,0:0:0:0:
208,344,162729,2,0,P|232:312|272:296,1,60,0|8,0:0|0:0,0:0:0:0:
352,328,163346,2,0,P|400:272|400:216,1,120,8|0,0:0|0:0,0:0:0:0:
344,136,164168,1,0,0:0:0:0:
432,72,164579,6,0,P|384:24|336:24,1,120,8|2,0:0|0:0,0:0:0:0:
248,88,165401,2,0,P|152:112|64:88,1,180,4|0,0:0|0:0,0:0:0:0:
74,93,166223,2,0,L|32:208,1,120,8|8,0:0|0:0,0:0:0:0:
240,272,167455,2,0,L|200:224,2,60,0|0|8,0:0|0:0|0:0,0:0:0:0:
332,328,168277,6,0,B|373:318|373:318|383:288|425:250,1,120,2|4,0:0|0:0,0:0:0:0:
420,148,169099,1,0,0:0:0:0:
372,51,169510,2,0,P|311:79|275:118,1,120,8|8,0:0|0:0,0:0:0:0:
174,77,170332,2,0,P|138:116|77:144,1,120
33,242,171154,5,8,0:0:0:0:
137,269,171565,1,2,0:0:0:0:
213,345,171976,2,0,P|293:333|347:255,1,180,4|0,0:0|0:0,0:0:0:0:
346,255,172798,2,0,L|456:312,1,120,8|8,0:0|0:0,0:0:0:0:
453,310,174031,2,0,L|465:371,2,60,0|0|8,0:0|0:0|0:0,0:0:0:0:
477,205,174853,5,2,0:0:0:0:
444,102,175264,1,4,0:0:0:0:
293,42,175880,2,0,P|310:85|337:116,1,60,0|8,0:0|0:0,0:0:0:0:
385,179,176496,2,0,P|328:215|266:211,1,120,8|0,0:0|0:0,0:0:0:0:
192,281,177318,1,0,0:0:0:0:
100,338,177729,6,0,P|72:288|79:204,1,120,8|2,0:0|0:0,0:0:0:0:
24,128,178551,2,0,P|75:61|175:48,1,180,4|0,0:0|0:0,0:0:0:0:
163,99,179373,2,0,P|195:145|264:168,1,120,8|8,0:0|0:0,0:0:0:0:
332,94,180195,1,0,0:0:0:0:
439,81,180606,2,0,L|484:22,2,60,0|0|8,0:0|0:0|0:0,0:0:0:0:
423,188,181428,5,2,0:0:0:0:
451,292,181839,2,0,P|405:342|337:350,1,120,4|0,0:0|0:0,0:0:0:0:
258,306,182661,2,0,P|304:256|372:248,1,120,8|8,0:0|0:0,0:0:0:0:
356,352,183483,1,0,0:0:0:0:
258,306,183894,1,0,0:0:0:0:
151,287,184305,5,8,0:0:0:0:
40,296,184716,1,0,0:0:0:0:
54,189,185127,2,0,L|38:125,2,60,4|0|0,0:0|0:0|0:0,0:0:0:0:
155,151,185949,2,0,P|192:111|216:43,1,120,8|8,0:0|0:0,0:0:0:0:
320,75,186770,2,0,P|423:73|471:130,1,180,6|2,0:0|0:0,0:0:0:0:
437,169,187592,6,0,P|424:206|449:280,1,120,8|0,0:0|0:0,0:0:0:0:
347,318,188414,2,0,L|397:374,2,60,4|0|0,0:0|0:0|0:0,0:0:0:0:
240,336,189236,2,0,P|206:284|205:221,1,120,8|10,0:0|0:0,0:0:0:0:
123,154,190058,2,0,P|175:120|238:119,1,120,4|10,0:0|0:0,0:0:0:0:
333,153,190880,5,8,0:0:0:0:
403,71,191291,2,0,P|463:131|481:176,1,120,0|4,0:0|0:0,0:0:0:0:
438,200,191907,2,0,L|425:260,1,60
331,313,192524,2,0,L|292:364,2,60,8|0|8,0:0|0:0|0:0,0:0:0:0:
225,290,193346,2,0,P|176:294|101:255,1,120,4|2,0:0|0:0,0:0:0:0:
184,184,194168,5,8,0:0:0:0:
96,120,194579,1,0,0:0:0:0:
40,27,194990,2,0,L|104:18,2,60,4|0|0,0:0|0:0|0:0,0:0:0:0:
96,120,195812,2,0,P|91:153|77:176,1,60,8|0,0:0|0:0,0:0:0:0:
39,213,196223,2,0,P|34:266|56:340,2,120,10|4|10,0:0|0:0|0:0,0:0:0:0:
136,256,197455,6,0,B|168:256|192:232|192:232|184:280|216:328|216:328|232:296|280:288,1,240,8|4,0:0|0:0,0:0:0:0:
376,328,198688,1,0,0:0:0:0:
480,296,199099,2,0,L|512:352,2,60,8|0|8,0:0|0:0|0:0,0:0:0:0:
448,192,199921,2,0,P|408:136|424:32,1,180,6|2,0:0|0:0,0:0:0:0:
424,31,200743,6,0,B|320:32|248:80|248:80|280:88|312:112,1,240,8|4,0:0|0:0,0:0:0:0:
304,208,201976,1,0,0:0:0:0:
272,312,202387,2,0,L|320:368,2,60,8|0|10,0:0|0:0|0:0,0:0:0:0:
168,344,203209,2,0,P|104:320|72:264,1,120,4|10,0:0|0:0,0:0:0:0:
120,176,204031,5,8,0:0:0:0:
171,84,204442,1,0,0:0:0:0:
272,56,204853,1,4,0:0:0:0:
363,107,205264,1,0,0:0:0:0:
392,208,205675,5,8,0:0:0:0:
340,299,206086,1,8,0:0:0:0:
240,328,206496,1,4,0:0:0:0:
148,276,206907,1,2,0:0:0:0:
120,176,207318,6,0,P|184:176|240:152,1,120,8|0,0:0|0:0,0:0:0:0:
272,56,208140,2,0,P|272:120|296:176,1,120,4|0,0:0|0:0,0:0:0:0:
392,208,208962,2,0,P|328:208|272:232,1,120,8|10,0:0|0:0,0:0:0:0:
240,328,209784,2,0,P|240:264|216:208,1,120,4|10,0:0|0:0,0:0:0:0:
256,192,210606,12,0,217181,0:0:0:0:
256,248,223757,5,0,0:0:0:0:
256,136,224168,1,2,0:0:0:0:
256,352,224990,5,0,0:0:0:0:
168,288,225401,1,0,0:0:0:0:
80,224,225812,1,2,0:0:0:0:
256,352,226633,5,0,0:0:0:0:
344,288,227044,1,0,0:0:0:0:
432,224,227455,1,2,0:0:0:0:
256,352,228277,5,0,0:0:0:0:
176,272,228688,2,0,P|180:217|209:146,1,120,0|2,0:0|0:0,0:0:0:0:
310,157,229510,2,0,P|333:217|336:272,1,120,0|2,0:0|0:0,0:0:0:0:
256,352,230332,5,0,0:0:0:0:
176,276,230743,2,0,P|256:200|336:276,1,240,2|0,0:0|0:0,0:0:0:0:
436,232,231976,5,0,0:0:0:0:
464,128,232387,2,0,B|408:136|372:172|372:172|340:144|308:132|308:132|336:112|340:80,1,240,2|0,0:0|0:0,0:0:0:0:
256,16,233620,5,0,0:0:0:0:
172,82,234031,2,0,B|176:112|204:132|204:132|172:144|140:172|140:172|104:136|48:128,1,240,2|0,0:0|0:0,0:0:0:0:
76,232,235264,5,0,0:0:0:0:
168,288,235675,1,2,0:0:0:0:
256,224,236086,1,0,0:0:0:0:
344,288,236496,1,6,0:0:0:0:
