osu file format v12

[General]
AudioFilename: 19 - Princess.mp3
AudioLeadIn: 0
PreviewTime: 105401
Countdown: 0
SampleSet: Soft
StackLeniency: 0.7
Mode: 0
LetterboxInBreaks: 0

[Editor]
Bookmarks: 26404
DistanceSpacing: 0.9
BeatDivisor: 4
GridSize: 4

[Metadata]
Title:Princess
TitleUnicode:Princess
Artist:oukaitou
ArtistUnicode:α·Pav
Creator:JauiPlaY
Version:Despair
Source:
Tags:Dulcet Series summer special collection good machine oil
BeatmapID:217942
BeatmapSetID:69781

[Difficulty]
HPDrainRate:5
CircleSize:4
OverallDifficulty:6
ApproachRate:7
SliderMultiplier:1.3
SliderTickRate:1

[Events]
//Background and Video events
0,0,"108ec8144a98c0c69621f4f4c831a13f.jpg",0,0
//Break Periods
2,138477,143953
2,217381,222857
//Storyboard Layer 0 (Background)
//Storyboard Layer 1 (Fail)
//Storyboard Layer 2 (Pass)
//Storyboard Layer 3 (Foreground)
//Storyboard Sound Samples
//Background Colour Transformations
3,100,0,0,0

[TimingPoints]
26497,410.958904109589,4,2,1,35,1,0
105401,-100,4,2,1,35,0,1
131702,-100,4,2,1,35,0,0
158003,-100,4,2,1,35,0,1
158106,-100,4,2,1,35,0,0
184305,-100,4,2,1,35,0,1
210503,-100,4,2,1,35,0,0
210606,-100,4,2,1,35,0,1
210709,-100,4,2,1,35,0,0
230332,-100,4,2,2,25,0,0

[Colours]
Combo1 : 255,17,142
Combo2 : 69,36,255
Combo3 : 236,88,252
Combo4 : 143,32,255

[HitObjects]
256,192,26497,2,0,P|272:240|356:288,1,130,2|0,0:0|0:0,0:0:0:0:
436,340,27318,1,0,0:0:0:0:
456,164,27935,1,0,0:0:0:0:
456,164,28140,2,0,P|424:208|424:224,1,65,2|0,0:0|0:0,0:0:0:0:
356,120,28757,2,0,P|347:119|303:87,1,65
196,36,29373,1,0,0:0:0:0:
80,52,29784,6,0,P|100:124|84:184,1,130,2|0,0:0|0:0,0:0:0:0:
28,276,30606,1,0,0:0:0:0:
28,276,31223,1,0,0:0:0:0:
28,276,31428,2,0,L|96:248,1,65,2|0,0:0|0:0,0:0:0:0:
160,344,32044,2,0,L|236:344,1,65
320,276,32661,1,0,0:0:0:0:
388,184,33072,6,0,P|436:240|420:320,2,130,2|0|0,0:0|0:0|0:0,0:0:0:0:
240,88,34510,1,0,0:0:0:0:
240,88,34716,1,2,0:0:0:0:
240,88,34921,2,0,P|296:112|376:96,1,130
362,102,35538,1,0,0:0:0:0:
288,193,35949,1,0,0:0:0:0:
240,88,36360,5,2,0:0:0:0:
124,68,36770,2,0,P|115:123|62:189,1,130
208,72,37798,1,0,0:0:0:0:
208,72,38003,2,0,P|237:118|266:130,1,65,2|0,0:0|0:0,0:0:0:0:
218,175,38414,2,0,P|269:188|298:177,1,65
296,244,38825,2,0,P|343:218|357:190,2,65
177,264,39647,5,2,0:0:0:0:
267,189,40058,1,0,0:0:0:0:
323,291,40469,1,0,0:0:0:0:
323,291,41086,1,0,0:0:0:0:
324,292,41291,2,0,P|367:320|378:343,1,65,2|0,0:0|0:0,0:0:0:0:
486,304,41907,2,0,P|442:275|431:252,1,65
484,156,42524,1,0,0:0:0:0:
448,44,42935,6,0,P|392:84|376:148,1,130,2|0,0:0|0:0,0:0:0:0:
288,216,43757,1,0,0:0:0:0:
176,352,44373,2,0,P|181:309|220:280,1,65,0|2,0:0|0:0,0:0:0:0:
194,293,44784,1,0,0:0:0:0:
288,216,45195,1,0,0:0:0:0:
288,216,45401,2,0,P|226:136|186:107,1,130
140,20,46223,6,0,P|113:29|29:86,1,130,2|0,0:0|0:0,0:0:0:0:
71,198,47044,2,0,P|79:193|120:156,1,65
236,180,47661,2,0,P|233:189|212:240,1,65,0|2,0:0|0:0,0:0:0:0:
96,272,48277,1,0,0:0:0:0:
188,344,48688,1,0,0:0:0:0:
164,228,49099,1,0,0:0:0:0:
84,316,49510,6,0,P|146:346|227:324,1,130,2|0,0:0|0:0,0:0:0:0:
164,228,50332,1,0,0:0:0:0:
164,228,50538,1,0,0:0:0:0:
84,144,50949,1,0,0:0:0:0:
84,144,51154,2,0,P|104:104|144:76,1,65,2|0,0:0|0:0,0:0:0:0:
220,88,51565,2,0,P|200:128|160:156,1,65
260,212,51976,2,0,P|280:172|320:144,1,65
396,156,52387,2,0,P|376:196|336:224,1,65
260,212,52798,5,2,0:0:0:0:
196,308,53209,1,0,0:0:0:0:
88,352,53620,2,0,P|60:296|68:224,1,130
80,208,54236,1,0,0:0:0:0:
94,185,54442,2,0,P|122:129|114:57,1,130,2|0,0:0|0:0,0:0:0:0:
39,110,55058,2,0,L|169:130,1,130
167,129,55675,1,2,0:0:0:0:
272,79,56086,5,2,0:0:0:0:
383,111,56496,2,0,P|431:153|498:161,1,130
478,45,57318,1,0,0:0:0:0:
478,45,57524,1,0,0:0:0:0:
478,45,57729,2,0,L|418:163,1,130,2|0,0:0|0:0,0:0:0:0:
419,160,58346,1,0,0:0:0:0:
448,274,58757,2,0,P|425:306|384:324,1,65,0|0,0:0|0:0,0:0:0:0:
292,356,59373,5,2,0:0:0:0:
177,333,59784,1,0,0:0:0:0:
75,274,60195,1,0,0:0:0:0:
37,163,60606,2,0,P|40:123|68:88,1,65,0|0,0:0|0:0,0:0:0:0:
95,62,61017,2,0,P|155:106|273:118,2,195,2|0|2,0:0|0:0|0:0,0:0:0:0:
208,32,62661,6,0,L|222:111,1,65,2|0,0:0|0:0,0:0:0:0:
143,185,63277,2,0,L|129:264,1,65
86,357,63894,2,0,P|44:330|28:294,2,65,0|0|2,0:0|0:0|0:0,0:0:0:0:
200,331,64716,2,0,P|233:310|271:300,1,65
488,326,65332,2,0,P|455:347|417:357,1,65
362,259,65949,6,0,P|384:178|424:132,1,130,2|0,0:0|0:0,0:0:0:0:
480,47,66770,2,0,P|508:103|500:175,1,130
488,191,67387,1,0,0:0:0:0:
474,214,67592,2,0,P|446:270|454:342,1,130,2|0,0:0|0:0,0:0:0:0:
509,346,68209,2,0,L|379:326,1,130
380,326,68825,1,2,0:0:0:0:
277,269,69236,5,2,0:0:0:0:
160,279,69647,2,0,P|112:237|45:229,1,130
63,344,70469,1,0,0:0:0:0:
63,344,70675,1,0,0:0:0:0:
63,344,70880,2,0,L|123:226,1,130,2|0,0:0|0:0,0:0:0:0:
122,228,71496,1,0,0:0:0:0:
82,117,71907,2,0,P|90:78|121:45,1,65,0|0,0:0|0:0,0:0:0:0:
220,28,72524,5,2,0:0:0:0:
335,51,72935,1,0,0:0:0:0:
437,110,73346,1,0,0:0:0:0:
475,221,73757,2,0,P|472:261|444:296,1,65
417,322,74168,2,0,B|334:309|334:309|298:262|234:242,2,195,2|0|2,0:0|0:0|0:0,0:0:0:0:
304,352,75812,6,0,P|289:310|296:269,1,65,2|0,0:0|0:0,0:0:0:0:
381,217,76428,2,0,P|396:175|389:134,1,65
317,67,77044,1,0,0:0:0:0:
317,67,77455,6,0,P|290:97|283:136,1,65,2|0,0:0|0:0,0:0:0:0:
131,131,77866,2,0,P|161:158|200:165,1,65
195,317,78277,2,0,P|222:287|229:248,1,65
381,253,78688,2,0,P|351:226|312:219,1,65
256,192,79099,5,0,0:0:0:0:
152,248,79510,1,2,0:0:0:0:
132,364,79921,2,0,P|80:308|72:240,1,130,0|2,0:0|0:0,0:0:0:0:
56,232,80538,1,0,0:0:0:0:
41,206,80743,2,0,B|74:144|62:89|62:89|101:124|144:135,2,195,0|2|2,0:0|0:0|0:0,0:0:0:0:
140,32,82387,5,0,0:0:0:0:
244,84,82798,1,2,0:0:0:0:
312,180,83209,1,0,0:0:0:0:
332,296,83620,2,0,P|368:280|392:252,1,65,2|0,0:0|0:0,0:0:0:0:
444,260,84031,2,0,P|360:296|254:252,2,195,0|2|2,0:0|0:0|0:0,0:0:0:0:
408,148,85675,6,0,P|432:72|476:28,2,130,0|2|0,0:0|0:0|0:0,0:0:0:0:
320,68,86907,2,0,P|280:88|264:108,1,65,2|0,0:0|0:0,0:0:0:0:
228,60,87318,2,0,P|220:156|280:244,2,195,0|2|2,0:0|0:0|0:0,0:0:0:0:
132,124,88962,6,0,P|88:108|60:76,1,65,0|2,0:0|0:0,0:0:0:0:
112,208,89579,2,0,P|53:250|22:299,1,130,0|2,0:0|0:0,0:0:0:0:
136,324,90401,1,2,0:0:0:0:
136,324,90606,2,0,B|216:348|216:348|276:332|340:344,2,195,0|2|2,0:0|0:0|0:0,0:0:0:0:
200,224,92250,5,0,0:0:0:0:
304,168,92661,1,2,0:0:0:0:
324,52,93072,2,0,P|376:108|384:176,1,130,0|2,0:0|0:0,0:0:0:0:
400,184,93688,1,0,0:0:0:0:
415,210,93894,2,0,B|446:272|497:294|497:294|447:306|413:335,2,195,0|2|2,0:0|0:0|0:0,0:0:0:0:
300,236,95538,5,0,0:0:0:0:
228,328,95949,1,2,0:0:0:0:
160,232,96360,1,0,0:0:0:0:
124,120,96770,2,0,P|88:136|64:164,1,65,2|0,0:0|0:0,0:0:0:0:
12,156,97181,2,0,P|95:119|201:163,2,195,0|2|2,0:0|0:0|0:0,0:0:0:0:
68,260,98825,5,0,0:0:0:0:
160,328,99236,1,2,0:0:0:0:
160,328,99442,1,0,0:0:0:0:
68,260,99853,1,2,0:0:0:0:
444,260,100469,5,0,0:0:0:0:
352,328,100880,1,2,0:0:0:0:
352,328,101086,1,0,0:0:0:0:
444,260,101496,1,2,0:0:0:0:
256,52,102113,5,0,0:0:0:0:
256,168,102524,1,2,0:0:0:0:
256,168,102729,1,0,0:0:0:0:
256,52,103140,1,2,0:0:0:0:
256,168,103551,1,2,0:0:0:0:
200,220,103757,6,0,P|200:252|180:296,1,65,0|2,0:0|0:0,0:0:0:0:
312,220,104168,2,0,P|312:252|332:296,1,65,0|2,0:0|0:0,0:0:0:0:
120,304,104579,2,0,P|101:329|59:353,1,65,0|2,0:0|0:0,0:0:0:0:
392,304,104990,2,0,P|410:329|452:353,1,65,0|2,0:0|0:0,0:0:0:0:
468,272,105401,5,8,0:0:0:0:
459,152,105812,1,0,0:0:0:0:
341,161,106223,1,2,0:0:0:0:
349,279,106633,1,0,0:0:0:0:
349,279,107044,2,0,L|388:348,2,65,8|0|8,0:0|0:0|0:0,0:0:0:0:
244,328,107866,2,0,P|168:304|132:252,1,130,0|8,0:0|0:0,0:0:0:0:
76,168,108688,5,8,0:0:0:0:
85,48,109099,1,0,0:0:0:0:
203,57,109510,1,2,0:0:0:0:
195,175,109921,1,0,0:0:0:0:
76,168,110332,2,0,L|0:196,2,65,8|0|8,0:0|0:0|0:0,0:0:0:0:
195,175,111154,2,0,P|256:144|284:64,1,130,0|8,0:0|0:0,0:0:0:0:
248,44,111770,2,0,P|296:20|328:12,1,65,0|8,0:0|0:0,0:0:0:0:
404,80,112387,5,0,0:0:0:0:
283,91,112798,1,2,0:0:0:0:
380,154,113209,1,0,0:0:0:0:
259,165,113620,2,0,L|193:157,2,65,8|0|8,0:0|0:0|0:0,0:0:0:0:
356,228,114442,2,0,P|424:233|479:175,1,130,0|8,0:0|0:0,0:0:0:0:
371,133,115264,6,0,L|344:273,1,130,8|0,0:0|0:0,0:0:0:0:
257,337,116086,2,0,P|214:336|183:314,1,65,2|0,0:0|0:0,0:0:0:0:
160,278,116497,2,0,P|192:250|208:209,1,65
257,210,116907,2,0,P|288:134|257:76,1,130,8|8,0:0|0:0,0:0:0:0:
169,36,117729,2,0,P|138:112|169:170,1,130,0|8,0:0|0:0,0:0:0:0:
44,112,118551,5,8,0:0:0:0:
53,232,118962,1,0,0:0:0:0:
171,223,119373,1,2,0:0:0:0:
163,105,119784,1,0,0:0:0:0:
163,105,120195,2,0,L|124:36,2,65,8|0|8,0:0|0:0|0:0,0:0:0:0:
268,56,121017,2,0,P|344:80|380:132,1,130,0|8,0:0|0:0,0:0:0:0:
436,216,121839,5,8,0:0:0:0:
427,336,122250,1,0,0:0:0:0:
309,327,122661,1,2,0:0:0:0:
317,209,123072,1,0,0:0:0:0:
436,216,123483,2,0,L|512:188,2,65,8|0|8,0:0|0:0|0:0,0:0:0:0:
317,209,124305,2,0,P|256:240|228:320,1,130,0|8,0:0|0:0,0:0:0:0:
264,340,124921,2,0,P|216:364|184:372,1,65,0|8,0:0|0:0,0:0:0:0:
158,259,125538,5,0,0:0:0:0:
142,156,125949,1,2,0:0:0:0:
183,75,126360,1,0,0:0:0:0:
256,48,126770,1,8,0:0:0:0:
329,75,127181,1,8,0:0:0:0:
370,156,127592,1,0,0:0:0:0:
354,259,128003,2,0,L|412:304,2,65,8|0|8,0:0|0:0|0:0,0:0:0:0:
256,324,128825,5,0,0:0:0:0:
124,192,129236,1,2,0:0:0:0:
256,60,129647,1,0,0:0:0:0:
388,192,130058,1,8,0:0:0:0:
256,247,130469,5,8,0:0:0:0:
200,192,130880,1,0,0:0:0:0:
256,136,131291,1,8,0:0:0:0:
311,192,131702,1,8,0:0:0:0:
256,192,131805,12,0,138277,0:0:0:0:
256,192,144853,5,8,0:0:0:0:
256,319,145264,1,4,0:0:0:0:
256,64,146086,1,0,0:0:0:0:
256,192,146496,5,8,0:0:0:0:
164,282,146907,1,8,0:0:0:0:
346,100,147729,1,4,0:0:0:0:
256,192,148140,5,8,0:0:0:0:
346,282,148551,1,4,0:0:0:0:
164,100,149373,1,0,0:0:0:0:
164,100,149784,6,0,L|215:151,1,65,8|0,0:0|0:0,0:0:0:0:
164,284,150195,2,0,L|215:233,1,65,8|0,0:0|0:0,0:0:0:0:
348,284,150606,2,0,L|297:233,1,65
348,100,151017,2,0,L|297:151,1,65,4|4,0:0|0:0,0:0:0:0:
302,145,151428,5,8,0:0:0:0:
256,40,151839,1,4,0:0:0:0:
160,104,152250,2,0,P|104:140|36:136,1,130,0|4,0:0|0:0,0:0:0:0:
36,168,152866,1,0,0:0:0:0:
29,197,153072,2,0,L|56:324,1,130,8|12,0:0|0:0,0:0:0:0:
80,344,153688,1,0,0:0:0:0:
103,363,153894,2,0,P|180:368|232:328,1,130,0|4,0:0|0:0,0:0:0:0:
248,328,154510,1,0,0:0:0:0:
273,316,154716,5,8,0:0:0:0:
360,263,155127,1,4,0:0:0:0:
385,165,155538,1,0,0:0:0:0:
334,77,155949,1,4,0:0:0:0:
173,289,156360,5,8,0:0:0:0:
122,202,156770,1,12,0:0:0:0:
148,103,157181,1,0,0:0:0:0:
235,51,157592,1,4,0:0:0:0:
44,112,158003,5,8,0:0:0:0:
53,232,158414,1,0,0:0:0:0:
171,223,158825,1,4,0:0:0:0:
163,105,159236,1,0,0:0:0:0:
163,105,159647,2,0,L|124:36,2,65,8|0|8,0:0|0:0|0:0,0:0:0:0:
268,56,160469,2,0,P|344:80|380:132,1,130,6|2,0:0|0:0,0:0:0:0:
436,216,161291,5,8,0:0:0:0:
427,336,161702,1,0,0:0:0:0:
309,327,162113,1,4,0:0:0:0:
317,209,162524,1,0,0:0:0:0:
436,216,162935,2,0,L|512:188,2,65,8|0|8,0:0|0:0|0:0,0:0:0:0:
317,209,163757,2,0,P|256:240|228:320,1,130,6|0,0:0|0:0,0:0:0:0:
264,340,164373,2,0,P|216:364|184:372,1,65,2|8,0:0|0:0,0:0:0:0:
108,304,164990,5,0,0:0:0:0:
229,293,165401,1,4,0:0:0:0:
132,230,165812,1,0,0:0:0:0:
253,219,166223,2,0,L|319:227,2,65,8|0|8,0:0|0:0|0:0,0:0:0:0:
156,156,167044,2,0,P|88:151|33:209,1,130,6|2,0:0|0:0,0:0:0:0:
141,251,167866,6,0,L|168:111,1,130,8|0,0:0|0:0,0:0:0:0:
255,47,168688,2,0,P|298:48|329:70,1,65,4|0,0:0|0:0,0:0:0:0:
352,106,169099,2,0,P|320:134|304:175,1,65
255,174,169510,2,0,P|224:250|255:308,1,130,8|10,0:0|0:0,0:0:0:0:
343,348,170332,2,0,P|374:272|343:214,1,130,4|2,0:0|0:0,0:0:0:0:
468,272,171154,5,8,0:0:0:0:
459,152,171565,1,0,0:0:0:0:
341,161,171976,1,4,0:0:0:0:
349,279,172387,1,0,0:0:0:0:
349,279,172798,2,0,L|388:348,2,65,8|0|8,0:0|0:0|0:0,0:0:0:0:
244,328,173620,2,0,P|168:304|132:252,1,130,6|2,0:0|0:0,0:0:0:0:
76,168,174442,5,8,0:0:0:0:
85,48,174853,1,0,0:0:0:0:
203,57,175264,1,4,0:0:0:0:
195,175,175675,1,0,0:0:0:0:
76,168,176086,2,0,L|0:196,2,65,8|0|8,0:0|0:0|0:0,0:0:0:0:
195,175,176907,2,0,P|256:144|284:64,1,130,6|0,0:0|0:0,0:0:0:0:
248,44,177524,2,0,P|296:20|328:12,1,65,2|8,0:0|0:0,0:0:0:0:
354,125,178140,5,0,0:0:0:0:
370,228,178551,1,4,0:0:0:0:
329,309,178962,1,0,0:0:0:0:
256,336,179373,1,8,0:0:0:0:
183,309,179784,1,8,0:0:0:0:
142,228,180195,1,6,0:0:0:0:
158,125,180606,2,0,L|100:80,2,65,2|0|8,0:0|0:0|0:0,0:0:0:0:
256,60,181428,5,0,0:0:0:0:
388,192,181839,1,4,0:0:0:0:
256,324,182250,1,0,0:0:0:0:
124,192,182661,1,8,0:0:0:0:
256,137,183072,5,10,0:0:0:0:
312,192,183483,1,4,0:0:0:0:
256,248,183894,1,2,0:0:0:0:
201,192,184305,6,0,B|136:232|136:232|128:288,1,130,8|2,0:0|0:0,0:0:0:0:
212,368,185127,2,0,B|277:328|277:328|285:272,1,130,4|2,0:0|0:0,0:0:0:0:
400,292,185949,2,0,L|424:360,2,65,8|0|8,0:0|0:0|0:0,0:0:0:0:
360,180,186770,2,0,P|408:136|472:128,1,130,6|10,0:0|0:0,0:0:0:0:
444,212,187387,1,0,0:0:0:0:
444,212,187592,6,0,L|392:92,1,130,8|2,0:0|0:0,0:0:0:0:
236,32,188414,2,0,L|288:152,1,130,4|2,0:0|0:0,0:0:0:0:
260,264,189236,2,0,P|252:308|236:332,1,65,8|0,0:0|0:0,0:0:0:0:
180,272,189647,2,0,P|153:308|128:322,1,65,8|0,0:0|0:0,0:0:0:0:
104,244,190058,2,0,P|64:264|35:266,1,65,6|0,0:0|0:0,0:0:0:0:
48,184,190469,2,0,P|62:141|81:119,1,65,8|2,0:0|0:0,0:0:0:0:
74,126,190880,5,0,0:0:0:0:
188,144,191291,1,2,0:0:0:0:
260,52,191702,1,4,0:0:0:0:
156,108,192113,1,2,0:0:0:0:
252,176,192524,2,0,L|272:244,2,65,8|0|8,0:0|0:0|0:0,0:0:0:0:
364,148,193346,2,0,P|392:108|480:80,1,130,6|10,0:0|0:0,0:0:0:0:
460,196,194168,6,0,P|424:280|368:288,1,130,8|2,0:0|0:0,0:0:0:0:
280,320,194990,2,0,L|224:364,3,65,4|0|2|0,0:0|0:0|0:0|0:0,0:0:0:0:
176,340,195812,2,0,P|116:280|128:216,1,130,8|10,0:0|0:0,0:0:0:0:
136,159,196428,1,0,0:0:0:0:
136,159,196633,2,0,P|196:219|196:260,1,130,4|10,0:0|0:0,0:0:0:0:
40,272,197455,5,8,0:0:0:0:
16,156,197866,1,2,0:0:0:0:
128,188,198277,1,4,0:0:0:0:
104,72,198688,1,2,0:0:0:0:
216,36,199099,2,0,L|288:24,2,65,8|0|8,0:0|0:0|0:0,0:0:0:0:
304,116,199921,2,0,P|372:164|424:160,1,130,6|10,0:0|0:0,0:0:0:0:
424,88,200538,1,0,0:0:0:0:
424,88,200743,6,0,B|414:185|414:185|389:220,1,130,8|2,0:0|0:0,0:0:0:0:
288,356,201565,2,0,B|297:258|297:258|322:223,1,130,4|2,0:0|0:0,0:0:0:0:
380,332,202387,2,0,L|308:304,1,65,8|0,0:0|0:0,0:0:0:0:
203,220,202798,2,0,L|264:244,1,65,8|0,0:0|0:0,0:0:0:0:
244,348,203209,2,0,L|172:320,1,65,6|0,0:0|0:0,0:0:0:0:
67,236,203620,2,0,L|127:259,1,65,8|2,0:0|0:0,0:0:0:0:
204,220,204031,5,8,0:0:0:0:
204,220,204236,1,0,0:0:0:0:
204,220,204442,2,0,P|180:136|200:100,1,130,2|4,0:0|0:0,0:0:0:0:
248,76,205058,2,0,P|288:52|312:12,2,65,0|2|0,0:0|0:0|0:0,0:0:0:0:
352,96,205675,5,8,0:0:0:0:
352,96,205880,1,0,0:0:0:0:
352,96,206086,2,0,P|384:160|448:176,1,130,8|6,0:0|0:0,0:0:0:0:
484,208,206702,2,0,P|492:240|484:280,2,65,0|10|0,0:0|0:0|0:0,0:0:0:0:
408,296,207318,5,8,0:0:0:0:
408,296,207524,1,0,0:0:0:0:
408,296,207729,2,0,B|376:316|360:348|360:348|328:328|292:324,1,130,2|4,0:0|0:0,0:0:0:0:
223,303,208346,2,0,P|180:297|143:315,2,65,0|2|0,0:0|0:0|0:0,0:0:0:0:
202,219,208962,6,0,P|164:198|152:178,1,65,8|0,0:0|0:0,0:0:0:0:
228,138,209373,2,0,P|248:100|268:88,1,65,10|0,0:0|0:0,0:0:0:0:
283,245,209784,2,0,P|263:282|242:294,1,65,4|0,0:0|0:0,0:0:0:0:
309,164,210195,2,0,P|346:183|358:204,1,65,10|0,0:0|0:0,0:0:0:0:
256,192,210606,12,0,217181,0:0:0:0:
256,192,223757,6,0,P|271:270|317:302,1,130,0|2,0:0|0:0,0:0:0:0:
256,192,224579,2,0,P|240:270|194:302,1,130,0|2,0:0|0:0,0:0:0:0:
136,204,225401,2,0,L|68:224,2,65,0|2|0,0:0|0:0|0:0,0:0:0:0:
197,104,226223,1,2,0:0:0:0:
304,52,226633,1,0,0:0:0:0:
420,56,227044,6,0,P|364:120|312:132,1,130,0|2,0:0|0:0,0:0:0:0:
268,280,227866,2,0,P|324:216|376:204,1,130,0|2,0:0|0:0,0:0:0:0:
356,320,228688,2,0,L|408:364,2,65,0|2|0,0:0|0:0|0:0,0:0:0:0:
248,364,229510,2,0,P|188:308|192:236,1,130,2|0,0:0|0:0,0:0:0:0:
256,172,230332,6,0,P|271:93|317:61,1,130,0|2,0:0|0:0,0:0:0:0:
256,172,231154,2,0,P|240:93|194:61,1,130,0|2,0:0|0:0,0:0:0:0:
88,88,231976,2,0,L|28:40,2,65,0|2|0,0:0|0:0|0:0,0:0:0:0:
40,196,232798,2,0,B|20:236|20:236|64:268|48:328,1,130,2|0,0:0|0:0,0:0:0:0:
160,356,233620,6,0,P|244:340|284:292,1,130,0|2,0:0|0:0,0:0:0:0:
472,288,234442,2,0,P|388:304|348:352,1,130,0|2,0:0|0:0,0:0:0:0:
220,240,235264,2,0,P|177:238|157:225,1,65,0|2,0:0|0:0,0:0:0:0:
208,156,235675,2,0,P|209:113|222:93,1,65
304,228,236086,2,0,P|302:270|289:290,1,65,2|0,0:0|0:0,0:0:0:0:
292,144,236496,2,0,P|334:145|354:158,1,65,0|4,0:0|0:0,0:0:0:0:
