osu file format v13

[General]
AudioFilename: autumn.mp3
AudioLeadIn: 0
PreviewTime: 96064
Countdown: 0
SampleSet: Soft
StackLeniency: 0.7
Mode: 0
LetterboxInBreaks: 1
WidescreenStoryboard: 0

[Editor]
Bookmarks: 96064,120814,132814
DistanceSpacing: 1.4
BeatDivisor: 4
GridSize: 4
TimelineZoom: 1.6

[Metadata]
Title:Aki ~ Karen ~
TitleUnicode:秋~華恋~
Artist:oukaitou
ArtistUnicode:α·Pav
Creator:Colourful
Version:The Horizon Line
Source:
Tags:Dulcet Ambient Instrumental autumn love fall 春夏秋冬・続 Electronic Indie
BeatmapID:428514
BeatmapSetID:178116

[Difficulty]
HPDrainRate:6
CircleSize:4
OverallDifficulty:7
ApproachRate:8
SliderMultiplier:1.8
SliderTickRate:1

[Events]
//Background and Video events
0,0,"144e314aca5df746b3de0517.jpg",0,0
//Break Periods
//Storyboard Layer 0 (Background)
//Storyboard Layer 1 (Fail)
//Storyboard Layer 2 (Pass)
//Storyboard Layer 3 (Foreground)
//Storyboard Sound Samples
//Background Colour Transformations
3,100,163,162,255

[TimingPoints]
64,375,4,2,1,30,1,0
814,-200,4,2,1,30,0,0
24064,-133.333333333333,4,2,1,30,0,0

[HitObjects]
34,188,64,5,0,0:0:0:0:
2,272,251,1,0,0:0:0:0:
72,329,439,1,0,0:0:0:0:
148,280,626,1,0,0:0:0:0:
124,193,814,2,0,B|160:136|252:220|304:156,1,180,0|8,0:0|0:0,0:0:0:0:
276,68,1939,5,0,0:0:0:0:
352,68,2126,1,0,0:0:0:0:
428,68,2314,2,0,B|471:119|364:182|410:250,1,180,0|8,0:0|0:0,0:0:0:0:
308,332,3439,5,0,0:0:0:0:
248,300,3626,1,0,0:0:0:0:
188,264,3814,1,0,0:0:0:0:
188,128,4189,1,0,0:0:0:0:
324,128,4564,1,8,0:0:0:0:
324,264,4939,1,0,0:0:0:0:
188,264,5314,1,0,0:0:0:0:
52,264,5689,2,0,L|8:228,1,45,0|2,0:0|0:0,0:0:0:0:
52,168,6064,1,8,0:0:0:0:
368,104,6439,6,0,L|412:80,2,45
368,192,7189,2,0,P|346:234|303:266,1,90,2|8,0:0|0:0,0:0:0:0:
256,328,7939,2,0,P|212:308|178:267,1,90,2|0,0:0|0:0,0:0:0:0:
180,272,8501,2,0,L|160:216,3,45,0|0|0|8,0:0|0:0|0:0|0:0,0:0:0:0:
256,228,9439,2,0,P|308:238|355:220,1,90,0|0,0:0|0:0,0:0:0:0:
328,120,10189,1,0,0:0:0:0:
184,120,10564,1,12,0:0:0:0:
478,196,12064,5,0,0:0:0:0:
510,112,12251,1,0,0:0:0:0:
440,55,12439,1,0,0:0:0:0:
364,104,12626,1,0,0:0:0:0:
388,191,12814,2,0,B|352:248|260:164|208:228,1,180,0|8,0:0|0:0,0:0:0:0:
92,220,13939,2,0,L|48:184,2,45,0|2|0,0:0|0:0|0:0,0:0:0:0:
212,260,14689,2,0,L|320:260,1,90,0|8,0:0|0:0,0:0:0:0:
404,188,15439,5,0,0:0:0:0:
460,128,15626,1,0,0:0:0:0:
407,67,15814,1,0,0:0:0:0:
280,68,16189,2,0,L|244:100,1,45,0|0,0:0|0:0,0:0:0:0:
252,144,16564,2,0,L|207:163,1,45,0|0,0:0|0:0,0:0:0:0:
204,208,16939,2,0,L|156:212,1,45,0|0,0:0|0:0,0:0:0:0:
132,148,17314,2,0,P|184:88|279:68,1,180,0|8,0:0|0:0,0:0:0:0:
348,68,18439,6,0,L|376:120,2,45
164,68,19189,2,0,L|136:120,2,45,0|0|8,0:0|0:0|0:0,0:0:0:0:
256,68,19939,2,0,L|256:176,1,90
256,228,20501,2,0,L|256:292,3,45,0|0|0|8,0:0|0:0|0:0|0:0,0:0:0:0:
256,156,21439,1,0,0:0:0:0:
256,156,21814,1,4,0:0:0:0:
256,192,22189,12,4,23314,0:0:0:0:
431,154,24064,5,0,0:0:0:0:
468,72,24251,1,0,0:0:0:0:
388,36,24439,1,0,0:0:0:0:
349,117,24626,1,0,0:0:0:0:
316,200,24814,2,0,P|300:224|184:252,1,135.000005149842
100,236,25564,1,0,0:0:0:0:
64,132,25939,6,0,L|-20:100,1,67.5000025749208,0|0,0:0|0:0,0:0:0:0:
176,92,26314,1,0,0:0:0:0:
216,204,26501,1,0,0:0:0:0:
216,204,26595,1,0,0:0:0:0:
216,204,26689,1,0,0:0:0:0:
336,180,26876,2,0,P|360:184|416:232,1,67.5000025749208
432,312,27439,6,0,L|360:332,1,67.5000025749208
352,332,27814,2,0,L|280:324,1,67.5000025749208
276,316,28189,2,0,L|204:336,1,67.5000025749208
164,328,28564,1,0,0:0:0:0:
120,308,28939,6,0,B|120:267|120:267|107:243|117:215|117:215|117:171,1,135.000005149842
117,174,29407,1,0,0:0:0:0:
117,174,29501,1,0,0:0:0:0:
196,100,29689,2,0,L|176:12,1,67.5000025749208
224,200,30064,1,0,0:0:0:0:
328,224,30439,6,0,L|408:248,1,67.5000025749208
428,172,30814,6,0,L|508:176,2,67.5000025749208,0|0|0,0:0|0:0|0:0,0:0:0:0:
428,172,31376,1,0,0:0:0:0:
336,116,31564,2,0,P|324:96|97:81,1,270.000010299683
106,71,32407,1,0,0:0:0:0:
106,71,32501,1,0,0:0:0:0:
36,136,32689,1,0,0:0:0:0:
60,228,32876,1,0,0:0:0:0:
152,252,33064,5,0,0:0:0:0:
224,192,33251,1,0,0:0:0:0:
200,100,33439,1,0,0:0:0:0:
304,128,33626,1,0,0:0:0:0:
408,104,33814,2,0,P|432:90|479:-28,2,135.000005149842,0|0|0,0:0|0:0|0:0,0:0:0:0:
380,196,34939,1,0,0:0:0:0:
324,272,35126,2,0,L|236:272,1,67.5000025749208
192,340,35501,1,0,0:0:0:0:
128,272,35689,1,0,0:0:0:0:
268,148,36064,6,0,P|284:132|291:72,1,67.5000025749208,0|0,0:0|0:0,0:0:0:0:
224,28,36439,2,0,P|202:19|145:37,1,67.5000025749208,0|0,0:0|0:0,0:0:0:0:
136,116,36814,1,0,0:0:0:0:
104,208,37001,1,0,0:0:0:0:
8,208,37189,2,0,P|36:272|92:304,1,135.000005149842
184,304,37751,1,0,0:0:0:0:
184,304,37845,1,0,0:0:0:0:
184,304,37939,6,0,B|161:332|161:332|124:348,2,67.5000025749208,0|0|0,0:0|0:0|0:0,0:0:0:0:
268,344,38501,1,0,0:0:0:0:
268,248,38689,1,0,0:0:0:0:
348,296,38876,1,0,0:0:0:0:
356,200,39064,1,0,0:0:0:0:
