osu file format v9

[General]
AudioFilename: v-cat.mp3
AudioLeadIn: 0
PreviewTime: -1
Countdown: 1
SampleSet: Normal
StackLeniency: 0.7
Mode: 0
LetterboxInBreaks: 1

[Editor]
DistanceSpacing: 0.8
BeatDivisor: 4
GridSize: 32

[Metadata]
Title:Imouto sama is her
Artist:otokaz
Creator:vien303cat
Version:Insane
Source:Touhou
Tags:Touhou.owen

[Difficulty]
HPDrainRate:8
CircleSize:4
OverallDifficulty:4
ApproachRate:9
SliderMultiplier:1.2
SliderTickRate:2

[Events]
//Background and Video events
0,0,"3408661939_ebbee4b982_o.jpg"
//Break Periods
//Storyboard Layer 0 (Background)
//Storyboard Layer 1 (Fail)
//Storyboard Layer 2 (Pass)
//Storyboard Layer 3 (Foreground)
//Storyboard Sound Samples
//Background Colour Transformations
3,100,255,128,0

[TimingPoints]
6320,344.80776966841,4,1,0,31,1,0
16664,-50,4,1,0,31,0,0
17009,-100,4,1,0,31,0,0
19422,-200,4,1,0,31,0,0
19767,-100,4,1,0,31,0,0
36318,-50,4,1,0,31,0,0
36490,-100,4,1,0,31,0,0
66316,114.935923222803,4,1,0,31,1,0
66833,344.80776966841,4,1,0,31,1,0

[HitObjects]
128,64,6319,2,0,B|192:64,1,60
256,64,6664,1,0
384,128,7009,2,0,B|320:128,1,60
256,128,7354,1,0
128,192,7699,6,0,B|192:192,1,60
256,192,8044,1,0
384,256,8388,2,0,B|320:256,1,60
256,256,8733,1,0
256,64,9078,6,0,B|256:128,1,60
256,320,9423,2,0,B|256:256,1,60
192,128,9768,2,0,B|192:192,1,60
192,352,10112,2,0,B|192:288,1,60
128,64,10457,6,0,B|128:128,1,60
128,320,10802,2,0,B|128:256,1,60
64,128,11147,1,0
416,64,11836,6,0,B|352:64,1,60
256,64,12181,1,0
320,64,12354,1,0
192,128,12526,2,0,B|256:128,1,60
352,128,12871,1,0
288,128,13043,1,0
416,192,13216,6,0,B|352:192,1,60
256,192,13560,1,0
320,192,13733,1,0
224,256,13905,2,0,B|288:256,1,60
384,256,14250,2,0,B|320:256,1,60
256,256,14595,5,0
256,320,14767,1,0
256,192,14940,2,0,B|256:128,1,60
192,192,15285,1,0
192,128,15457,1,0
192,256,15629,2,0,B|192:320,1,60
128,256,15974,5,0
128,256,16147,1,0
128,160,16319,2,0,B|128:96,1,60
128,64,16664,2,0,B|128:256,1,180
320,64,17353,5,0
448,96,17698,1,2
352,192,18043,1,0
224,160,18388,1,2
320,64,18733,1,0
320,288,19077,2,0,B|320:224,1,60
192,64,19422,2,0,B|192:128,1,60
192,256,20112,1,0
128,192,20457,6,0,B|64:192,1,60
256,128,20801,2,0,B|320:128,1,60
96,96,21146,2,0,B|32:96,1,60
256,64,21491,5,0
448,128,21663,1,2
288,192,21836,1,0
384,256,22008,1,2
320,352,22181,2,0,B|320:224,1,120,2|0
64,64,22870,2,0,B|128:64,1,60
224,64,23215,2,2,B|224:128,1,60
224,224,23560,2,0,B|160:224,1,60
64,224,23905,2,2,B|64:160,1,60
162,284,24250,6,0,B|214:315,1,60
256,224,24595,2,0,B|288:173,1,60,0|2
247,150,24853,1,0
211,126,24940,2,0,B|160:96,1,60,2|0
77,233,25285,2,0,B|109:178,1,60
224,192,25629,1,0
263,279,25801,1,0
175,318,25974,1,0
136,231,26146,1,0
190,251,26318,5,0
355,281,26491,1,0
383,115,26663,1,0
218,86,26836,1,0
256,192,27008,12,4,27870
96,64,28387,5,0
192,64,28560,1,0
192,160,28732,1,2
96,160,28904,1,2
96,256,29077,5,0
192,256,29249,1,0
192,352,29422,1,2
96,352,29594,1,2
128,288,29766,5,0
192,160,30111,1,0
192,160,30284,1,0
288,64,30456,2,0,B|288:128,1,60
352,320,30801,2,0,B|352:256,1,60,2|2
448,192,31146,5,0
352,160,31490,1,0
352,224,31663,1,0
288,128,31835,1,0
288,256,32008,1,2
224,160,32180,1,0
224,224,32352,1,2
224,160,32525,1,0
288,256,32697,1,2
288,128,32870,1,0
352,224,33042,1,2
352,96,33215,1,0
256,96,33904,6,0,B|256:32,1,60
256,288,34249,2,0,B|256:320,2,30
192,224,34594,2,0,B|192:288,1,60
192,64,34939,2,0,B|192:32,2,30
128,96,35283,2,0,B|128:160,1,60
128,256,35628,2,0,B|128:320,2,60
128,224,36318,2,0,B|128:96,1,120
224,128,36663,1,0
224,128,36835,1,0
304,80,37007,5,0
352,96,37094,1,0
368,144,37180,1,0
288,240,37352,1,0
304,288,37438,1,0
352,304,37525,1,0
432,256,37697,1,0
432,96,37869,1,0
256,192,38042,12,0,39076
80,64,39421,5,0
80,64,39593,1,0
192,64,39766,1,0
192,64,39938,1,0
304,64,40111,1,0
304,64,40283,1,0
416,64,40455,1,0
416,64,40628,1,0
368,128,40800,2,0,B|304:128,1,60
112,128,41145,2,0,B|176:128,1,60
112,208,41490,2,0,B|176:208,1,60
368,208,41835,2,0,B|288:208,1,60
96,304,42180,5,0
96,304,42352,1,0
208,304,42524,1,0
208,304,42697,1,0
320,304,42869,1,0
320,304,43042,1,0
432,304,43214,1,0
432,304,43386,1,0
128,224,43559,2,0,B|192:224,1,60
384,128,43904,2,0,B|304:128,1,60
128,128,44248,2,0,B|208:128,1,60
384,224,44593,2,0,B|320:224,1,60
64,64,44938,6,0,B|64:256,1,180
256,64,45628,2,0,B|256:256,1,180
448,64,46317,2,0,B|448:256,1,180
64,320,47696,6,0,B|64:128,1,180
256,320,48386,2,0,B|256:128,1,180
448,320,49075,2,0,B|448:128,1,180
256,192,50455,5,0
256,144,53213,5,0
256,96,55972,5,0
256,64,56661,1,0
256,32,57351,1,0
256,192,58730,5,0
256,192,59420,1,0
256,192,60110,1,0
112,128,60799,5,0
304,304,61058,1,0
352,64,61316,1,0
112,128,61489,6,0,B|192:160,1,60
304,304,61834,2,0,B|272:240,1,60
352,64,62178,2,0,B|304:128,1,60
256,192,62523,1,0
256,192,62609,1,0
256,192,62696,1,0
112,128,62868,6,0,B|112:176|144:192,1,60
304,304,63213,2,0,B|336:288|336:256,1,60
352,64,63558,2,0,B|320:32|288:64,1,60
256,192,63902,1,0
256,192,63989,1,0
256,192,64075,1,0
112,128,64247,5,0
135,157,64333,1,0
184,159,64420,1,0
230,158,64506,1,0
256,192,64592,1,0
348,64,64937,5,0
315,80,65023,1,0
303,128,65110,1,0
294,173,65196,1,0
256,192,65282,1,0
320,335,65626,5,0
322,298,65712,1,0
287,264,65799,1,0
252,234,65885,1,0
256,192,65971,1,0
256,80,66316,6,0,B|256:272,1,180
416,96,67005,6,0,B|352:96,1,60
256,192,67349,1,0
96,288,67522,2,0,B|176:288,1,60
256,192,67867,1,0
352,96,68039,2,0,B|340:59|288:64,1,60
256,192,68384,1,0
96,64,68556,2,0,B|128:128,1,60
224,256,68901,2,0,B|192:192,1,60
96,288,69246,2,0,B|128:224,1,60
256,96,69591,2,0,B|224:160,1,60
128,192,70108,5,0
352,192,70453,1,0
96,192,70798,1,0
384,192,71143,1,0
64,192,71487,1,0
160,192,71832,1,0
224,192,71918,1,0
288,192,72005,1,0
352,192,72091,1,0
416,192,72177,1,0
96,96,72522,5,0
416,128,72867,1,0
96,160,73211,1,0
416,192,73556,1,0
128,224,73901,5,0
384,256,74246,1,0
256,288,74418,1,0
128,352,74591,1,0
384,352,74935,1,0
256,288,75280,5,0
256,192,75625,2,0,B|256:128,1,60
192,160,75970,2,0,B|192:96,1,60
128,128,76315,2,0,B|128:64,1,60
192,288,76660,2,0,B|192:352,1,60
256,96,77004,2,0,B|256:32,1,60
320,192,77349,2,0,B|320:352,1,150
192,224,78039,2,0,B|128:256,2,60
256,96,78728,2,0,B|256:32,2,60
320,224,79418,1,0
256,96,79763,1,0
320,224,79935,1,0
192,224,80108,1,0
384,256,80452,2,0,B|448:288,1,60
448,320,80797,6,0,B|480:384,1,60
320,224,81142,2,0,B|384:256,1,60
224,96,81487,2,0,B|256:160,1,60
128,32,81832,1,0
64,160,82004,1,0
160,288,82176,2,0,B|128:320,10,30
192,160,83556,6,0,B|160:128,4,30
320,64,84245,2,0,B|352:32,4,30
384,192,84935,2,0,B|448:192,2,60
288,192,85452,1,0
160,192,85625,1,0
64,192,85797,1,0
64,192,85883,1,0
64,192,85969,2,0,B|64:128,1,60
160,128,86314,2,0,B|160:64,1,60
256,96,86659,2,0,B|288:32,1,60
352,128,87004,2,0,B|416:96,1,60
416,192,87349,2,0,B|480:192,1,60
352,256,87693,2,0,B|416:288,2,60
256,192,88211,1,0
256,192,88383,12,0,88900
224,96,89073,5,0
288,160,89417,1,2
288,160,89504,1,0
288,160,89590,1,2
352,96,89762,1,0
416,160,90106,1,2
416,160,90193,1,0
416,160,90279,1,2
352,224,90452,1,0
288,288,90797,1,0
352,224,90969,1,0
352,224,91141,1,0
288,160,91487,1,2
288,160,91573,1,0
288,160,91659,1,2
224,96,91831,2,0,B|160:64,1,60
160,192,92176,2,0,B|96:192,1,60
160,288,92521,2,0,B|96:320,1,60
256,192,92865,1,0
352,96,93038,2,0,B|384:32,1,60
256,192,93383,12,0,94417
160,96,94590,5,0
256,192,94848,12,0,95107
192,288,95279,5,0
256,192,95538,12,0,95796
320,160,95969,5,0
256,192,96227,12,0,96486
160,192,96658,5,0
256,256,96831,2,0,B|288:320,2,60
320,160,97348,1,0
256,192,97607,12,0,97865
256,96,98038,5,0
256,192,98296,12,0,98555
160,192,98727,6,0,B|96:192,1,60
352,192,99072,2,0,B|416:192,1,60
256,192,99503,12,0,99934
96,96,100106,5,0
448,96,100451,2,0,B|384:96,1,60
64,192,100796,1,0
384,192,101141,2,0,B|448:192,1,60
32,288,101486,1,0
448,288,101830,2,0,B|384:288,1,60
256,64,102175,1,0
256,224,102520,2,0,B|256:160,1,60
192,128,102865,6,0,B|128:128,1,60
320,160,103210,2,0,B|384:160,1,60
128,224,103555,2,0,B|64:224,1,60
384,256,103899,2,0,B|448:256,1,60
256,224,104244,2,0,B|256:256,10,30
416,64,105623,5,0
256,64,105969,1,0
256,64,106055,1,0
256,64,106141,1,0
96,160,106313,1,0
256,160,106658,1,0
256,160,106744,1,0
256,160,106830,1,0
160,256,107003,1,0
352,256,107175,2,0,B|416:256,2,60
160,256,107692,2,0,B|96:256,1,60
352,256,108037,2,0,B|416:256,1,60
416,192,108382,1,0
352,128,108554,1,0
256,96,108727,1,0
128,128,108899,1,0
64,256,109071,1,0
160,352,109244,1,0
192,224,109416,5,0
288,320,109589,1,0
320,192,109761,2,0,B|352:128,1,60
416,288,110106,2,0,B|480:320,1,60
256,192,110451,1,0
256,192,110537,1,0
256,192,110623,1,0
256,192,110709,1,0
256,192,110795,1,0
256,192,110882,1,0
256,192,110968,1,0
256,64,111140,5,0
160,128,111485,2,0,B|126:148|128:192,1,60
160,288,111830,1,0
256,320,112175,1,0
256,320,112261,1,0
256,320,112347,1,0
352,256,112520,1,0
256,192,112864,12,0,113209
320,160,113382,5,0
256,192,113554,12,0,113899
256,192,114071,5,0
256,192,114244,1,0
256,192,114416,1,0
256,192,114588,1,0
256,192,114761,1,0
256,192,114933,1,0
256,192,115106,1,0
256,191,115278,1,0
249,199,115364,1,0
246,183,115450,1,2
256,182,115537,1,2
267,190,115623,1,0
258,201,115709,1,0
261,191,115795,1,2
252,197,115881,1,2
249,186,115968,1,0
256,191,116054,1,2
248,193,116140,1,2
256,185,116226,1,2
257,193,116312,1,2
256,191,116399,1,2
256,191,116485,1,2
