osu file format v9

[General]
AudioFilename: v-cat.mp3
AudioLeadIn: 0
PreviewTime: -1
Countdown: 1
SampleSet: Normal
StackLeniency: 0.7
Mode: 0
LetterboxInBreaks: 1

[Editor]
DistanceSpacing: 0.8
BeatDivisor: 1
GridSize: 8

[Metadata]
Title:Imouto sama is her
Artist:otokaz
Creator:vien303cat
Version:Easy
Source:Touhou
Tags:Touhou.owen

[Difficulty]
HPDrainRate:2
CircleSize:3
OverallDifficulty:1
ApproachRate:2
SliderMultiplier:1
SliderTickRate:2

[Events]
//Background and Video events
0,0,"3408661939_ebbee4b982_o.jpg"
//Break Periods
//Storyboard Layer 0 (Background)
//Storyboard Layer 1 (Fail)
//Storyboard Layer 2 (Pass)
//Storyboard Layer 3 (Foreground)
//Storyboard Sound Samples
//Background Colour Transformations
3,100,255,128,0

[TimingPoints]
6320,344.80776966841,4,1,0,30,1,0

[HitObjects]
360,96,6319,2,0,B|480:144|520:240|336:328|240:368,1,400
200,328,8388,1,0
144,296,9078,2,0,B|16:104|80:32|216:16|280:56,1,400
304,64,11147,1,0
288,208,11836,5,0
224,288,12526,1,0
168,232,12871,2,0,B|64:144,1,100
72,80,13905,1,0
176,80,14595,2,0,B|400:80,1,200
256,192,15974,6,0,B|112:192,1,100
104,192,16664,1,0
104,288,17353,6,0,B|328:288,2,200
104,280,19077,1,0
104,280,19422,1,0
248,208,20112,6,0,B|24:208,2,200
248,208,21836,1,0
248,208,22181,1,0
88,216,22870,6,0,B|128:304|184:352|264:360|296:344|312:320|320:304|336:272|376:240|368:184,1,400
440,64,24939,1,0
280,64,25629,1,0
120,64,26318,1,0
104,224,27008,1,0
184,224,27353,1,0
264,224,27698,1,0
128,304,28387,6,0,B|264:304,1,100
200,232,29077,2,0,B|320:232,1,100
256,168,29766,2,0,B|368:168,1,100
312,104,30456,1,0
312,104,30801,1,0
312,104,31146,2,0,B|501:208|469:336|389:344|285:344,1,400
292,343,32870,1,0
292,343,33215,1,0
160,256,33904,5,0
160,176,34249,1,0
240,176,34594,1,0
320,176,34939,1,0
320,256,35283,2,0,B|96:256,1,200
128,256,36663,6,0,B|312:144,1,200,0|0
360,96,38042,5,0
280,96,38387,1,0
200,96,38731,1,0
40,104,39421,5,0
40,184,39766,1,0
120,184,40111,2,0,B|256:184,1,100
224,264,40800,1,0
304,264,41145,1,0
304,184,41490,2,0,B|184:184,1,100
208,264,42180,2,0,B|328:264,1,100
304,264,42869,1,0
304,264,43214,1,0
352,200,43559,5,0
352,120,43904,2,0,B|472:120,1,100
456,200,44593,1,0
328,256,44938,6,0,B|216:256,3,100
160,240,46317,2,0,B|88:176|88:176|192:88|192:88|264:88,1,300
264,144,47696,1,0
264,216,48041,2,0,B|464:216,1,200
464,296,49076,1,0
408,240,49420,1,0
352,184,49765,1,0
296,128,50110,1,0
288,80,50455,6,0,B|120:216|120:216|288:352|288:352|432:216|432:216|312:96,2,800
296,120,56317,6,0,B|272:216,1,100
232,208,57006,2,0,B|208:104,1,100
208,112,57696,1,0
208,112,58041,1,0
152,264,58730,5,0
312,264,59420,1,0
320,104,60110,1,0
144,96,60799,2,0,B|56:24,2,100
304,104,62178,1,0
416,216,62868,1,0
256,192,63558,2,0,B|96:160,2,100
384,96,64937,1,0
256,192,65626,2,0,B|248:312,2,100
344,56,67006,5,0
344,216,67695,1,0
344,376,68385,1,0
184,368,69075,1,0
112,224,69764,5,0
144,184,70109,1,0
184,144,70454,1,0
224,192,70799,1,0
256,232,71143,1,0
296,192,71488,1,0
336,152,71833,1,0
344,312,72523,6,0,B|200:312,1,100
240,232,73212,1,0
320,232,73557,1,0
320,152,73902,2,0,B|176:152,2,100
328,232,74936,1,0
328,312,75281,1,0
248,312,75626,2,0,B|112:312,1,100
144,232,76315,2,0,B|232:152,1,100
152,120,77005,2,0,B|32:72,1,100
192,176,78040,5,0
352,176,78729,1,0
192,176,79419,2,0,B|392:176,1,200
272,288,80798,2,0,B|184:368,1,100
144,296,81488,1,0
144,216,81832,2,0,B|272:216,1,100
256,192,83556,5,0
256,32,84246,1,0
256,192,84936,1,0
256,352,85625,1,0
96,352,86315,2,0,B|96:248,1,100
96,168,87005,1,0
176,168,87349,1,0
256,168,87694,2,0,B|360:168,3,100
400,152,89073,2,0,B|328:72,1,100
256,96,89763,2,0,B|144:96,1,100
104,136,90453,2,0,B|48:224,2,100
104,136,91487,1,0
112,216,91832,2,0,B|208:32,1,200
256,192,93211,12,0,94590
