osu file format v14

[General]
AudioFilename: mp3.mp3
AudioLeadIn: 0
PreviewTime: 179417
Countdown: 0
SampleSet: Soft
StackLeniency: 0.5
Mode: 0
LetterboxInBreaks: 0
WidescreenStoryboard: 0

[Editor]
Bookmarks: 280469
DistanceSpacing: 0.7
BeatDivisor: 4
GridSize: 4
TimelineZoom: 3.699998

[Metadata]
Title:umbrella
TitleUnicode:umbrella
Artist:otetsu feat.Megurine Luka
ArtistUnicode:otetsu feat.巡音ルカ
Creator:ZZHBOY
Version:Umbrella
Source:
Tags:vocaloid awaken yf_bmp regraz EXIT TUNES PRESENTS THE BEST OF otetsu Irie Miyuki
BeatmapID:590341
BeatmapSetID:186340

[Difficulty]
HPDrainRate:6
CircleSize:4
OverallDifficulty:7
ApproachRate:9
SliderMultiplier:2
SliderTickRate:1

[Events]
//Background and Video events
0,0,"bg.jpg",0,0
//Break Periods
2,247512,260922
//Storyboard Layer 0 (Background)
//Storyboard Layer 1 (Fail)
//Storyboard Layer 2 (Pass)
//Storyboard Layer 3 (Foreground)
//Storyboard Sound Samples

[TimingPoints]
1945,315.789473684211,4,2,1,35,1,0
1945,-200,4,2,1,35,0,0
20576,-100,4,1,1,35,0,0
22155,-100,4,1,1,45,0,0
82786,-133.333333333333,4,1,4,45,0,0
102997,-200,4,2,4,45,0,0
110576,-200,4,1,4,45,0,0
111839,-100,4,1,4,50,0,0
113102,-100,4,1,4,58,0,1
133313,315.789473684211,3,1,4,58,1,0
138049,315.789473684211,4,1,4,45,1,0
139312,-100,4,1,1,35,0,0
143891,-66.6666666666667,4,1,1,35,0,0
144364,-100,4,1,1,35,0,0
153996,-66.6666666666667,4,1,1,35,0,0
154470,-100,4,1,1,35,0,0
165917,-100,4,1,4,5,0,0
165996,-100,4,1,1,35,0,0
166233,-100,4,1,4,5,0,0
166312,-100,4,1,1,35,0,0
179417,-100,4,1,1,60,0,0
179733,-100,4,1,4,65,0,1
189838,-200,4,1,4,55,0,0
194891,-133.333333333333,4,1,4,50,0,0
199943,-100,4,1,4,60,0,1
220155,315.789473684211,3,1,4,45,1,0
224891,315.789473684211,4,1,4,40,1,0
226154,-100,4,1,4,60,0,1
232311,-66.6666666666667,4,1,4,60,0,1
233575,-83.3333333333333,4,1,4,60,0,1
234996,-100,4,1,4,60,0,1
243838,-100,4,1,4,20,0,0
261522,-100,4,1,4,55,0,0
266101,-66.6666666666667,4,1,4,55,0,0
266575,-100,4,1,4,55,0,0
271943,-400,4,2,3,25,0,0
272259,-400,4,2,3,20,0,0
272575,-400,4,2,3,15,0,0
272891,-400,4,2,3,10,0,0
277943,-400,4,2,3,5,0,0

[Colours]
Combo1 : 228,138,255
Combo2 : 211,211,211

[HitObjects]
100,204,1945,6,0,P|136:236|149:284,1,100,8|0,0:0|0:0,0:0:0:0:
152,320,2418,1,0,0:0:0:0:
144,348,2892,1,2,0:0:0:0:
360,60,3208,6,0,L|214:97,1,150,2|2,0:0|2:0,0:0:0:0:
144,348,4155,1,0,0:0:0:0:
360,60,4471,6,0,L|380:152,1,50,8|0,0:0|0:0,0:0:0:0:
368,292,4787,1,0,0:0:0:0:
379,142,4945,1,0,0:0:0:0:
39,235,5418,6,0,B|83:263|83:263|134:266,1,100,2|2,0:0|0:0,0:0:0:0:
24,192,6208,1,2,0:0:0:0:
32,140,6681,1,0,0:0:0:0:
455,300,6997,5,8,0:0:0:0:
406,324,7155,1,0,0:0:0:0:
351,323,7313,1,0,0:0:0:0:
304,296,7471,1,0,0:0:0:0:
272,258,7945,5,2,0:0:0:0:
94,66,8260,2,0,B|66:66|32:56|32:56|41:112|4:152,2,150,2|2|2,0:0|2:0|2:0,0:0:0:0:
318,61,9523,5,8,0:0:0:0:
335,114,9681,1,0,0:0:0:0:
335,170,9839,1,0,0:0:0:0:
312,220,9997,1,2,0:0:0:0:
272,258,10471,1,2,0:0:0:0:
441,159,10787,6,0,B|457:132|485:120|485:120|485:77|505:21,2,150,2|2|2,0:0|0:0|0:0,0:0:0:0:
468,353,12050,6,0,L|419:341,1,50,8|0,0:0|0:0,0:0:0:0:
312,232,12366,2,0,L|249:208,1,50,0|0,0:0|0:0,0:0:0:0:
320,264,12997,1,2,0:0:0:0:
328,296,13313,6,0,B|375:322|423:311|423:311|468:351,2,150,2|2|2,0:0|0:0|0:0,0:0:0:0:
176,72,14576,6,0,L|167:121,1,50,8|0,0:0|0:0,0:0:0:0:
110,260,14892,2,0,L|108:210,1,50,0|2,0:0|0:0,0:0:0:0:
108,210,15523,1,2,0:0:0:0:
296,216,15839,6,0,B|352:216|412:192|412:192|432:220,2,150,2|2|2,0:0|0:0|0:0,0:0:0:0:
48,60,17102,5,8,0:0:0:0:
48,60,17260,1,0,0:0:0:0:
53,158,17418,2,0,L|56:208,1,50,0|0,0:0|0:0,0:0:0:0:
48,60,18050,1,2,0:0:0:0:
53,158,18366,6,0,L|60:316,2,150,2|2|2,0:0|0:0|0:0,0:0:0:0:
272,52,19629,5,8,0:0:0:0:
272,52,19787,1,0,0:0:0:0:
360,84,19945,2,0,L|344:160,1,50,0|0,0:0|0:0,0:0:0:0:
272,328,20576,1,0,0:0:0:0:
200,260,20734,5,0,0:0:0:0:
188,240,20813,1,0,0:0:0:0:
176,220,20892,1,8,0:0:0:0:
264,172,21050,1,0,0:0:0:0:
260,148,21129,1,0,0:0:0:0:
256,124,21208,1,8,0:0:0:0:
356,120,21366,5,8,0:0:0:0:
372,139,21445,1,0,0:0:0:0:
389,156,21523,1,8,0:0:0:0:
407,172,21602,1,0,0:0:0:0:
423,190,21681,1,0,0:0:0:0:
439,208,21760,1,0,0:0:0:0:
442,247,21839,5,8,0:0:0:0:
431,285,21918,1,0,0:0:0:0:
400,311,21997,1,0,0:0:0:0:
360,316,22076,1,0,0:0:0:0:
325,297,22155,6,0,P|289:281|201:285,1,100,4|0,0:0|0:0,0:0:0:0:
113,311,22471,1,8,0:0:0:0:
122,85,22629,1,2,0:2:0:0:
77,196,22787,1,0,0:0:0:0:
228,29,22945,1,0,0:0:0:0:
347,42,23102,2,0,L|442:137,1,100,8|0,0:0|0:0,0:0:0:0:
220,164,23418,5,0,0:0:0:0:
336,172,23576,2,0,L|431:267,1,100,0|8,0:0|0:0,0:0:0:0:
264,268,23892,1,0,0:0:0:0:
220,164,24050,1,0,0:0:0:0:
336,172,24208,1,0,0:0:0:0:
336,172,24287,1,0,0:0:0:0:
336,172,24366,1,8,0:0:0:0:
220,164,24523,1,0,0:0:0:0:
96,156,24681,5,0,0:0:0:0:
156,56,24839,1,0,0:0:0:0:
220,164,24997,1,8,0:0:0:0:
144,260,25155,2,0,B|88:280|32:252|32:252|12:290|24:348,2,200,2|2|2,0:2|0:2|0:2,0:0:0:0:
220,164,25945,5,0,0:0:0:0:
160,64,26102,2,0,L|64:92,1,100,0|8,0:0|0:0,0:0:0:0:
280,60,26418,1,0,0:0:0:0:
221,164,26576,2,0,P|226:213|250:256,1,100,0|0,0:0|0:0,0:0:0:0:
281,59,26892,5,8,0:0:0:0:
281,59,26971,1,0,0:0:0:0:
281,59,27050,1,0,0:0:0:0:
281,59,27208,5,4,0:0:0:0:
337,158,27366,1,0,0:0:0:0:
452,196,27523,1,8,0:0:0:0:
280,56,27681,2,0,L|204:256,1,200,0|0,0:0|0:0,0:0:0:0:
136,340,28155,1,8,0:0:0:0:
0,4,28471,5,0,0:0:0:0:
120,20,28629,2,0,L|112:244,1,200,0|0,0:0|0:0,0:0:0:0:
136,340,29102,1,0,0:0:0:0:
248,108,29260,1,0,0:0:0:0:
248,108,29339,1,0,0:0:0:0:
248,108,29418,2,0,L|241:207,1,100,8|0,0:0|0:0,0:0:0:0:
352,164,29734,5,0,0:0:0:0:
248,108,29892,1,0,0:0:0:0:
352,48,30050,1,8,0:0:0:0:
352,164,30208,2,0,B|356:244|400:316|400:316|344:272,1,200,0|0,0:0|0:0,0:0:0:0:
352,164,30681,1,8,0:0:0:0:
456,112,30839,1,2,0:2:0:0:
352,48,31155,5,0,0:0:0:0:
352,164,31313,1,2,0:2:0:0:
240,344,31471,1,0,0:0:0:0:
240,228,31629,1,2,0:2:0:0:
352,48,31787,1,0,0:0:0:0:
352,164,31945,1,2,0:2:0:0:
352,164,32023,1,0,0:0:0:0:
352,164,32102,1,0,0:0:0:0:
240,108,32260,6,0,P|148:148|60:84,1,200,4|8,0:0|0:0,0:0:0:0:
156,44,32734,2,0,L|175:243,1,200
192,328,33208,1,8,0:0:0:0:
180,24,33523,6,0,L|192:123,1,100,0|0,0:0|0:0,0:0:0:0:
308,184,33839,1,8,0:0:0:0:
416,248,33997,1,0,2:0:0:0:
304,284,34155,1,0,0:0:0:0:
192,328,34313,1,0,0:0:0:0:
192,328,34392,1,0,0:0:0:0:
192,328,34471,1,8,0:0:0:0:
304,284,34629,1,0,0:0:0:0:
192,328,34787,5,0,0:0:0:0:
304,284,34945,1,0,0:0:0:0:
416,248,35102,1,8,0:0:0:0:
192,328,35260,2,0,L|44:164,2,200,2|2|2,0:2|0:2|0:2,0:0:0:0:
304,284,36050,5,0,0:0:0:0:
416,248,36208,2,0,L|488:348,1,100,0|8,0:0|0:0,0:0:0:0:
332,72,36523,1,0,0:0:0:0:
324,168,36681,1,0,0:0:0:0:
428,20,36839,1,0,0:0:0:0:
428,20,36918,1,0,0:0:0:0:
428,20,36997,2,0,P|440:76|428:120,1,100,8|0,0:0|0:0,0:0:0:0:
304,284,37313,6,0,P|292:228|304:184,1,100,4|0,0:0|0:0,0:0:0:0:
429,116,37629,1,8,0:0:0:0:
302,187,37787,1,0,0:0:0:0:
320,84,37945,1,0,0:0:0:0:
184,120,38102,1,0,0:0:0:0:
56,72,38260,2,0,L|60:280,1,200,8|0,0:0|0:0,0:0:0:0:
59,271,38734,5,0,0:0:0:0:
56,72,39050,1,0,0:0:0:0:
168,36,39208,1,0,0:0:0:0:
56,72,39366,1,0,0:0:0:0:
168,36,39523,1,8,0:0:0:0:
232,352,39839,5,0,0:0:0:0:
276,168,39997,1,0,0:0:0:0:
100,216,40155,1,8,0:0:0:0:
168,36,40313,1,2,0:2:0:0:
168,36,40629,1,2,0:2:0:0:
168,36,40945,1,2,0:2:0:0:
168,36,41102,5,0,0:0:0:0:
288,40,41260,1,0,0:0:0:0:
356,252,41418,1,8,0:0:0:0:
280,160,41576,1,0,0:0:0:0:
392,144,41734,1,8,0:2:0:0:
248,264,41892,1,0,0:0:0:0:
248,264,41971,1,0,0:0:0:0:
248,264,42050,1,8,0:0:0:0:
392,144,42208,1,0,0:0:0:0:
248,264,42366,5,4,0:0:0:0:
248,264,42681,2,0,L|140:292,1,100,0|0,0:0|0:0,0:0:0:0:
248,264,42997,1,2,2:0:0:0:
380,52,43313,1,2,2:0:0:0:
380,52,43471,1,0,2:0:0:0:
380,52,43629,6,0,L|456:252,1,200,0|0,0:0|0:0,0:0:0:0:
460,344,44102,2,0,B|424:343|396:328|396:328|362:331,1,100,0|0,0:0|0:0,0:0:0:0:
228,240,44418,1,0,0:0:0:0:
232,268,44497,1,0,0:0:0:0:
236,296,44576,1,8,2:1:0:0:
380,52,44892,5,0,0:0:0:0:
380,52,45208,2,0,L|496:52,1,100,0|0,0:0|0:0,0:0:0:0:
380,52,45523,1,0,3:0:0:0:
228,240,45839,1,8,2:1:0:0:
228,240,45997,1,0,2:0:0:0:
228,240,46155,6,0,B|208:112|208:112|260:72|308:88,1,200,0|0,0:0|0:0,0:0:0:0:
108,68,46629,2,0,L|104:170,1,100,0|0,0:0|0:0,0:0:0:0:
102,330,46945,1,0,0:0:0:0:
126,323,47023,1,0,0:0:0:0:
150,316,47102,1,8,2:1:0:0:
174,311,47418,6,0,B|214:294|274:310|274:310|334:274|324:234,1,200,4|0,0:2|0:0,0:0:0:0:
445,256,47892,1,0,0:0:0:0:
453,276,48366,1,0,2:0:0:0:
426,106,48681,6,0,B|384:92|352:104|352:104|304:176|232:144,1,200,0|0,0:0|0:0,0:0:0:0:
124,32,49155,1,0,0:0:0:0:
116,60,49471,1,0,0:0:0:0:
108,88,49550,1,0,0:0:0:0:
100,116,49629,1,8,2:1:0:0:
166,340,49945,6,0,B|142:352|122:300|122:300|196:240|174:186,1,200,0|0,0:0|0:0,0:0:0:0:
320,284,50418,1,0,0:0:0:0:
304,324,50892,1,8,2:1:0:0:
353,53,51208,6,0,B|366:97|332:119|332:119|421:126|421:186,1,200,0|0,0:0|0:0,0:0:0:0:
508,72,51681,1,0,0:0:0:0:
144,72,51997,1,0,0:0:0:0:
172,64,52076,1,0,0:0:0:0:
200,56,52155,1,8,2:1:0:0:
270,332,52471,6,0,B|236:277|183:294|183:294|139:235|180:200,1,200,4|0,0:2|0:0,0:0:0:0:
96,328,52945,1,0,0:0:0:0:
200,56,53418,1,0,2:0:0:0:
288,345,53734,6,0,B|220:316|239:269|239:269|173:224|214:177,1,200,0|0,0:0|0:0,0:0:0:0:
96,328,54208,1,0,0:0:0:0:
88,64,54523,1,0,0:0:0:0:
81,91,54602,1,0,0:0:0:0:
73,119,54681,1,8,2:1:0:0:
382,121,54997,6,0,B|336:184|336:184|277:147|219:174,1,200,0|0,0:0|0:0,0:0:0:0:
453,165,55471,2,0,B|401:239|401:239|442:297|403:364,1,200,0|0,0:0|0:0,0:0:0:0:
460,80,55945,1,8,2:1:0:0:
120,244,56260,6,0,P|219:242|228:352,1,200,0|0,0:0|0:0,0:0:0:0:
256,110,56734,2,0,P|182:77|66:113,1,200,0|0,0:0|0:0,0:0:0:0:
67,136,57129,1,0,0:0:0:0:
63,164,57208,1,8,2:1:0:0:
380,196,57523,6,0,L|180:196,1,200,4|0,0:2|2:2,0:0:0:0:
485,147,57997,2,0,P|482:244|408:307,1,200,0|0,0:0|0:0,0:0:0:0:
400,92,58471,1,0,2:0:0:0:
406,308,58787,6,0,B|300:348|300:348|181:318|146:252,1,300,0|0,0:0|0:0,0:0:0:0:
319,88,59576,1,0,0:0:0:0:
359,90,59655,1,0,0:0:0:0:
400,92,59734,1,8,2:1:0:0:
145,251,60050,5,0,0:0:0:0:
442,94,60523,1,0,0:0:0:0:
128,60,60997,2,0,L|248:96,1,100,8|0,2:1|0:0,0:0:0:0:
408,308,61313,5,0,0:0:0:0:
472,28,61787,1,0,0:0:0:0:
224,88,62102,1,0,0:0:0:0:
240,124,62181,1,0,0:0:0:0:
256,160,62260,1,4,1:2:0:0:
408,308,62576,6,0,B|296:260|296:260|258:252|200:287,1,200,4|8,0:0|0:0,0:0:0:0:
132,356,63050,1,0,0:0:0:0:
90,243,63208,2,0,L|66:118,1,100,0|0,0:0|0:0,0:0:0:0:
251,88,63523,2,0,P|218:125|172:144,1,100,8|0,0:0|0:0,0:0:0:0:
344,84,63839,5,0,0:0:0:0:
160,40,63997,1,0,0:0:0:0:
344,84,64155,1,8,0:0:0:0:
172,144,64313,1,0,0:0:0:0:
344,84,64471,1,0,0:0:0:0:
184,248,64629,1,0,0:0:0:0:
344,84,64787,1,8,0:0:0:0:
160,40,64945,1,0,0:0:0:0:
268,224,65102,6,0,P|264:280|228:324,2,100,0|0|8,0:0|0:0|0:0,0:0:0:0:
184,248,65576,1,0,0:0:0:0:
408,92,65734,1,0,0:0:0:0:
268,224,65892,1,0,0:0:0:0:
458,201,66050,1,8,0:0:0:0:
288,107,66208,1,0,0:0:0:0:
370,283,66366,5,0,0:0:0:0:
408,92,66523,2,0,B|464:92|464:92|500:124,2,100,0|8|0,0:0|0:0|0:0,0:0:0:0:
251,145,66997,1,0,0:0:0:0:
404,312,67155,1,0,0:0:0:0:
128,296,67313,1,8,0:0:0:0:
340,244,67471,1,0,0:0:0:0:
128,296,67629,6,0,P|236:293|320:327,1,200,4|8,0:0|0:0,0:0:0:0:
251,145,68102,1,0,0:0:0:0:
322,327,68260,1,0,0:0:0:0:
251,145,68418,1,0,0:0:0:0:
322,328,68576,1,8,0:0:0:0:
251,145,68734,1,0,0:0:0:0:
128,296,68892,6,0,P|81:209|104:92,1,200,0|8,0:0|0:0,0:0:0:0:
260,36,69366,1,0,0:0:0:0:
168,192,69523,1,0,0:0:0:0:
332,208,69681,1,0,0:0:0:0:
172,88,69839,1,8,0:0:0:0:
240,272,69997,1,0,0:0:0:0:
128,296,70155,6,0,L|30:318,1,100,0|0,0:0|0:0,0:0:0:0:
68,184,70471,2,0,L|167:193,1,100,8|0,0:0|0:0,0:0:0:0:
168,36,70787,2,0,L|56:52,1,100,0|0,0:0|0:0,0:0:0:0:
68,184,71102,1,8,0:0:0:0:
256,176,71260,1,0,0:0:0:0:
168,36,71418,6,0,L|160:140,1,100,0|0,0:0|0:0,0:0:0:0:
384,232,71734,1,8,0:0:0:0:
212,240,71892,1,0,0:0:0:0:
348,88,72050,2,0,L|310:180,1,100,0|0,0:0|0:0,0:0:0:0:
316,356,72366,1,8,0:0:0:0:
384,232,72523,1,0,0:0:0:0:
348,88,72681,5,4,0:0:0:0:
316,356,72997,2,0,P|260:348|216:312,1,100,8|0,0:0|0:0,0:0:0:0:
348,88,73313,1,0,0:0:0:0:
296,268,73471,1,0,0:0:0:0:
504,120,73629,2,0,P|476:184|440:224,1,100,8|0,0:0|0:0,0:0:0:0:
296,268,73945,5,0,0:0:0:0:
388,268,74102,1,0,0:0:0:0:
184,236,74260,1,8,0:0:0:0:
184,328,74418,1,0,0:0:0:0:
216,124,74576,1,0,0:0:0:0:
124,124,74734,1,0,0:0:0:0:
328,156,74892,1,8,0:0:0:0:
328,64,75050,1,0,0:0:0:0:
295,268,75208,6,0,P|372:260|448:156,1,200,0|8,0:0|0:0,0:0:0:0:
328,64,75681,1,0,0:0:0:0:
446,168,75839,2,0,P|468:260|440:376,1,200,0|8,0:0|0:0,0:0:0:0:
296,268,76313,1,0,0:0:0:0:
328,64,76471,5,0,0:0:0:0:
196,271,76629,2,0,L|296:268,1,100,0|8,0:0|0:0,0:0:0:0:
168,176,76945,2,0,L|68:179,1,100,0|8,0:0|0:0,0:0:0:0:
140,72,77260,2,0,L|239:83,1,100,0|8,0:0|0:0,0:0:0:0:
168,176,77576,1,0,0:0:0:0:
328,64,77734,6,0,B|421:102|421:102|381:158|425:226,1,200,4|8,0:0|0:0,0:0:0:0:
493,158,78208,1,0,0:0:0:0:
328,280,78366,1,0,0:0:0:0:
472,52,78523,1,0,0:0:0:0:
328,172,78681,1,8,0:0:0:0:
496,168,78839,1,0,0:0:0:0:
316,156,78997,6,0,B|256:144|236:92|236:92|124:108,1,200,0|8,0:0|0:0,0:0:0:0:
72,156,79471,1,0,0:0:0:0:
68,244,79629,2,0,L|72:352,1,100,0|0,0:0|0:0,0:0:0:0:
149,210,79945,2,0,P|118:172|72:156,1,100,8|0,0:0|0:0,0:0:0:0:
71,343,80260,6,0,L|288:308,1,200,4|8,0:0|0:0,0:0:0:0:
484,156,80734,2,0,P|406:153|304:239,1,200,0|0,0:0|0:0,0:0:0:0:
468,244,81208,1,8,0:0:0:0:
384,276,81366,1,0,0:0:0:0:
484,156,81523,6,0,L|468:52,1,100,0|8,0:0|0:0,0:0:0:0:
424,44,81760,1,0,0:0:0:0:
380,56,81839,2,0,P|324:68|260:68,1,100,8|0,0:0|0:0,0:0:0:0:
212,172,82155,1,8,0:0:0:0:
384,276,82313,1,8,0:0:0:0:
240,308,82471,1,8,0:0:0:0:
356,140,82629,1,0,0:0:0:0:
71,129,82787,6,0,P|137:164|212:172,1,150.000005722046,4|0,0:0|0:0,0:0:0:0:
432,64,83418,2,0,B|445:130|445:130|424:210,1,150.000005722046,8|0,0:0|0:0,0:0:0:0:
292,252,83892,1,0,0:0:0:0:
336,80,84050,6,0,L|336:168,1,75.0000028610231,0|0,0:0|0:0,0:0:0:0:
292,252,84366,1,0,0:0:0:0:
184,80,84523,1,0,0:0:0:0:
184,80,84602,1,0,0:0:0:0:
184,80,84681,2,0,L|228:140,1,75.0000028610231,8|0,0:0|0:0,0:0:0:0:
336,312,84997,2,0,L|292:252,1,75.0000028610231,0|0,0:0|0:0,0:0:0:0:
228,140,85313,6,0,P|136:128|72:156,1,150.000005722046,0|0,0:0|0:0,0:0:0:0:
291,31,85945,2,0,P|363:52|437:43,1,150.000005722046,8|0,0:0|0:0,0:0:0:0:
228,140,86418,1,0,0:0:0:0:
368,140,86576,5,0,0:0:0:0:
292,252,86734,1,8,0:0:0:0:
292,32,86892,1,0,0:0:0:0:
228,140,87050,1,0,0:0:0:0:
228,140,87129,1,0,0:0:0:0:
228,140,87208,2,0,P|188:100|176:68,2,75.0000028610231,8|0|0,0:0|0:0|0:0,0:0:0:0:
292,32,87681,1,0,0:0:0:0:
292,252,87839,6,0,P|215:264|156:304,2,150.000005722046,4|0|8,0:2|0:0|0:0,0:0:0:0:
460,56,88787,1,0,0:0:0:0:
396,244,88945,1,0,0:0:0:0:
472,84,89102,5,0,0:0:0:0:
368,264,89260,1,8,0:0:0:0:
484,116,89418,1,0,0:0:0:0:
360,148,89576,1,0,0:0:0:0:
360,148,89655,1,0,0:0:0:0:
360,148,89734,2,0,L|276:160,1,75.0000028610231,8|0,0:0|0:0,0:0:0:0:
192,168,90050,2,0,L|117:161,1,75.0000028610231,0|0,0:0|0:0,0:0:0:0:
16,144,90366,6,0,P|28:216|120:264,1,150.000005722046,0|0,0:0|0:0,0:0:0:0:
360,148,90997,2,0,L|380:296,1,150.000005722046,8|0,0:0|0:0,0:0:0:0:
360,148,91471,1,0,0:0:0:0:
312,60,91629,6,0,L|216:60,1,75.0000028610231,0|8,0:0|0:0,0:0:0:0:
148,116,91945,1,0,0:0:0:0:
100,280,92102,1,0,0:0:0:0:
148,116,92260,2,0,L|148:212,1,75.0000028610231,8|0,0:0|0:0,0:0:0:0:
204,280,92576,1,0,0:0:0:0:
148,116,92734,1,0,0:0:0:0:
300,348,92892,6,0,B|296:232|296:232|273:206,1,150.000005722046,4|0,0:0|0:0,0:0:0:0:
300,348,93523,1,8,0:0:0:0:
147,240,93839,5,0,0:0:0:0:
128,124,93997,1,0,0:0:0:0:
380,72,94155,5,0,0:0:0:0:
399,188,94313,1,8,0:0:0:0:
272,216,94471,5,0,0:0:0:0:
253,100,94629,1,0,0:0:0:0:
266,206,94787,1,8,0:0:0:0:
262,197,95102,1,0,0:0:0:0:
314,320,95260,1,8,0:0:0:0:
402,193,95418,6,0,P|342:181|246:185,1,150.000005722046,0|0,0:0|0:0,0:0:0:0:
67,221,95892,1,0,0:0:0:0:
184,240,96050,1,8,0:0:0:0:
396,200,96366,1,0,0:0:0:0:
184,240,96523,1,0,0:0:0:0:
288,228,96681,5,0,0:0:0:0:
80,260,96839,1,8,0:0:0:0:
184,240,96997,1,0,0:0:0:0:
288,228,97155,1,0,0:0:0:0:
288,228,97234,1,0,0:0:0:0:
288,228,97313,2,0,L|296:153,1,75.0000028610231,8|0,0:0|0:0,0:0:0:0:
388,192,97629,1,0,0:0:0:0:
364,289,97787,1,0,0:0:0:0:
187,90,97945,6,0,L|184:240,1,150.000005722046,4|0,0:2|0:0,0:0:0:0:
128,12,98576,1,8,0:0:0:0:
240,316,98892,1,0,0:0:0:0:
240,316,99050,1,0,0:0:0:0:
304,238,99208,6,0,L|335:170,1,75.0000028610231,0|8,0:0|0:0,0:0:0:0:
332,11,99523,2,0,P|298:59|305:98,1,75.0000028610231,0|0,0:0|0:0,0:0:0:0:
404,92,99839,1,8,0:0:0:0:
88,312,100155,1,0,0:0:0:0:
160,148,100313,1,0,0:0:0:0:
88,312,100471,6,0,L|136:156,1,150.000005722046,0|0,0:0|0:0,0:0:0:0:
364,96,100945,1,0,0:0:0:0:
192,124,101102,2,0,L|368:124,1,150.000005722046,8|0,0:0|0:0,0:0:0:0:
440,244,101576,1,0,0:0:0:0:
387,60,101734,6,0,L|420:160,1,75.0000028610231,0|8,0:0|0:0,0:0:0:0:
440,244,102050,1,0,0:0:0:0:
192,124,102208,1,0,0:0:0:0:
192,124,102287,1,0,0:0:0:0:
192,124,102366,2,0,L|240:40,1,75.0000028610231,8|0,0:0|0:0,0:0:0:0:
152,196,102681,1,0,0:0:0:0:
229,58,102839,1,0,0:0:0:0:
212,316,102997,6,0,L|232:216,1,100,4|2,0:2|0:0,0:0:0:0:
229,58,103629,1,0,3:3:0:0:
212,316,103945,1,0,0:0:0:0:
229,58,104260,6,0,L|304:124,1,100,0|2,0:0|0:0,0:0:0:0:
212,316,104892,1,2,0:3:0:0:
112,92,105208,1,0,0:0:0:0:
448,176,105523,6,0,L|340:172,1,100,0|2,0:0|0:0,0:0:0:0:
64,192,106155,2,0,L|163:195,1,100,0|2,3:3|0:0,0:0:0:0:
447,176,106787,6,0,P|349:172|263:220,1,200,0|2,0:0|0:0,0:0:0:0:
316,32,107734,1,0,3:3:0:0:
389,316,108050,5,2,0:0:0:0:
317,32,108366,1,0,0:0:0:0:
506,241,108681,1,0,3:3:0:0:
236,328,108997,1,0,0:0:0:0:
236,328,109155,1,0,0:0:0:0:
236,328,109313,6,0,B|280:168|280:168|248:180,1,200,0|0,0:0|3:3,0:0:0:0:
248,180,110576,1,2,0:2:0:0:
126,118,111523,2,0,L|130:181,1,50,8|0,0:0|0:0,0:0:0:0:
112,128,111839,6,8,L|116:228,1,100,8|8,0:0|0:0,0:0:0:0:
127,255,112076,1,0,0:0:0:0:
145,277,112155,2,8,P|208:284|257:253,1,100,8|0,0:0|0:0,0:0:0:0:
354,80,112471,1,8,0:0:0:0:
237,194,112629,1,0,0:0:0:0:
383,51,112787,1,8,0:0:0:0:
161,99,112945,1,0,0:0:0:0:
412,19,113102,6,0,L|431:169,1,150,4|0,0:0|0:0,0:0:0:0:
336,248,113418,2,0,L|343:142,1,100,8|0,0:0|0:0,0:0:0:0:
398,329,113655,1,0,0:0:0:0:
284,336,113734,2,0,P|228:292|212:232,1,100,0|0,0:0|0:0,0:0:0:0:
398,329,114050,1,8,0:0:0:0:
312,80,114208,1,0,0:0:0:0:
312,80,114287,1,0,0:0:0:0:
312,80,114366,6,0,B|263:114|263:114|223:86|176:96,1,150,0|0,0:0|0:0,0:0:0:0:
12,106,114681,2,0,P|66:147|118:146,1,100,8|0,0:0|0:0,0:0:0:0:
94,51,114997,1,0,0:0:0:0:
94,51,115076,1,0,0:0:0:0:
94,51,115155,1,0,0:0:0:0:
72,320,115313,2,0,P|37:256|56:192,1,100,8|0,0:0|0:0,0:0:0:0:
232,232,115550,1,0,0:0:0:0:
232,232,115629,6,0,P|186:251|136:252,1,100,0|0,0:0|0:0,0:0:0:0:
94,51,115945,1,8,0:0:0:0:
385,66,116102,2,0,L|263:75,1,100,0|0,0:0|0:0,0:0:0:0:
276,97,116339,1,0,0:0:0:0:
268,120,116418,1,0,0:0:0:0:
391,43,116576,1,8,0:0:0:0:
204,168,116734,1,0,0:0:0:0:
197,188,116813,1,0,0:0:0:0:
191,208,116892,6,0,L|307:244,1,100,0|0,0:0|0:0,0:0:0:0:
122,256,117208,1,8,0:0:0:0:
173,32,117366,1,0,0:0:0:0:
82,150,117523,1,0,0:0:0:0:
58,154,117602,1,0,0:0:0:0:
34,158,117681,1,0,0:0:0:0:
248,208,117839,2,0,L|233:314,1,100,8|0,0:0|0:0,0:0:0:0:
402,350,118155,5,4,0:0:0:0:
472,212,118313,1,0,0:0:0:0:
432,56,118471,1,8,0:0:0:0:
432,56,118708,5,0,0:0:0:0:
432,56,118787,2,0,L|332:67,2,100,0|0|8,0:0|0:0|0:0,0:0:0:0:
220,75,119260,6,0,B|100:88|100:88|128:128,1,150,4|0,0:0|0:0,0:0:0:0:
148,164,119576,2,0,L|152:288,1,100,0|8,0:0|0:0,0:0:0:0:
448,300,119892,6,0,L|440:112,1,150,4|0,0:0|0:0,0:0:0:0:
448,96,120208,1,0,0:0:0:0:
448,300,120366,1,8,0:0:0:0:
108,272,120523,6,0,P|220:248|308:248,1,200,4|0,0:0|0:0,0:0:0:0:
448,300,120997,1,8,0:0:0:0:
307,248,121155,5,0,0:0:0:0:
356,76,121313,1,0,0:0:0:0:
356,76,121392,1,0,0:0:0:0:
356,76,121471,2,0,L|376:192,1,100,0|8,0:0|0:0,0:0:0:0:
308,248,121787,1,0,0:0:0:0:
308,248,121866,1,0,0:0:0:0:
308,248,121945,6,0,B|257:262|257:262|204:296,2,100,0|0|8,0:0|0:0|0:0,0:0:0:0:
152,216,122418,1,0,0:0:0:0:
144,192,122497,1,0,0:0:0:0:
136,168,122576,1,0,0:0:0:0:
128,144,122655,2,0,L|111:202,1,50,0|0,0:0|0:0,0:0:0:0:
148,40,122813,1,0,0:0:0:0:
148,40,122892,6,0,B|229:46|229:46|244:60,1,100,8|0,0:0|0:0,0:0:0:0:
376,304,123208,6,0,B|363:198|363:198|380:142,1,150,4|0,0:0|0:0,0:0:0:0:
312,82,123523,2,0,L|280:186,1,100,8|0,0:0|0:0,0:0:0:0:
256,190,123760,1,0,0:0:0:0:
228,202,123839,2,0,L|128:234,1,100,0|0,0:0|0:0,0:0:0:0:
388,132,124155,1,8,0:0:0:0:
133,233,124313,1,0,0:0:0:0:
133,233,124392,1,0,0:0:0:0:
133,233,124471,6,0,L|117:341,1,100,0|0,0:0|0:0,0:0:0:0:
192,156,124787,2,0,L|206:57,1,100,8|0,0:0|0:0,0:0:0:0:
104,152,125102,1,0,0:0:0:0:
210,324,125260,1,0,0:0:0:0:
316,156,125418,1,8,0:0:0:0:
414,250,125576,1,0,0:0:0:0:
394,258,125655,1,0,0:0:0:0:
374,266,125734,6,0,L|234:258,1,100,0|0,0:0|0:0,0:0:0:0:
152,164,126050,1,8,0:0:0:0:
273,46,126208,1,0,0:0:0:0:
269,70,126287,1,0,0:0:0:0:
265,94,126366,1,0,0:0:0:0:
152,164,126523,2,0,L|128:300,1,100,0|8,0:0|0:0,0:0:0:0:
335,159,126839,2,0,L|346:79,1,50
368,240,126997,6,0,L|400:352,1,100
368,56,127313,2,0,B|418:56|418:56|464:76,1,100,8|0,0:0|0:0,0:0:0:0:
213,89,127629,1,0,0:0:0:0:
188,92,127708,1,0,0:0:0:0:
163,94,127787,1,0,0:0:0:0:
88,232,127945,2,0,P|157:220|210:238,1,100,8|0,0:0|0:0,0:0:0:0:
284,176,128181,1,0,0:0:0:0:
284,176,128260,6,0,P|358:169|420:128,1,150,4|0,0:0|0:0,0:0:0:0:
136,96,128576,1,8,0:0:0:0:
288,208,128734,5,0,0:0:0:0:
288,243,128813,1,0,0:0:0:0:
284,277,128892,1,0,0:0:0:0:
272,309,128971,1,0,0:0:0:0:
251,337,129050,1,0,0:0:0:0:
81,300,129208,2,0,B|61:282|61:282|92:225|80:152,1,150,8|0,0:0|0:0,0:0:0:0:
3,10,129523,6,0,P|-11:57|2:105,1,100,0|0,0:0|0:0,0:0:0:0:
300,73,129839,1,8,0:0:0:0:
144,52,129997,1,0,0:0:0:0:
220,160,130155,2,0,L|159:283,1,100
72,208,130471,1,8,0:0:0:0:
48,80,130629,1,0,0:0:0:0:
48,80,130708,1,0,0:0:0:0:
48,80,130787,5,0,0:0:0:0:
72,208,130945,1,0,0:0:0:0:
157,96,131102,1,8,0:0:0:0:
136,324,131260,1,0,0:0:0:0:
136,324,131339,1,0,0:0:0:0:
136,324,131418,5,0,0:0:0:0:
296,197,131576,2,0,L|187:223,1,100,0|8,0:0|0:0,0:0:0:0:
48,80,131892,1,0,0:0:0:0:
48,80,131971,1,0,0:0:0:0:
48,80,132050,2,0,L|147:93,2,100,0|0|8,0:0|0:0|0:0,0:0:0:0:
208,144,132523,5,0,0:0:0:0:
228,148,132602,1,0,0:0:0:0:
248,152,132681,1,0,0:0:0:0:
268,156,132760,1,0,0:0:0:0:
288,160,132839,2,0,L|292:264,1,100,0|8,0:0|0:0,0:0:0:0:
392,232,133155,1,0,0:0:0:0:
412,236,133234,1,0,0:0:0:0:
432,240,133313,6,0,L|436:344,2,100,4|0|0,1:1|0:0|0:0,0:0:0:0:
428,60,133786,1,0,0:0:0:0:
186,156,133944,2,0,L|285:162,1,100,0|0,0:0|0:0,0:0:0:0:
82,333,134260,6,0,L|181:339,1,100,8|0,0:1|0:0,0:0:0:0:
232,32,134576,1,0,0:0:0:0:
192,209,134734,1,0,0:0:0:0:
80,100,134891,1,8,0:1:0:0:
272,19,135049,1,0,0:0:0:0:
80,100,135207,6,0,L|180:107,1,100,0|0,0:2|0:0,0:0:0:0:
403,223,135523,2,0,L|303:216,1,100,0|0,0:0|0:0,0:0:0:0:
91,280,135839,2,0,L|191:287,1,100,0|0,0:0|0:0,0:0:0:0:
208,200,136155,5,8,0:1:0:0:
220,116,136313,1,0,0:0:0:0:
286,171,136470,1,0,0:2:0:0:
148,260,136628,1,0,0:0:0:0:
192,40,136786,1,8,0:1:0:0:
364,188,136944,1,0,0:0:0:0:
148,260,137102,5,0,1:1:0:0:
192,40,137418,1,0,1:0:0:0:
286,171,137576,1,0,0:0:0:0:
220,116,137734,1,8,1:0:0:0:
364,188,137891,1,0,0:0:0:0:
208,200,138049,5,8,0:0:0:0:
84,312,138206,1,8,0:0:0:0:
84,312,138285,1,0,0:0:0:0:
84,312,138364,1,0,0:0:0:0:
208,200,138522,1,8,0:0:0:0:
208,200,138601,1,0,0:0:0:0:
208,200,138680,1,8,0:0:0:0:
316,68,138838,1,8,0:0:0:0:
316,68,138917,1,0,0:0:0:0:
316,68,138996,2,0,L|416:104,1,100,8|8,0:0|0:0,0:0:0:0:
156,280,139312,6,0,L|80:360,1,100,4|0,0:0|0:0,0:0:0:0:
208,200,139627,2,0,P|252:252|252:300,1,100,0|0,0:0|0:0,0:0:0:0:
124,200,139943,2,0,L|116:80,1,100,8|0,0:0|0:0,0:0:0:0:
34,92,140259,1,8,0:0:0:0:
208,200,140417,6,0,L|416:192,1,200,8|0,0:0|0:0,0:0:0:0:
396,292,140890,1,8,0:0:0:0:
316,348,141048,1,0,0:0:0:0:
407,192,141206,2,0,P|396:132|368:88,1,100,0|8,0:0|0:0,0:0:0:0:
208,199,141522,2,0,P|215:249|238:293,1,100,8|0,0:0|0:0,0:0:0:0:
164,108,141838,5,0,0:0:0:0:
64,92,141996,1,0,0:0:0:0:
264,116,142154,1,0,0:0:0:0:
327,37,142312,1,0,0:0:0:0:
208,199,142470,1,8,0:0:0:0:
272,276,142627,2,0,P|340:264|392:224,1,100,0|8,0:0|0:0,0:0:0:0:
129,303,142943,6,0,B|139:292|189:322|189:322|153:250|208:200,1,200,8|0,0:0|0:0,0:0:0:0:
356,124,143417,2,0,P|420:128|460:112,1,100,8|0,0:0|0:0,0:0:0:0:
261,113,143733,1,0,0:0:0:0:
261,113,143891,6,0,B|243:103|200:112|200:112|192:96|192:96|176:104|176:104|168:88|168:88|152:96|152:96|144:80|144:80|128:88|128:88|120:72|120:72|104:80|104:80|96:64|96:64|80:72|80:72|51:51|24:64,1,300.000011444092,2|0,0:2|2:0,0:0:0:0:
26,65,144364,6,0,L|38:201,1,100,4|0,0:0|0:0,0:0:0:0:
132,344,144680,2,0,L|123:244,1,100,0|0,0:0|0:0,0:0:0:0:
264,116,144996,2,0,L|275:251,1,100,8|0,0:0|0:0,0:0:0:0:
148,161,145312,1,8,0:0:0:0:
356,37,145470,6,0,B|304:32|304:32|228:4|176:76,1,200,8|0,0:0|0:0,0:0:0:0:
123,244,145943,2,0,P|159:210|178:164,1,100,8|0,0:0|0:0,0:0:0:0:
32,240,146259,1,0,0:0:0:0:
72,320,146417,1,8,0:0:0:0:
84,164,146575,1,8,0:0:0:0:
44,84,146733,1,0,0:0:0:0:
160,324,146891,6,0,L|259:315,1,100,0|0,0:0|0:0,0:0:0:0:
392,144,147206,2,0,P|392:194|379:242,1,100,0|0,0:0|0:0,0:0:0:0:
210,91,147522,2,0,L|296:40,1,100,8|0,0:0|0:0,0:0:0:0:
160,324,147838,1,8,0:0:0:0:
296,40,147996,6,0,L|213:222,1,200,8|0,0:0|0:0,0:0:0:0:
160,324,148470,2,8,L|256:299,1,100,8|0,0:0|0:0,0:0:0:0:
96,32,148785,1,0,0:0:0:0:
65,127,148943,1,8,0:0:0:0:
30,221,149101,1,4,0:2:0:0:
96,32,149417,6,0,L|208:60,1,100,4|0,0:0|0:0,0:0:0:0:
197,211,149733,2,0,P|160:180|152:131,1,100,0|0,0:0|0:0,0:0:0:0:
336,136,150049,2,0,L|236:132,2,100,8|0|8,0:0|0:0|0:0,0:0:0:0:
464,276,150522,6,0,L|264:272,1,200,8|0,0:0|0:0,0:0:0:0:
76,132,150996,2,0,L|200:136,1,100,8|0,0:0|0:0,0:0:0:0:
316,144,151312,1,0,0:0:0:0:
264,272,151470,1,8,0:0:0:0:
76,132,151627,1,8,0:0:0:0:
236,136,151785,1,0,0:0:0:0:
400,136,151943,6,0,L|400:32,1,100,0|0,0:0|0:0,0:0:0:0:
236,135,152259,2,0,P|247:183|283:216,1,100,0|0,0:0|0:0,0:0:0:0:
276,56,152575,1,8,0:0:0:0:
283,216,152733,2,0,L|291:316,1,100,0|8,0:0|0:0,0:0:0:0:
276,56,153049,6,0,L|76:74,1,200,8|0,0:0|0:0,0:0:0:0:
283,215,153522,1,8,0:0:0:0:
176,245,153680,1,0,0:0:0:0:
70,272,153838,1,0,0:0:0:0:
352,136,153996,6,2,B|354:104|354:104|390:140|386:192|386:192|378:224|418:228|418:228|405:253|414:273|393:283|393:283|417:329|399:326,1,300.000011444092,2|0,1:2|2:0,0:0:0:0:
352,136,154470,6,0,L|228:159,1,100,4|0,0:0|0:0,0:0:0:0:
64,196,154785,1,0,0:0:0:0:
156,176,154943,1,0,0:0:0:0:
255,154,155101,2,0,L|281:279,2,100,8|0|8,0:0|0:0|0:0,0:0:0:0:
156,176,155575,6,0,B|188:320|188:320|236:339,1,200,8|0,0:0|0:0,0:0:0:0:
472,300,156049,1,8,0:0:0:0:
352,320,156206,1,0,0:0:0:0:
484,176,156365,2,0,L|495:76,1,100,0|8,0:0|0:0,0:0:0:0:
364,200,156680,1,8,0:0:0:0:
352,320,156838,1,0,0:0:0:0:
376,80,156996,6,0,L|276:91,1,100,0|0,0:0|0:0,0:0:0:0:
57,126,157312,2,0,L|165:145,1,100,0|0,0:0|0:0,0:0:0:0:
144,25,157627,1,8,0:0:0:0:
166,258,157785,2,0,L|67:240,1,100,0|8,0:0|0:0,0:0:0:0:
256,192,158101,5,8,0:0:0:0:
256,192,158180,12,4,159049,0:0:0:0:
155,103,159206,5,0,0:0:0:0:
155,103,159285,1,0,0:0:0:0:
155,103,159364,1,0,0:0:0:0:
155,103,159443,1,0,0:0:0:0:
155,103,159522,6,0,P|171:151|205:187,1,100,0|0,0:0|0:0,0:0:0:0:
276,88,159838,1,8,0:0:0:0:
48,76,159996,2,0,L|28:300,1,200,0|0,0:0|0:0,0:0:0:0:
247,264,160469,2,0,L|148:252,1,100,8|0,0:0|0:0,0:0:0:0:
304,348,160785,6,0,P|340:300|340:244,1,100,0|0,0:0|0:0,0:0:0:0:
147,251,161101,1,8,0:0:0:0:
276,88,161259,2,0,B|380:100|380:100|464:156,1,200,0|0,0:0|0:0,0:0:0:0:
248,264,161733,5,8,0:0:0:0:
192,112,161891,2,0,B|288:70|288:70|388:76,1,200,0|0,0:0|0:0,0:0:0:0:
248,264,162363,5,8,0:0:0:0:
120,180,162522,2,0,B|182:95|182:95|267:53,1,200,0|0,0:0|0:0,0:0:0:0:
112,316,162996,5,8,0:0:0:0:
120,180,163154,2,0,L|319:190,1,200,0|0,0:0|0:0,0:0:0:0:
412,256,163627,2,0,L|402:355,1,100,8|0,0:0|0:0,0:0:0:0:
416,144,163943,2,0,L|425:44,1,100,0|0,0:0|0:0,0:0:0:0:
320,188,164259,2,0,L|310:287,1,100,8|0,0:0|0:0,0:0:0:0:
416,144,164575,6,0,P|352:88|236:120,1,200,4|8,0:0|0:0,0:0:0:0:
320,188,165048,1,0,0:0:0:0:
246,109,165206,2,0,L|128:100,1,100,0|0,0:0|0:0,0:0:0:0:
305,241,165522,1,8,0:0:0:0:
433,344,165680,6,0,L|448:180,1,150,0|0,0:0|0:0,0:0:0:0:
320,39,165996,2,0,L|339:188,1,150,0|0,0:0|0:0,0:0:0:0:
209,282,166312,2,0,L|227:178,1,100,0|0,0:0|0:0,0:0:0:0:
48,84,166627,1,0,0:0:0:0:
157,96,166785,1,8,0:0:0:0:
269,111,166943,1,0,0:0:0:0:
48,84,167101,6,0,L|147:89,1,100,0|0,0:0|0:0,0:0:0:0:
384,136,167417,1,8,0:0:0:0:
252,277,167575,1,0,0:0:0:0:
64,204,167733,6,0,L|163:209,1,100,0|0,0:0|0:0,0:0:0:0:
400,256,168049,1,8,0:0:0:0:
263,215,168206,1,2,0:2:0:0:
261,48,168364,1,4,0:0:0:0:
480,32,168522,6,0,L|477:131,1,100,0|2,0:0|0:2,0:0:0:0:
492,252,168838,1,0,0:0:0:0:
264,130,168996,2,0,L|364:124,1,100,2|0,0:2|0:0,0:0:0:0:
148,220,169312,2,0,L|48:212,1,100,2|0,0:2|0:0,0:0:0:0:
364,124,169627,6,0,L|354:223,1,100,4|0,0:0|0:0,0:0:0:0:
288,80,169943,1,8,0:0:0:0:
354,223,170101,1,0,0:0:0:0:
288,80,170259,6,0,L|196:121,1,100,0|0,0:0|0:0,0:0:0:0:
364,124,170575,1,8,0:0:0:0:
196,121,170733,1,0,0:0:0:0:
354,223,170891,6,0,L|460:312,1,100,0|0,0:0|0:0,0:0:0:0:
256,208,171206,1,8,0:0:0:0:
432,288,171364,1,0,0:0:0:0:
158,223,171522,6,0,L|81:287,1,100,0|0,0:0|0:0,0:0:0:0:
256,208,171838,1,8,0:0:0:0:
288,80,171996,1,0,0:0:0:0:
288,80,172075,1,0,0:0:0:0:
288,80,172154,6,0,P|364:88|420:68,1,100,0|0,0:0|0:0,0:0:0:0:
256,208,172470,2,0,B|256:260|256:260|276:302,1,100,8|0,0:0|0:0,0:0:0:0:
288,80,172785,2,0,L|189:95,1,100,0|0,0:0|0:0,0:0:0:0:
120,136,173022,1,0,0:0:0:0:
120,136,173101,1,8,0:0:0:0:
120,136,173180,2,0,L|60:148,1,50,0|0,0:0|0:0,0:0:0:0:
256,208,173417,5,0,0:0:0:0:
262,227,173496,1,0,0:0:0:0:
268,245,173575,1,0,0:0:0:0:
273,264,173654,1,0,0:0:0:0:
278,282,173733,2,0,L|407:246,1,100,8|0,0:0|0:0,0:0:0:0:
467,178,174049,1,0,0:0:0:0:
447,59,174206,1,0,0:0:0:0:
356,137,174364,1,8,0:0:0:0:
376,256,174522,1,0,0:0:0:0:
447,59,174680,6,0,B|392:12|328:24|328:24|257:34,1,200,4|8,0:0|0:0,0:0:0:0:
168,116,175154,1,0,0:0:0:0:
156,236,175312,1,0,0:0:0:0:
264,185,175470,1,0,0:0:0:0:
68,52,175628,1,8,0:0:0:0:
56,172,175786,1,0,0:0:0:0:
155,236,175943,6,0,P|232:220|296:108,1,200,0|8,0:0|0:0,0:0:0:0:
168,116,176417,1,0,0:0:0:0:
56,172,176575,2,0,L|48:288,2,100,0|0|8,0:0|0:0|0:0,0:0:0:0:
240,112,177049,1,0,0:0:0:0:
240,112,177127,1,0,0:0:0:0:
240,112,177206,6,0,P|190:103|140:105,1,100,0|0,0:0|0:0,0:0:0:0:
236,312,177522,2,0,L|252:208,1,100,8|0,0:0|0:0,0:0:0:0:
392,44,177838,1,0,0:0:0:0:
456,144,177996,1,0,0:0:0:0:
336,136,178154,1,8,0:0:0:0:
340,256,178311,1,0,0:0:0:0:
272,44,178469,6,0,B|242:28|242:28|160:36,2,100,0|0|0,0:0|0:0|0:0,0:0:0:0:
340,256,178943,1,8,0:0:0:0:
344,276,179022,1,0,0:0:0:0:
346,295,179101,2,0,L|246:303,1,100,8|0,0:0|0:0,0:0:0:0:
104,198,179417,1,8,0:0:0:0:
122,173,179496,1,0,0:0:0:0:
146,155,179575,1,8,0:0:0:0:
175,148,179654,1,0,0:0:0:0:
204,152,179733,6,0,P|252:163|300:151,1,100,4|0,0:0|0:0,0:0:0:0:
475,69,180049,6,0,P|426:57|378:69,1,100,4|0,0:0|0:0,0:0:0:0:
399,93,180285,1,0,0:0:0:0:
411,121,180364,1,0,0:0:0:0:
419,149,180443,1,0,0:0:0:0:
418,179,180522,1,0,0:0:0:0:
324,308,180680,2,0,P|306:257|319:207,1,100,8|0,0:0|0:0,0:0:0:0:
396,352,180996,5,0,0:0:0:0:
360,144,181155,1,0,0:0:0:0:
99,187,181312,2,0,L|199:194,1,100,8|0,0:0|0:0,0:0:0:0:
226,206,181549,1,0,0:0:0:0:
253,218,181628,1,0,0:0:0:0:
279,231,181706,1,0,0:0:0:0:
300,240,181786,1,0,0:0:0:0:
228,78,181944,1,8,0:0:0:0:
76,257,182102,1,0,0:0:0:0:
76,257,182181,1,0,0:0:0:0:
76,256,182260,6,0,P|72:317|96:365,1,100,0|0,0:0|0:0,0:0:0:0:
126,107,182576,1,8,0:0:0:0:
299,142,182733,1,0,0:0:0:0:
293,160,182812,1,0,0:0:0:0:
287,178,182891,1,0,0:0:0:0:
281,196,182970,1,0,0:0:0:0:
273,216,183049,2,0,L|172:257,1,100,0|8,0:0|0:0,0:0:0:0:
394,72,183365,1,0,0:0:0:0:
412,52,183444,1,0,0:0:0:0:
432,32,183522,6,0,L|325:73,1,100,0|0,0:0|0:0,0:0:0:0:
421,199,183838,1,8,0:0:0:0:
452,11,183996,1,0,0:0:0:0:
418,230,184154,1,0,0:0:0:0:
415,268,184232,1,0,0:0:0:0:
413,301,184311,1,0,0:0:0:0:
235,295,184470,1,0,0:0:0:0:
64,276,184627,1,0,0:0:0:0:
64,276,184706,1,0,0:0:0:0:
64,276,184786,5,4,0:0:0:0:
199,288,184944,1,0,0:0:0:0:
323,297,185101,1,8,0:0:0:0:
315,306,185338,1,0,0:0:0:0:
307,316,185417,2,0,L|350:225,1,100,0|0,0:0|0:0,0:0:0:0:
256,47,185732,1,8,0:0:0:0:
165,208,185891,6,0,B|215:193|227:166|227:166|271:174|299:161,1,150,4|0,0:0|0:0,0:0:0:0:
436,216,186207,2,0,P|393:237|345:227,1,100,0|8,0:0|0:0,0:0:0:0:
492,13,186522,2,0,L|508:179,1,150,4|0,0:0|0:0,0:0:0:0:
507,206,186838,1,0,0:0:0:0:
340,44,186996,1,8,0:0:0:0:
339,44,187154,6,0,P|292:120|152:96,1,200,4|0,0:0|0:0,0:0:0:0:
136,224,187627,1,8,0:0:0:0:
232,24,187785,5,0,0:0:0:0:
337,188,187943,1,0,0:0:0:0:
337,202,188022,1,0,0:0:0:0:
336,216,188101,2,0,P|279:236|231:231,1,100,0|8,0:0|0:0,0:0:0:0:
53,80,188417,1,0,0:0:0:0:
66,64,188496,1,0,0:0:0:0:
80,49,188575,6,0,L|196:33,2,100,0|0|8,0:0|0:0|0:0,0:0:0:0:
141,167,189048,1,0,0:0:0:0:
147,182,189127,1,0,0:0:0:0:
152,196,189206,2,0,L|154:257,1,50,0|0,0:0|0:0,0:0:0:0:
227,248,189364,2,0,L|229:309,1,50,0|0,0:0|0:0,0:0:0:0:
302,283,189522,2,0,L|304:344,1,50,8|0,0:0|0:0,0:0:0:0:
377,335,189680,2,0,L|379:396,1,50,0|0,0:0|0:0,0:0:0:0:
379,249,189838,6,0,L|402:151,1,100,4|0,0:0|0:0,0:0:0:0:
401,151,190470,1,8,0:0:0:0:
168,44,191101,1,2,2:0:0:0:
182,239,191575,5,0,0:0:0:0:
177,256,191654,1,0,0:0:0:0:
171,272,191733,1,8,0:0:0:0:
140,144,191891,1,0,0:0:0:0:
140,144,192365,6,0,L|352:124,1,200,4|8,0:0|0:0,0:0:0:0:
339,125,193627,1,8,3:2:0:0:
173,80,194101,5,0,0:0:0:0:
146,74,194180,1,0,0:0:0:0:
119,68,194259,2,0,L|111:176,1,100,8|0,0:0|2:0,0:0:0:0:
84,333,194732,1,0,0:0:0:0:
323,280,194891,6,0,L|248:280,1,75.0000028610231,4|0,0:0|0:0,0:0:0:0:
308,192,195207,2,0,L|404:192,1,75.0000028610231,0|0,0:0|0:0,0:0:0:0:
431,104,195522,2,0,L|356:104,1,75.0000028610231,8|0,0:0|0:0,0:0:0:0:
416,16,195838,2,0,L|512:16,1,75.0000028610231,0|0,0:0|0:0,0:0:0:0:
308,192,196154,6,0,L|290:288,2,75.0000028610231,0|0|0,0:0|0:0|0:0,0:0:0:0:
208,80,196627,1,0,0:0:0:0:
164,76,196706,1,0,0:0:0:0:
120,84,196786,2,0,P|87:102|64:139,1,75.0000028610231,8|0,0:0|0:0,0:0:0:0:
168,272,197101,2,0,P|164:214|150:183,1,75.0000028610231,0|0,0:0|0:0,0:0:0:0:
128,364,197417,6,0,P|183:370|232:344,1,112.500004291535,12|0,0:0|0:0,0:0:0:0:
168,272,197732,1,0,0:0:0:0:
208,80,197891,2,0,P|241:95|268:180,1,112.500004291535,8|0,0:0|0:0,0:0:0:0:
175,167,198206,1,0,0:0:0:0:
376,64,198364,1,8,0:0:0:0:
432,176,198522,1,0,0:0:0:0:
432,176,198601,1,0,0:0:0:0:
432,176,198680,5,0,0:0:0:0:
299,191,198838,1,8,0:0:0:0:
299,191,198917,1,0,0:0:0:0:
299,191,198996,1,0,0:0:0:0:
164,204,199154,1,8,0:0:0:0:
164,204,199232,1,0,0:0:0:0:
164,204,199312,2,0,L|152:236,6,18.7500007152558,8|0|0|0|0|0|0,0:0|0:0|0:0|0:0|0:0|0:0|2:0,2:0:0:0:
208,7,199628,6,0,L|128:40,1,75.0000028610231,8|0,0:0|0:0,0:0:0:0:
6,147,199864,1,0,0:0:0:0:
6,147,199943,6,0,L|172:119,1,150,4|0,0:0|0:0,0:0:0:0:
231,142,200259,2,0,P|209:186|164:204,1,100,8|0,0:0|0:0,0:0:0:0:
284,76,200575,1,0,0:0:0:0:
284,76,200653,1,0,0:0:0:0:
284,76,200732,1,0,0:0:0:0:
108,44,200891,2,0,L|232:72,1,100,8|0,0:0|0:0,0:0:0:0:
312,152,201127,1,0,0:0:0:0:
312,152,201207,6,0,L|416:128,1,100,0|0,0:0|0:0,0:0:0:0:
200,16,201522,2,0,P|200:74|104:136,1,150,8|0,0:0|0:0,0:0:0:0:
108,44,201838,1,0,0:0:0:0:
228,296,201996,1,0,0:0:0:0:
284,76,202154,1,8,0:0:0:0:
224,308,202311,1,0,0:0:0:0:
220,320,202390,1,0,0:0:0:0:
216,332,202470,6,0,L|352:280,1,100,0|0,0:0|0:0,0:0:0:0:
435,99,202785,1,8,0:0:0:0:
248,120,202943,2,0,L|303:122,1,50,0|0,0:0|0:0,0:0:0:0:
196,208,203101,2,0,L|274:210,1,50,0|0,0:0|0:0,0:0:0:0:
138,285,203259,2,0,B|72:262|72:262|24:276,1,100,0|8,0:0|0:0,0:0:0:0:
164,32,203575,1,0,0:0:0:0:
156,52,203654,1,0,0:0:0:0:
148,72,203733,6,0,B|100:85|100:85|24:76,1,100,0|0,0:0|0:0,0:0:0:0:
248,120,204049,2,0,B|295:106|295:106|372:116,1,100,8|0,0:0|0:0,0:0:0:0:
344,256,204364,1,0,0:0:0:0:
324,236,204443,1,0,0:0:0:0:
304,216,204522,1,0,0:0:0:0:
96,208,204680,2,0,L|196:209,1,100,8|0,0:0|0:0,0:0:0:0:
336,84,204996,5,4,0:0:0:0:
96,208,205154,1,0,0:0:0:0:
187,35,205312,1,8,0:0:0:0:
304,220,205470,5,0,3:3:0:0:
294,244,205549,1,0,3:3:0:0:
286,268,205627,1,0,0:0:0:0:
278,292,205706,1,0,3:3:0:0:
269,317,205785,1,0,0:0:0:0:
448,160,205943,2,0,L|388:164,1,50,8|0,0:0|0:0,0:0:0:0:
248,40,206101,6,0,P|168:108|160:160,1,150,4|0,0:0|0:0,0:0:0:0:
448,160,206417,2,0,P|476:108|464:56,1,100,0|8,0:0|0:0,0:0:0:0:
256,136,206733,2,0,L|408:156,1,150,4|0,0:0|0:0,0:0:0:0:
264,228,207049,2,0,L|156:244,1,100,0|8,0:0|0:0,0:0:0:0:
448,160,207364,6,0,P|364:208|340:303,1,200,4|0,0:0|0:0,0:0:0:0:
464,292,207838,1,8,0:0:0:0:
434,41,207996,5,0,0:0:0:0:
411,52,208075,1,0,0:0:0:0:
389,64,208154,1,0,0:0:0:0:
367,76,208232,1,0,0:0:0:0:
346,91,208312,2,0,L|366:189,1,100,0|8,0:0|0:0,0:0:0:0:
248,60,208627,1,0,0:0:0:0:
228,72,208706,1,0,0:0:0:0:
212,84,208785,6,0,L|236:192,1,100,0|0,0:0|0:0,0:0:0:0:
412,316,209101,2,0,L|390:218,1,100,8|0,0:0|0:0,0:0:0:0:
386,167,209338,1,0,0:0:0:0:
396,117,209417,1,0,0:0:0:0:
425,76,209496,1,0,0:0:0:0:
466,47,209575,1,0,0:0:0:0:
416,49,209654,1,0,0:0:0:0:
366,42,209733,1,8,0:0:0:0:
117,110,209891,1,0,0:0:0:0:
142,152,209969,1,0,0:0:0:0:
164,196,210049,6,0,L|312:217,1,150,4|0,0:0|0:0,0:0:0:0:
407,191,210365,2,0,P|407:243|380:288,1,100,8|0,0:0|0:0,0:0:0:0:
155,324,210680,1,0,0:0:0:0:
188,316,210759,1,0,0:0:0:0:
216,312,210838,1,0,0:0:0:0:
32,192,210996,2,0,L|140:200,1,100,8|0,0:0|0:0,0:0:0:0:
240,308,211232,1,0,0:0:0:0:
240,308,211312,6,0,P|296:320|376:244,1,150,0|0,0:0|0:0,0:0:0:0:
397,33,211627,2,0,P|347:86|344:160,1,150,8|0,0:0|0:0,0:0:0:0:
248,48,211943,5,0,0:0:0:0:
288,228,212101,1,0,0:0:0:0:
452,132,212259,1,8,0:0:0:0:
260,140,212417,1,0,0:0:0:0:
226,142,212496,1,0,0:0:0:0:
190,146,212575,6,0,B|138:154|138:154|94:178,1,100
178,30,212890,1,8,0:0:0:0:
332,39,213048,1,0,0:0:0:0:
326,68,213127,1,0,0:0:0:0:
320,97,213206,1,0,0:0:0:0:
314,126,213285,1,0,0:0:0:0:
306,155,213364,1,0,0:0:0:0:
189,322,213522,2,0,P|231:270|289:274,1,100,8|0,0:0|0:0,0:0:0:0:
288,278,213759,1,0,0:0:0:0:
314,292,213838,6,0,P|364:278|402:236,1,100,0|0,0:0|0:0,0:0:0:0:
229,104,214154,2,0,L|215:207,1,100,8|0,0:0|0:0,0:0:0:0:
72,319,214469,1,0,0:0:0:0:
72,319,214548,1,0,0:0:0:0:
72,319,214627,1,0,0:0:0:0:
68,91,214785,2,0,P|104:125|116:173,1,100,8|0,0:0|0:0,0:0:0:0:
106,201,215022,1,0,0:0:0:0:
87,224,215101,6,0,L|194:231,1,100,4|0,0:0|0:0,0:0:0:0:
483,249,215417,2,0,P|436:212|415:152,1,100,8|0,0:0|0:0,0:0:0:0:
512,108,215654,1,0,0:0:0:0:
512,108,215733,1,0,0:0:0:0:
512,108,215812,2,0,L|508:184,1,50,0|0,0:0|0:0,0:0:0:0:
270,196,216049,2,0,P|273:253|306:306,1,100,8|0,0:0|0:0,0:0:0:0:
400,212,216285,1,0,0:0:0:0:
400,212,216364,6,0,P|398:162|377:117,2,100,0|0|8,0:0|0:0|0:0,0:0:0:0:
271,195,216838,1,0,0:0:0:0:
271,195,216917,1,0,0:0:0:0:
271,195,216996,1,0,0:0:0:0:
271,195,217075,1,0,0:0:0:0:
271,195,217154,1,0,0:0:0:0:
287,11,217312,2,0,L|152:33,1,100,8|0,0:0|0:0,0:0:0:0:
201,48,217549,1,0,0:0:0:0:
208,71,217627,6,0,P|197:145|166:178,1,100,0|0,0:0|0:0,0:0:0:0:
332,100,217943,2,0,L|433:105,1,100,8|0,0:0|0:0,0:0:0:0:
456,122,218180,1,0,0:0:0:0:
471,147,218259,1,0,0:0:0:0:
478,175,218338,1,0,0:0:0:0:
472,204,218417,1,0,0:0:0:0:
360,239,218575,2,0,P|311:232|265:250,1,100,8|0,0:0|0:0,0:0:0:0:
251,276,218812,1,0,0:0:0:0:
235,300,218891,6,0,P|189:317|136:312,1,100,0|0,0:0|0:0,0:0:0:0:
118,118,219206,2,0,L|96:216,1,100,8|0,0:0|0:0,0:0:0:0:
56,53,219522,1,0,0:0:0:0:
56,53,219601,1,0,0:0:0:0:
56,53,219680,1,0,0:0:0:0:
255,97,219838,1,8,0:0:0:0:
162,274,219996,1,0,0:0:0:0:
162,274,220075,1,0,0:0:0:0:
162,274,220154,6,0,L|264:220,1,100,4|0,1:0|0:0,0:0:0:0:
376,64,220470,2,0,L|371:179,1,100,2|0,2:2|2:2,0:0:0:0:
464,28,220786,1,2,2:0:0:0:
396,244,220944,1,0,0:0:0:0:
464,28,221102,5,8,0:1:0:0:
434,39,221260,1,0,0:0:0:0:
405,53,221418,1,0,0:0:0:0:
376,64,221576,1,2,2:0:0:0:
436,332,221733,2,0,L|379:249,1,100,2|0,2:0|0:0,0:0:0:0:
264,48,222049,6,0,L|320:130,1,100,0|0,0:0|0:0,0:0:0:0:
160,272,222365,2,0,L|262:218,1,100,2|0,2:0|0:0,0:0:0:0:
88,215,222681,1,2,2:0:0:0:
305,164,222839,1,0,0:0:0:0:
88,215,222997,5,8,0:1:0:0:
112,234,223155,1,0,0:0:0:0:
136,252,223313,1,0,0:0:0:0:
160,272,223471,1,0,0:0:0:0:
305,164,223628,2,0,L|304:56,1,100,8|0,0:1|0:0,0:0:0:0:
380,220,223944,6,0,P|340:250|291:258,1,100,0|0,0:0|0:0,0:0:0:0:
305,164,224260,1,2,1:2:0:0:
276,344,224418,1,0,0:0:0:0:
236,4,224576,1,2,1:2:0:0:
228,208,224733,1,0,0:0:0:0:
404,136,224891,6,0,P|376:92|332:69,1,100,8|8,0:0|0:0,0:0:0:0:
284,68,225128,1,0,0:0:0:0:
236,96,225207,2,0,L|136:160,1,100,8|0,0:0|0:0,0:0:0:0:
404,248,225522,2,0,P|376:292|332:314,1,100,8|8,0:0|0:0,0:0:0:0:
284,316,225759,1,0,0:0:0:0:
236,288,225838,2,0,L|136:224,1,100,8|0,0:0|0:0,0:0:0:0:
312,192,226154,6,0,L|512:192,1,200,4|8,0:0|0:0,0:0:0:0:
224,192,226628,1,0,0:0:0:0:
264,48,226786,1,0,0:0:0:0:
303,42,226865,1,0,0:0:0:0:
342,36,226944,2,0,B|387:28|387:28|452:45,2,100,0|8|0,0:0|0:0|0:0,0:0:0:0:
152,220,227417,1,0,0:0:0:0:
192,0,227575,1,0,0:0:0:0:
152,220,227733,2,0,B|194:172|194:172|182:79,1,150,8|0,0:0|0:0,0:0:0:0:
182,86,228049,1,0,0:0:0:0:
183,87,228128,1,0,0:0:0:0:
182,86,228207,1,0,0:0:0:0:
406,236,228365,2,0,L|391:335,1,100,8|0,0:0|0:0,0:0:0:0:
292,80,228680,5,0,0:0:0:0:
272,260,228838,1,0,0:0:0:0:
448,128,228996,1,8,0:0:0:0:
292,80,229154,1,0,0:0:0:0:
272,260,229312,1,0,0:0:0:0:
268,288,229391,1,0,0:0:0:0:
264,316,229470,1,0,0:0:0:0:
419,312,229628,2,0,B|452:252|452:252|424:208|440:164,1,150,8|0,0:0|0:0,0:0:0:0:
448,128,229944,6,0,L|320:144,1,100,0|0,0:0|0:0,0:0:0:0:
195,308,230259,2,0,P|177:269|180:211,1,100,8|0,0:0|0:0,0:0:0:0:
124,69,230575,1,0,0:0:0:0:
116,103,230654,1,0,0:0:0:0:
109,137,230733,1,0,0:0:0:0:
296,324,230891,1,8,0:0:0:0:
292,80,231049,1,0,0:0:0:0:
292,80,231128,1,0,0:0:0:0:
292,80,231207,5,4,0:0:0:0:
296,324,231365,1,0,0:0:0:0:
472,216,231522,2,0,B|409:141|409:141|356:154,1,150,8|0,0:0|0:0,0:0:0:0:
280,184,231838,2,0,L|207:204,1,50,0|0,0:0|0:0,0:0:0:0:
152,224,231996,1,0,0:0:0:0:
67,348,232154,1,8,0:0:0:0:
152,224,232312,6,0,B|159:114|112:56|112:56|56:64,1,225.000008583069,4|0,0:0|0:0,0:0:0:0:
72,148,232628,2,0,L|221:136,1,150.000005722046,0|8,0:0|0:0,0:0:0:0:
416,316,232944,2,0,B|408:120|408:120|431:137,1,225.000008583069,4|0,0:0|0:0,0:0:0:0:
488,212,233259,2,0,B|396:212|396:212|338:208,1,150.000005722046,0|8,0:0|0:0,0:0:0:0:
264,40,233575,6,0,L|256:288,1,239.999992675781,4|0,0:0|0:0,0:0:0:0:
384,220,234049,1,8,0:0:0:0:
212,180,234207,1,0,0:0:0:0:
184,176,234286,1,0,0:0:0:0:
156,172,234365,1,0,0:0:0:0:
128,168,234444,1,0,0:0:0:0:
100,164,234522,1,0,0:0:0:0:
308,66,234680,1,8,0:0:0:0:
384,220,234838,1,0,0:0:0:0:
384,220,234917,1,0,0:0:0:0:
384,220,234996,6,0,L|336:320,1,100,0|0,0:0|0:0,0:0:0:0:
236,184,235312,1,8,0:0:0:0:
344,20,235470,1,0,0:0:0:0:
360,40,235549,1,0,0:0:0:0:
376,60,235628,1,0,0:0:0:0:
392,80,235707,1,0,0:0:0:0:
408,100,235786,1,0,0:0:0:0:
447,98,235865,1,0,0:0:0:0:
486,93,235944,1,8,0:0:0:0:
448,272,236101,1,8,0:0:0:0:
448,272,236180,1,0,0:0:0:0:
448,272,236259,6,0,P|357:297|304:219,1,200,4|8,0:0|0:0,0:0:0:0:
132,108,236733,1,0,0:0:0:0:
136,215,236891,1,0,0:0:0:0:
136,215,236969,1,0,0:0:0:0:
136,214,237048,2,0,P|183:201|220:168,1,100,0|8,0:0|0:0,0:0:0:0:
44,113,237365,2,0,L|47:173,1,50
16,247,237522,6,0,P|104:244|144:272,1,100,0|0,0:0|0:0,0:0:0:0:
64,336,237838,1,8,0:0:0:0:
210,202,237996,1,0,0:0:0:0:
244,196,238075,1,0,0:0:0:0:
280,200,238154,1,0,0:0:0:0:
311,215,238233,1,0,0:0:0:0:
337,237,238312,1,0,0:0:0:0:
212,320,238470,1,8,0:0:0:0:
92,152,238628,1,0,0:0:0:0:
92,152,238707,1,0,0:0:0:0:
92,151,238786,6,0,P|121:206|158:217,1,100,0|0,0:0|0:0,0:0:0:0:
26,312,239101,1,8,0:0:0:0:
212,320,239259,1,0,0:0:0:0:
235,300,239338,1,0,0:0:0:0:
252,275,239417,1,0,0:0:0:0:
261,246,239496,1,0,0:0:0:0:
263,216,239575,1,0,0:0:0:0:
426,282,239733,1,8,0:0:0:0:
452,104,239891,1,0,0:0:0:0:
452,104,239970,1,0,0:0:0:0:
452,104,240049,6,0,L|473:216,1,100,0|0,0:0|0:0,0:0:0:0:
328,272,240365,2,0,P|344:226|382:194,1,100,8|0,0:0|0:0,0:0:0:0:
219,150,240680,1,0,0:0:0:0:
226,179,240759,1,0,0:0:0:0:
235,207,240838,1,0,0:0:0:0:
426,282,240996,1,8,0:0:0:0:
110,246,241154,1,0,0:0:0:0:
102,269,241233,1,0,0:0:0:0:
93,291,241312,6,0,L|205:275,1,100,4|0,0:0|0:0,0:0:0:0:
140,48,241628,1,8,0:0:0:0:
277,32,241786,1,0,0:0:0:0:
276,57,241865,1,0,0:0:0:0:
277,81,241944,1,0,0:0:0:0:
277,106,242022,1,0,0:0:0:0:
278,130,242101,1,0,0:0:0:0:
140,48,242259,1,8,0:0:0:0:
140,48,242417,1,0,0:0:0:0:
246,222,242575,5,0,0:0:0:0:
71,152,242733,1,0,0:0:0:0:
37,162,242812,1,0,0:0:0:0:
3,173,242891,1,8,0:0:0:0:
140,48,243049,1,0,0:0:0:0:
164,44,243128,1,0,0:0:0:0:
188,40,243207,1,0,0:0:0:0:
212,36,243286,1,0,0:0:0:0:
260,32,243365,5,0,0:0:0:0:
308,40,243444,1,0,0:0:0:0:
348,68,243522,1,8,0:0:0:0:
376,108,243601,1,0,0:0:0:0:
380,168,243680,1,0,0:0:0:0:
368,228,243759,1,0,0:0:0:0:
324,268,243838,5,4,0:0:0:0:
256,192,243917,12,8,245732,0:0:0:0:
256,192,246365,12,2,247312,2:0:0:0:
256,192,261522,6,0,P|217:213|157:208,1,100,4|0,0:0|0:0,0:0:0:0:
340,136,261838,2,0,P|379:115|439:120,1,100,8|0,0:0|0:0,0:0:0:0:
464,160,262075,1,0,0:0:0:0:
472,208,262154,1,8,0:0:0:0:
464,256,262233,1,0,0:0:0:0:
432,292,262312,1,0,0:0:0:0:
340,136,262470,1,0,0:0:0:0:
212,52,262628,6,0,B|121:87|121:87|83:134|103:182,1,200,8|0,0:0|0:0,0:0:0:0:
327,327,263101,2,0,P|346:281|344:232,1,100,8|0,0:0|0:0,0:0:0:0:
217,216,263417,1,0,0:0:0:0:
189,222,263496,1,0,0:0:0:0:
162,228,263575,1,0,0:0:0:0:
356,108,263733,2,0,P|405:136|425:188,1,100,8|0,0:0|0:0,0:0:0:0:
400,292,263970,1,0,0:0:0:0:
400,292,264049,6,0,L|307:329,1,100,0|0,0:0|0:0,0:0:0:0:
124,172,264365,2,0,L|224:172,1,100,8|0,0:0|0:0,0:0:0:0:
286,191,264601,1,0,0:0:0:0:
290,217,264680,1,8,0:0:0:0:
293,241,264759,1,0,0:0:0:0:
297,265,264838,1,0,0:0:0:0:
124,172,264996,1,0,0:0:0:0:
276,32,265154,6,0,L|466:94,1,200,8|0,0:0|0:0,0:0:0:0:
440,312,265628,2,0,P|390:317|346:295,1,100,8|0,0:0|0:0,0:0:0:0:
320,240,265865,1,0,0:0:0:0:
332,180,265944,1,0,0:0:0:0:
376,140,266022,1,0,0:0:0:0:
436,128,266101,6,2,B|416:88|368:88|340:104|328:132|328:132|285:82|233:84|233:84|206:117|174:93,1,300.000011444092,2|0,1:0|0:0,0:0:0:0:
184,99,266496,1,0,0:0:0:0:
184,99,266575,6,0,L|190:199,1,100,4|0,0:0|0:0,0:0:0:0:
94,311,266891,2,0,L|101:211,1,100,8|0,0:0|0:0,0:0:0:0:
264,56,267207,1,8,0:0:0:0:
264,96,267286,1,0,0:0:0:0:
264,136,267365,1,0,0:0:0:0:
264,328,267522,1,0,0:0:0:0:
264,328,267680,6,0,B|228:272|228:272|235:239,1,100,8|0,0:0|0:0,0:0:0:0:
386,101,267996,1,0,0:0:0:0:
263,56,268154,2,0,L|164:68,1,100,8|0,0:0|0:0,0:0:0:0:
144,244,268470,1,0,0:0:0:0:
204,236,268549,1,0,0:0:0:0:
264,228,268628,1,0,0:0:0:0:
376,348,268786,2,0,L|368:224,1,100,8|0,0:0|0:0,0:0:0:0:
364,208,269022,1,0,0:0:0:0:
360,168,269101,6,0,B|385:123|385:123|432:133,1,100,0|0,0:0|0:0,0:0:0:0:
376,348,269417,1,8,0:0:0:0:
248,156,269575,1,0,0:0:0:0:
368,268,269733,1,0,0:0:0:0:
372,308,269812,1,0,0:0:0:0:
376,348,269891,1,8,0:0:0:0:
481,153,270048,1,0,0:0:0:0:
352,112,270207,6,0,L|171:198,1,200,8|0,0:0|0:0,0:0:0:0:
100,112,270680,2,0,B|145:84|145:84|206:91,1,100,8|0,0:0|0:0,0:0:0:0:
260,160,270996,1,8,0:0:0:0:
248,200,271075,1,0,0:0:0:0:
236,240,271154,1,0,0:0:0:0:
224,280,271233,1,0,0:0:0:0:
212,320,271312,1,8,0:0:0:0:
25,244,271470,6,0,B|77:228|77:228|122:234,1,100,4|0,1:0|0:0,0:0:0:0:
256,344,271943,6,0,B|256:304|256:304|252:300|252:300|260:296|260:296|256:292|256:292|256:264|256:264|252:260|252:260|260:256|260:256|256:252|256:252|256:220|256:220|252:216|252:216|260:212|260:212|256:208|256:208|256:192|256:192|288:172|324:192|324:192|376:172|424:192|424:192|412:108|348:48|256:32|256:32|164:48|100:108|88:192|88:192|140:172|188:192,1,950,4|0,0:0|0:0,0:0:0:0:
