osu file format v14

[General]
AudioFilename: mp3.mp3
AudioLeadIn: 0
PreviewTime: 179417
Countdown: 0
SampleSet: Normal
StackLeniency: 0.5
Mode: 0
LetterboxInBreaks: 0
WidescreenStoryboard: 0

[Editor]
Bookmarks: 280469
DistanceSpacing: 1
BeatDivisor: 2
GridSize: 4
TimelineZoom: 2.999999

[Metadata]
Title:umbrella
TitleUnicode:umbrella
Artist:otetsu feat.Megurine Luka
ArtistUnicode:otetsu feat.巡音ルカ
Creator:ZZHBOY
Version:Easy
Source:
Tags:vocaloid awaken yf_bmp regraz EXIT TUNES PRESENTS THE BEST OF otetsu Irie Miyuki
BeatmapID:446521
BeatmapSetID:186340

[Difficulty]
HPDrainRate:2
CircleSize:3
OverallDifficulty:3
ApproachRate:3
SliderMultiplier:0.799999999999999
SliderTickRate:1

[Events]
//Background and Video events
0,0,"bg.jpg",0,0
//Break Periods
2,103197,107873
2,142039,156662
2,190038,193451
//Storyboard Layer 0 (Background)
//Storyboard Layer 1 (Fail)
//Storyboard Layer 2 (Pass)
//Storyboard Layer 3 (Foreground)
//Storyboard Sound Samples

[TimingPoints]
1945,315.789473684211,4,2,1,40,1,0
1945,-133.333333333333,4,2,1,40,0,0
20576,-100,4,1,1,60,0,0
82786,-100,4,1,1,55,0,0
102997,-100,4,2,1,50,0,0
110576,-100,4,1,1,55,0,0
111839,-100,4,1,1,60,0,0
113102,-100,4,1,1,70,0,1
133313,315.789473684211,3,1,1,55,1,0
138049,315.789473684211,4,1,1,55,1,0
179733,-100,4,1,1,70,0,1
189838,-100,4,1,1,50,0,0
194891,-100,4,1,1,60,0,0
199943,-100,4,1,1,70,0,1
220155,315.789473684211,3,1,1,55,1,0
224891,315.789473684211,4,1,1,55,1,0
226154,-100,4,1,1,70,0,1
243838,-100,4,1,1,50,0,0
271944,-100,4,1,1,40,0,0
272101,-100,4,1,1,20,0,0
273128,-100,4,2,0,5,0,0

[Colours]
Combo1 : 228,138,255
Combo2 : 211,211,211

[HitObjects]
176,248,1945,6,0,P|256:288|336:248,1,180.000006866455,2|0,0:0|0:0,0:0:0:0:
352,168,3208,2,0,B|368:112|368:112|415:81,2,90.0000034332276,2|0|0,0:0|0:0|0:0,0:0:0:0:
272,192,4471,6,0,L|80:152,1,180.000006866455,2|0,0:0|0:0,0:0:0:0:
40,216,5734,2,0,P|23:257|48:320,2,90.0000034332276,2|0|0,0:0|0:0|0:0,0:0:0:0:
16,136,6997,6,0,B|52:95|40:40|40:40|76:22|120:32,1,180.000006866455,2|0,0:0|0:0,0:0:0:0:
200,48,8260,2,0,L|304:48,2,90.0000034332276,2|0|0,0:0|0:0|0:0,0:0:0:0:
142,108,9523,6,0,P|181:188|258:233,1,180.000006866455,2|0,0:0|0:0,0:0:0:0:
327,281,10787,2,0,P|324:330|304:371,2,90.0000034332276,2|0|0,0:0|0:0|0:0,0:0:0:0:
327,196,12050,6,0,B|368:137|368:137|432:120|440:56,1,180.000006866455,2|0,0:0|0:0,0:0:0:0:
352,48,13313,2,0,L|152:64,1,180.000006866455,2|0,0:0|0:0,0:0:0:0:
120,128,14576,6,0,P|126:187|212:280,1,180.000006866455,2|0,0:0|0:0,0:0:0:0:
286,270,15839,2,0,P|337:278|391:315,2,90.0000034332276,2|0|0,0:0|0:0|0:0,0:0:0:0:
243,197,17102,6,0,B|276:84|276:84|310:66|361:68,1,180.000006866455,2|0,0:0|0:0,0:0:0:0:
419,76,18366,2,0,P|472:72|507:53,2,90.0000034332276,2|0|0,0:0|0:0|0:0,0:0:0:0:
368,143,19629,6,0,P|417:229|390:316,1,180.000006866455,2|0,0:0|0:0,0:0:0:0:
256,192,20892,12,4,22155,0:0:0:0:
176,88,23418,6,0,L|336:88,1,160,0|2,0:0|0:2,0:0:0:0:
400,136,24366,1,8,0:0:0:0:
440,208,24681,6,0,P|440:272|360:344,2,160,2|0|0,0:2|0:0|0:0,0:0:0:0:
359,207,26260,2,0,L|255:247,1,79.9999999999999,8|2,0:0|0:2,0:0:0:0:
205,248,26892,1,8,0:0:0:0:
131,215,27208,6,0,L|74:56,1,160,4|0,0:2|0:0,0:0:0:0:
231,107,28471,2,0,P|292:102|389:47,1,160,0|2,0:0|0:2,0:0:0:0:
458,63,29418,1,8,0:0:0:0:
416,131,29734,6,0,L|425:290,1,160,2|0,0:2|0:0,0:0:0:0:
352,323,30681,1,8,0:0:0:0:
275,346,30997,2,0,P|198:344|150:307,2,120,0|0|8,0:0|0:0|0:0,0:0:0:0:
292,267,32260,6,0,P|241:202|147:178,1,160,4|0,0:0|0:0,0:0:0:0:
107,227,33208,1,8,0:0:0:0:
94,148,33523,2,0,B|72:60|72:60|136:21|245:47,1,240,0|8,0:0|0:0,0:0:0:0:
247,115,34787,6,0,P|301:129|399:96,1,160,2|0,0:2|0:0,0:0:0:0:
475,81,35734,1,8,0:0:0:0:
452,157,36050,2,0,B|445:275|445:275|383:315,1,160,0|2,0:0|0:2,0:0:0:0:
329,295,36997,1,8,0:0:0:0:
249,282,37313,6,0,P|200:294|138:344,2,120,4|2|8,0:2|0:2|0:0,0:0:0:0:
299,220,38576,2,0,P|299:162|277:98,2,120,0|0|8,0:0|0:0|0:0,0:0:0:0:
220,205,39839,6,0,P|128:208|57:153,1,160,2|0,0:2|0:0,0:0:0:0:
38,100,40787,1,8,0:0:0:0:
95,44,41102,2,0,P|187:41|258:96,1,160,0|0,0:0|0:0,0:0:0:0:
280,146,42050,2,0,P|326:161|375:141,1,79.9999999999999,4|4,0:2|0:0,0:0:0:0:
327,76,42681,1,0,0:0:0:0:
200,176,43313,5,0,0:0:0:0:
200,176,43629,2,0,L|53:189,2,120,0|0|0,0:0|0:0|0:0,0:0:0:0:
280,184,44892,2,0,P|296:228|280:288,1,79.9999999999999
448,296,45839,5,0,0:0:0:0:
460,216,46155,2,0,P|416:160|332:116,1,160
260,112,47102,1,0,0:0:0:0:
188,144,47418,6,0,P|136:160|60:144,2,120,0|0|0,0:0|0:0|0:0,0:0:0:0:
260,112,48681,2,0,P|370:115|426:159,1,160
460,202,49629,1,0,0:0:0:0:
382,221,49945,6,0,P|359:282|384:342,2,120,0|0|0,0:0|0:0|0:0,0:0:0:0:
361,143,51208,2,0,P|275:149|208:122,1,160
157,59,52155,1,0,0:0:0:0:
83,90,52471,5,0,0:0:0:0:
74,169,52787,2,0,P|92:237|81:330,1,160
154,360,53734,2,0,P|226:308|389:330,1,240
442,282,54997,6,0,P|464:236|379:73,1,240
320,115,56260,2,0,P|315:187|286:248,2,120,0|0|0,0:0|0:0|0:0,0:0:0:0:
245,85,57523,5,4,0:0:0:0:
245,85,58787,5,0,0:0:0:0:
245,85,60050,6,0,L|390:81,2,120,0|0|0,0:0|1:0|0:0,0:0:0:0:
165,95,61313,2,0,B|169:160|237:180|280:165|280:165|289:218|346:252,1,240
365,303,62576,1,0,0:0:0:0:
283,307,62892,6,0,L|116:306,1,160,0|0,1:0|0:0,0:0:0:0:
55,259,63839,2,0,P|51:220|60:181,1,79.9999999999999,0|0,0:0|1:0,0:0:0:0:
104,114,64471,2,0,P|113:75|108:35,2,79.9999999999999,0|0|0,0:0|1:0|0:0,0:0:0:0:
140,185,65418,6,0,P|191:192|307:155,1,160,0|0,1:0|1:0,0:0:0:0:
324,89,66366,2,0,P|398:62|478:67,1,160,0|0,0:0|0:0,0:0:0:0:
481,147,67313,1,0,1:0:0:0:
459,224,67629,6,0,B|426:312|426:312|272:338,1,240,4|0,0:0|1:0,0:0:0:0:
202,324,68892,2,0,P|137:279|135:121,1,240,0|0,0:0|1:0,0:0:0:0:
177,65,70155,1,0,0:0:0:0:
318,139,70787,6,0,L|318:255,1,79.9999999999999,0|0,0:0|1:0,0:0:0:0:
362,285,71418,2,0,P|415:311|478:308,2,120,0|0|0,0:0|0:0|1:0,0:0:0:0:
282,296,72681,6,0,L|108:320,1,160,4|0,0:0|0:0,0:0:0:0:
50,284,73629,1,0,1:0:0:0:
23,208,73945,2,0,P|48:112|113:61,1,160,0|0,0:0|0:0,0:0:0:0:
168,55,74892,1,0,1:0:0:0:
240,88,75208,6,0,P|325:93|405:49,2,160,0|0|0,0:0|0:0|0:0,0:0:0:0:
120,194,77102,2,0,P|139:252|165:287,1,79.9999999999999,0|0,0:0|1:0,0:0:0:0:
220,304,77734,6,0,B|310:314|372:251|372:251|396:291|448:291,1,240,4|0,0:0|1:0,0:0:0:0:
442,210,78997,2,0,P|440:122|393:33,1,160,0|0,0:0|0:0,0:0:0:0:
336,24,79945,1,0,1:0:0:0:
264,58,80260,6,0,P|160:74|72:66,2,160,4|0|4,0:0|0:0|0:0,0:0:0:0:
160,180,82155,2,0,P|165:219|181:255,1,79.9999999999999,0|0,1:0|1:0,0:0:0:0:
246,302,82787,6,0,L|403:240,1,160,4|0,0:0|1:0,0:0:0:0:
439,89,84050,2,0,P|391:41|281:38,1,160,0|0,0:0|1:0,0:0:0:0:
165,113,85313,6,0,P|86:107|28:54,2,160,0|0|0,0:0|1:0|0:0,0:0:0:0:
324,130,87208,2,0,P|338:167|343:206,1,79.9999999999999,0|0,1:0|0:0,0:0:0:0:
318,282,87839,6,0,L|169:341,1,160,4|0,0:0|1:0,0:0:0:0:
90,325,88787,1,0,0:0:0:0:
40,262,89102,2,0,P|38:191|95:93,1,160,0|0,0:0|1:0,0:0:0:0:
236,114,90366,6,0,P|314:103|382:50,1,160,0|0,0:0|1:0,0:0:0:0:
451,23,91313,1,0,0:0:0:0:
441,102,91629,2,0,L|435:262,1,160,0|0,0:0|1:0,0:0:0:0:
302,351,92892,6,0,P|172:350|131:316,1,160,4|0,0:0|1:0,0:0:0:0:
74,195,94155,2,0,L|82:35,1,160,0|0,0:0|1:0,0:0:0:0:
228,99,95418,6,0,B|305:117|305:117|403:106,2,160,0|0|0,0:0|1:0|0:0,0:0:0:0:
150,239,97313,2,0,L|140:343,1,79.9999999999999,0|0,1:0|0:0,0:0:0:0:
215,351,97945,6,0,P|304:337|373:262,1,160,4|0,0:0|1:0,0:0:0:0:
378,134,99208,2,0,P|299:143|237:191,1,160,0|0,0:0|1:0,0:0:0:0:
281,345,100471,5,0,0:0:0:0:
426,278,101102,1,0,1:0:0:0:
426,106,101734,1,0,0:0:0:0:
281,39,102366,6,0,L|192:39,2,79.9999999999999,0|4|4,1:0|0:0|0:0,0:0:0:0:
256,192,109313,12,0,110576,0:0:0:0:
13,229,111839,6,0,B|85:279|188:238|188:238|217:286,1,240,0|0,0:0|0:0,0:0:0:0:
297,285,113102,6,0,B|326:236|326:236|429:277|501:227,1,240,4|8,0:0|0:0,0:0:0:0:
510,146,114366,2,0,B|495:83|450:45|450:45|387:34|327:57,1,240,0|8,0:0|0:0,0:0:0:0:
279,118,115629,6,0,P|204:140|126:126,2,160,0|0|0,0:0|0:0|0:0,0:0:0:0:
406,216,117523,2,0,P|411:255|400:293,2,79.9999999999999,0|8|4,0:0|0:0|0:0,0:0:0:0:
306,90,118787,6,0,L|170:105,1,120,0|4,0:0|0:0,0:0:0:0:
67,210,119892,1,4,0:2:0:0:
211,277,120523,6,0,L|355:260,2,120,8|8|2,0:0|0:0|0:0,0:0:0:0:
142,178,121945,2,0,P|145:118|175:67,2,120,2|2|8,0:2|0:2|0:0,0:0:0:0:
198,235,123208,6,0,L|370:216,2,160,4|0|0,0:0|0:0|0:0,0:0:0:0:
41,271,125102,2,0,P|24:236|21:196,1,79.9999999999999,0|8,0:0|0:0,0:0:0:0:
64,128,125734,6,0,L|256:104,1,160,0|0,0:0|0:0,0:0:0:0:
303,119,126681,1,8,0:0:0:0:
360,176,126997,2,0,P|384:228|344:332,1,160,0|0,0:0|0:0,0:0:0:0:
275,336,127945,1,4,0:2:0:0:
200,305,128260,6,0,L|66:217,2,160,4|0|0,0:0|0:0|0:0,0:0:0:0:
304,180,130155,1,0,0:0:0:0:
240,32,130787,6,0,P|176:68|148:156,1,160,2|0,0:2|0:0,0:0:0:0:
216,292,132050,2,0,B|304:304|304:304|372:280,1,160,2|2,0:2|0:2,0:0:0:0:
428,224,132997,1,0,0:2:0:0:
432,144,133313,5,4,0:0:0:0:
432,144,135208,5,0,0:0:0:0:
432,144,137102,5,0,0:0:0:0:
192,128,138049,6,0,L|206:228,1,79.9999999999999
264,260,138680,2,0,P|324:268|368:248,2,79.9999999999999,0|4|0,1:0|0:0|0:0,0:0:0:0:
256,192,139471,12,0,141839,0:0:0:0:
256,192,158102,12,0,159523,0:0:0:0:
304,136,160785,6,0,P|376:144|460:120,2,160,0|0|0,1:0|0:0|0:0,0:0:0:0:
156,76,162680,2,0,P|140:128|148:168,1,79.9999999999999,0|8,0:0|0:0,0:0:0:0:
176,228,163312,6,0,P|256:260|340:240,2,160,0|2|4,0:0|0:0|0:2,0:0:0:0:
268,96,165207,1,0,0:0:0:0:
412,164,165838,6,0,P|444:244|400:336,1,160,0|0,0:0|0:0,0:0:0:0:
272,360,167101,2,0,L|92:276,1,160,0|2,0:0|0:0,0:0:0:0:
64,144,168365,2,0,P|116:96|236:76,1,160,0|2,0:0|0:0,0:0:0:0:
268,116,169312,1,10,0:0:0:0:
314,182,169628,6,0,P|374:178|426:142,2,120,4|2|8,0:2|0:0|0:0,0:0:0:0:
245,224,170891,2,0,L|192:333,2,120,0|2|8,0:0|0:0|0:0,0:0:0:0:
237,144,172154,6,0,P|152:131|71:189,1,160,0|2,0:0|0:0,0:0:0:0:
71,244,173101,1,8,0:0:0:0:
139,287,173417,2,0,L|394:312,1,240,0|10,0:0|0:0,0:0:0:0:
456,294,174680,6,0,P|476:191|456:104,1,160,6|0,0:2|0:0,0:0:0:0:
356,22,175944,2,0,L|178:49,1,160,0|2,0:0|0:2,0:0:0:0:
127,84,176891,1,8,0:0:0:0:
83,150,177207,6,0,P|91:240|177:294,1,160,2|2,0:0|0:0,0:0:0:0:
220,287,178154,1,8,0:0:0:0:
295,260,178470,6,0,L|470:208,1,160,2|0,0:0|0:0,0:0:0:0:
481,141,179417,1,8,0:0:0:0:
436,74,179733,5,4,0:0:0:0:
278,48,180365,1,0,0:0:0:0:
162,157,180996,2,0,P|237:209|318:202,1,160,0|0,0:0|0:0,0:0:0:0:
370,163,181944,1,8,0:0:0:0:
426,106,182259,6,0,B|471:153|471:153|486:265,1,160,0|0,0:0|0:0,0:0:0:0:
349,335,183522,1,0,0:0:0:0:
189,317,184154,2,0,L|78:277,1,79.9999999999999,0|4,0:0|0:2,0:0:0:0:
53,236,184786,5,4,0:0:0:0:
128,95,185417,2,0,P|183:98|252:147,1,120,0|4,0:0|0:0,0:0:0:0:
273,286,186522,1,4,0:2:0:0:
430,259,187154,6,0,L|468:131,1,120,4|8,0:0|0:0,0:0:0:0:
347,34,188259,1,8,0:0:0:0:
268,48,188575,6,0,P|211:115|209:209,2,160,0|0|4,0:0|0:0|0:0,0:0:0:0:
62,80,194891,5,0,0:0:0:0:
221,72,195522,1,0,0:0:0:0:
373,119,196154,1,0,0:0:0:0:
452,257,196786,1,0,0:0:0:0:
292,250,197417,6,0,L|69:280,2,200,4|8|0,0:2|0:0|0:0,0:0:0:0:
317,173,199312,2,0,P|296:109|264:82,2,79.9999999999999,0|0|4,0:0|0:0|0:0,0:0:0:0:
291,331,200575,5,0,0:0:0:0:
440,273,201207,2,0,P|472:213|492:106,1,160,0|0,0:0|0:0,0:0:0:0:
455,51,202154,1,8,0:0:0:0:
377,29,202470,6,0,L|201:53,1,160,0|0,0:0|0:0,0:0:0:0:
72,112,203734,2,0,P|53:187|96:252,1,160,0|0,0:0|0:0,0:0:0:0:
164,296,204681,1,8,0:0:0:0:
244,300,204997,5,4,0:0:0:0:
400,260,205628,2,0,P|444:188|448:152,1,120,0|4,0:0|0:0,0:0:0:0:
288,148,206733,6,0,L|124:136,1,160,4|4,0:2|0:0,0:0:0:0:
88,332,208154,1,0,0:0:0:0:
248,327,208786,2,0,P|316:288|344:215,1,160,2|0,0:2|0:0,0:0:0:0:
342,135,209733,1,8,0:0:0:0:
288,76,210049,6,0,L|96:80,1,160,4|0,0:0|0:0,0:0:0:0:
12,188,211312,2,0,P|68:236|160:232,1,160,0|0,0:0|0:0,0:0:0:0:
224,200,212259,1,8,0:0:0:0:
284,148,212575,6,0,B|364:140|364:140|438:169,2,160,0|0|0,0:0|0:0|0:0,0:0:0:0:
160,248,214470,1,0,0:0:0:0:
160,248,215101,6,0,P|129:174|136:95,2,160,4|0|0,0:0|0:0|0:0,0:0:0:0:
308,312,216997,2,0,P|372:312|392:304,1,79.9999999999999,0|8,0:0|0:0,0:0:0:0:
436,244,217627,6,0,L|456:72,1,160,2|0,0:2|0:0,0:0:0:0:
300,40,218892,2,0,P|212:56|144:100,1,160,2|2,0:2|0:2,0:0:0:0:
132,168,219839,1,4,0:2:0:0:
136,248,220155,6,0,B|180:322|180:322|264:344|340:276,1,240,4|0,0:0|1:0,0:0:0:0:
416,160,221734,1,8,1:0:0:0:
400,80,222050,6,0,B|280:44|280:44|268:116|164:116,1,240,0|0,0:0|1:0,0:0:0:0:
48,64,223629,1,8,1:0:0:0:
20,140,223945,6,0,L|64:316,1,160,0|0,0:0|1:0,0:0:0:0:
140,288,224892,2,0,P|204:328|292:312,1,160,0|0,0:0|0:0,0:0:0:0:
336,252,225839,1,0,1:0:0:0:
364,176,226155,5,4,0:0:0:0:
252,73,226785,2,0,P|213:141|220:220,2,160,0|0|0,0:0|0:0|0:0,0:0:0:0:
331,55,228364,1,8,0:0:0:0:
388,112,228679,6,0,P|394:190|355:258,2,160,0|0|0,0:0|0:0|0:0,0:0:0:0:
248,36,230575,2,0,P|209:32|170:41,1,79.9999999999999,0|8,0:0|0:0,0:0:0:0:
113,97,231206,6,0,L|125:281,1,160,4|0,0:0|0:0,0:0:0:0:
244,240,232311,2,0,B|324:244|324:244|408:312,2,160,4|4|4,0:0|0:2|0:0,0:0:0:0:
64,328,234364,1,0,0:0:0:0:
64,328,234995,6,0,P|56:188|68:136,1,160,2|0,0:2|0:0,0:0:0:0:
89,95,235943,2,0,L|169:27,1,79.9999999999999,8|4,0:0|0:0,0:0:0:0:
308,28,236890,6,0,P|385:45|456:104,2,160,0|0|0,0:0|0:0|0:0,0:0:0:0:
230,48,238469,1,8,0:0:0:0:
176,108,238785,6,0,L|196:284,1,160,0|0,0:0|0:0,0:0:0:0:
348,312,240048,2,0,P|404:300|488:228,1,160,0|0,0:0|0:0,0:0:0:0:
495,157,240995,1,8,0:0:0:0:
460,84,241311,6,0,L|288:76,1,160,4|0,0:2|0:0,0:0:0:0:
221,91,242258,1,8,0:0:0:0:
164,148,242574,2,0,P|136:232|160:320,1,160,0|8,0:0|0:0,0:0:0:0:
226,321,243522,1,0,0:0:0:0:
298,286,243838,6,0,P|366:258|468:306,1,160
435,122,245101,2,0,P|361:150|287:125,1,160
209,107,246048,1,0,0:0:0:0:
231,183,246364,6,0,P|188:263|125:284,1,160
128,364,247312,2,0,L|220:360,1,79.9999999999999
348,288,248259,2,0,P|412:296|444:304,1,79.9999999999999
456,224,248891,5,4,0:0:0:0:
420,60,249522,2,0,P|344:48|284:56,1,120,0|4,0:0|0:0,0:0:0:0:
212,184,250627,2,0,P|156:200|104:200,1,79.9999999999999,4|0,0:0|0:0,0:0:0:0:
112,280,251259,6,0,P|176:296|260:328,1,120,4|0,0:0|0:0,0:0:0:0:
304,300,252048,1,0,0:0:0:0:
424,192,252680,6,0,P|424:128|412:96,1,79.9999999999999
344,84,253312,2,0,L|264:84,1,79.9999999999999
188,60,253943,5,4,0:0:0:0:
92,188,254575,1,0,0:0:0:0:
188,316,255206,2,0,P|256:316|332:248,1,160
336,180,256154,1,0,0:0:0:0:
300,108,256469,6,0,L|152:128,2,120
380,112,257733,1,0,0:0:0:0:
416,268,258364,2,0,L|336:312,1,79.9999999999999
268,324,258996,6,0,P|204:320|136:232,1,160,4|0,0:0|0:0,0:0:0:0:
132,176,259943,1,0,0:0:0:0:
256,192,260259,12,0,261522,0:0:0:0:
412,248,262154,6,0,P|334:262|260:234,1,160,4|0,0:2|0:0,0:0:0:0:
208,88,263417,2,0,P|136:112|116:136,1,79.9999999999999,0|0,0:0|1:0,0:0:0:0:
104,188,264048,6,0,L|136:360,2,160,0|0|0,0:0|0:0|0:0,0:0:0:0:
120,28,265943,2,0,P|147:13|224:24,2,79.9999999999999,0|0|4,1:0|0:0|0:0,0:0:0:0:
35,164,267206,6,0,B|47:222|47:222|80:272,2,120,0|0|0,0:0|0:0|1:0,0:0:0:0:
96,108,268469,2,0,L|276:144,1,160,0|0,0:0|0:0,0:0:0:0:
320,184,269416,1,0,1:0:0:0:
400,200,269732,6,0,B|460:192|460:192|506:154,2,120,0|0|0,0:0|0:0|1:0,0:0:0:0:
320,184,270995,1,0,3:0:0:0:
251,143,271311,2,0,B|173:135|173:135|99:164,1,160,0|4,3:0|0:2,0:0:0:0:
256,192,272100,12,0,277943,2:2:0:0:
