osu file format v9

[General]
AudioFilename: carnival.mp3
AudioLeadIn: 2500
PreviewTime: 67893
Countdown: 0
SampleSet: Normal
StackLeniency: 0.7
Mode: 1
LetterboxInBreaks: 0

[Editor]
DistanceSpacing: 0.8
BeatDivisor: 3
GridSize: 8

[Metadata]
Title:Carnival
Artist:otetsu feat. Touyu
Creator:lepidopodus
Version:Oni
Source:
Tags:taiko SDVX Sound Voltex Booth

[Difficulty]
HPDrainRate:6
CircleSize:5
OverallDifficulty:7
ApproachRate:5
SliderMultiplier:1.4
SliderTickRate:1

[Events]
//Background and Video events
0,0,"134768.jpg"
//Break Periods
//Storyboard Layer 0 (Background)
//Storyboard Layer 1 (Fail)
//Storyboard Layer 2 (Pass)
//Storyboard Layer 3 (Foreground)
//Storyboard Sound Samples
//Background Colour Transformations
3,100,163,162,255

[TimingPoints]
572,236.220472440945,4,1,0,30,1,0
572,-200,4,1,0,30,0,0
3997,-200,4,1,0,45,0,0
11792,-100,4,1,0,70,0,0
26999,-100,4,1,0,40,0,0
29804,-100,4,1,0,50,0,0
30778,-100,4,1,0,60,0,0
34351,236.220472440945,4,1,0,60,1,0
41673,236.220472440945,4,1,0,60,1,0
45373,-100,4,1,0,70,0,0
60570,-100,4,1,0,60,0,0
64350,-100,4,1,0,65,0,0
68129,-100,4,1,0,75,0,1
98365,-100,4,1,0,40,0,0

[HitObjects]
280,200,572,1,0
384,168,808,1,8
448,176,1044,1,0
384,168,1280,1,8
120,144,1516,1,0
432,144,1753,1,8
432,144,1871,1,8
448,176,1989,1,0
384,168,2225,1,8
232,136,2461,1,0
384,168,2697,1,8
448,176,2934,1,0
448,176,3170,1,8
448,176,3406,1,0
448,176,3642,1,8
448,176,3760,1,8
440,216,3879,1,0
240,152,4351,5,0
416,200,4587,1,8
440,216,4705,1,8
448,176,4823,1,0
440,216,5060,1,8
392,144,5296,1,0
448,176,5532,1,8
384,216,5768,1,0
416,200,6005,1,8
352,296,6123,1,8
440,216,6241,1,0
416,248,6477,1,0
448,176,6713,1,8
384,216,6949,1,8
256,176,7186,1,0
416,200,7422,1,8
384,216,7658,1,0
384,176,7894,1,8
384,176,8012,1,8
424,112,8131,5,0
456,168,8367,1,8
416,232,8485,1,8
456,168,8603,1,0
416,200,8839,1,8
416,200,9075,1,0
416,200,9312,1,0
416,200,9548,1,8
400,264,9784,1,0
176,192,9902,1,0
368,96,10020,1,8
384,176,10257,1,8
416,200,10375,1,8
416,200,10493,1,0
416,200,10729,1,8
240,240,10965,1,0
416,200,11320,1,8
304,192,11438,1,0
368,224,11674,1,8
228,95,11910,5,0
335,141,12264,1,8
372,180,12383,1,0
416,117,12619,1,8
396,167,12776,1,8
405,291,12855,1,0
400,222,13012,1,0
437,185,13091,1,8
396,167,13327,1,0
399,137,13564,1,8
399,137,13721,1,8
466,270,13800,1,0
304,216,14036,1,0
437,185,14154,1,8
400,222,14272,1,0
396,167,14509,1,8
396,167,14666,1,8
437,185,14745,1,0
437,185,14902,1,0
437,185,14981,1,8
400,222,15138,1,8
437,185,15217,1,0
352,200,15453,1,12
228,95,15690,5,0
335,141,16044,1,8
372,180,16163,1,0
416,117,16399,1,8
396,167,16556,1,8
405,291,16635,1,0
400,222,16792,1,0
437,185,16871,1,8
395,248,17107,1,0
399,137,17344,1,8
399,137,17501,1,8
466,270,17580,1,0
304,216,17816,1,0
437,185,17934,1,8
400,222,18052,1,0
396,167,18289,1,8
396,167,18446,1,8
437,185,18525,1,0
437,185,18682,1,0
437,185,18761,1,0
400,222,18918,1,8
437,185,18997,1,0
352,200,19233,1,12
228,95,19469,5,0
335,141,19823,1,8
372,180,19942,1,0
416,117,20178,1,8
396,167,20335,1,8
405,291,20414,1,0
400,222,20571,1,0
437,185,20650,1,8
396,167,20808,1,8
395,248,20886,1,0
399,137,21123,1,8
399,137,21280,1,8
466,270,21359,1,0
304,216,21595,1,0
437,185,21713,1,8
400,222,21831,1,0
396,167,22068,1,8
396,167,22225,1,8
437,185,22304,1,0
437,185,22461,1,0
437,185,22540,1,8
400,222,22697,1,8
437,185,22776,1,0
352,200,23012,1,12
437,185,23170,1,8
228,95,23249,5,0
335,141,23603,1,8
372,180,23722,1,0
416,117,23958,1,8
396,167,24115,1,8
405,291,24194,1,0
400,222,24351,1,0
437,185,24430,1,8
396,167,24588,1,8
395,248,24666,1,0
399,137,24903,1,8
399,137,25060,1,8
466,270,25139,1,0
304,216,25375,1,0
437,185,25493,1,8
400,222,25611,1,0
396,167,25848,1,8
396,167,26005,1,8
437,185,26084,1,0
437,185,26241,1,0
437,185,26320,1,8
400,222,26477,1,8
437,185,26556,1,0
392,248,26634,1,0
288,144,26713,1,0
396,167,26792,1,8
168,106,27028,5,0
216,192,27186,1,0
432,208,27264,1,8
368,176,27501,1,0
368,176,27658,1,0
432,208,27737,1,8
352,264,27973,1,0
352,264,28131,1,0
432,208,28209,1,8
360,224,28446,1,0
408,176,28603,1,0
368,176,28682,1,8
432,208,28918,1,0
432,208,29075,1,0
432,208,29154,1,8
456,192,29390,1,0
456,192,29548,1,0
432,208,29627,1,8
144,144,29863,1,0
208,160,30020,1,0
408,176,30099,1,8
408,176,30257,1,8
432,208,30335,1,0
432,208,30414,1,0
432,208,30493,1,8
456,192,30572,1,0
456,192,30729,1,8
224,256,30808,5,0
432,208,31044,1,8
408,176,31280,1,0
416,232,31516,1,8
352,296,31753,1,0
408,176,31910,1,8
456,240,31989,1,0
456,192,32146,1,8
456,192,32225,1,0
456,192,32383,1,0
432,208,32461,1,8
360,200,32619,1,8
416,232,32697,1,0
448,160,32934,1,8
456,192,33170,1,0
384,216,33406,1,8
416,232,33564,1,8
432,208,33642,1,0
432,208,33800,1,0
432,208,33879,1,8
344,240,34115,1,8
344,240,34272,1,8
424,320,34351,5,0
424,168,34587,1,8
432,208,34823,1,0
384,208,35059,1,8
464,176,35295,1,0
392,136,35532,1,8
392,168,35689,1,8
432,208,35768,1,0
352,328,35925,1,0
456,224,36004,1,8
424,168,36162,1,0
440,320,36240,1,8
272,208,36476,1,8
400,240,36713,1,0
400,240,36949,1,0
424,168,37106,1,8
440,248,37185,1,0
456,168,37343,1,8
456,224,37421,1,0
480,184,37579,1,8
456,224,37658,1,0
456,224,37736,1,0
480,184,37815,1,0
400,200,37894,1,8
272,208,38051,1,0
224,256,38130,5,0
432,208,38366,1,8
408,176,38602,1,0
416,232,38838,1,8
352,296,39075,1,0
408,176,39232,1,8
456,240,39311,1,0
456,192,39468,1,8
456,192,39547,1,0
344,168,39784,1,12
376,192,40020,1,4
408,176,40256,1,12
416,216,40492,1,4
360,216,40728,1,12
344,256,40965,1,4
456,192,41122,1,0
440,184,41201,1,8
416,216,41358,1,8
328,176,41437,1,8
400,288,41595,1,8
432,320,41673,5,0
408,144,41909,1,8
400,208,42145,1,0
440,184,42381,1,8
352,112,42617,1,0
440,184,42854,1,8
384,256,43011,1,0
424,272,43090,1,0
312,256,43247,1,0
400,208,43326,1,8
312,176,43484,1,0
440,184,43562,1,8
440,184,43798,1,8
440,184,44035,1,0
384,256,44271,1,0
448,152,44428,1,0
440,184,44507,1,8
440,184,44665,1,0
440,216,44743,1,0
448,152,44901,1,8
480,208,44980,1,0
384,256,45216,1,12
248,240,45452,5,0
448,152,45688,1,8
400,184,45806,1,0
400,184,45924,1,0
440,112,46161,1,8
416,128,46318,1,8
464,264,46397,1,0
400,184,46633,1,8
448,192,46791,1,8
448,192,46869,1,0
384,240,47027,1,0
448,224,47106,1,8
160,168,47342,1,0
376,200,47578,1,8
376,200,47696,1,8
416,224,47814,1,0
296,280,48050,1,8
328,120,48208,1,0
328,120,48287,1,0
408,312,48444,1,0
376,200,48523,1,8
376,200,48759,1,8
416,224,48995,1,0
152,192,49153,1,0
112,184,49232,5,0
440,144,49468,1,8
464,208,49586,1,0
320,248,49704,1,0
280,184,49940,1,8
304,136,50098,1,0
448,232,50176,1,8
304,136,50413,1,0
376,312,50570,1,0
440,144,50649,1,8
440,192,50885,1,0
200,216,51121,1,4
296,200,51476,1,0
408,240,51594,1,8
440,192,51830,1,0
440,192,51987,1,8
456,224,52066,1,0
376,160,52224,1,0
432,152,52302,1,8
392,192,52539,1,8
392,192,52617,1,8
392,192,52696,1,8
392,192,52775,1,0
248,240,53011,5,0
448,152,53247,1,8
400,184,53365,1,0
400,184,53483,1,0
344,344,53602,1,0
440,112,53720,1,8
416,128,53877,1,8
464,264,53956,1,0
400,184,54192,1,8
392,192,54350,1,8
448,192,54428,1,0
432,248,54586,1,0
448,224,54665,1,8
160,168,54901,1,0
376,200,55137,1,8
376,200,55255,1,8
416,224,55373,1,0
376,336,55491,1,0
296,280,55609,1,8
328,120,55767,1,0
328,120,55846,1,0
432,248,56003,1,0
376,200,56082,1,8
376,200,56318,1,8
416,224,56554,1,0
216,216,56712,1,0
160,104,56791,5,0
456,152,57027,1,8
352,184,57145,1,0
376,200,57263,1,0
376,200,57381,1,0
456,184,57499,1,8
440,128,57657,1,0
376,200,57735,1,8
368,304,57972,1,8
416,224,58090,1,0
312,264,58326,1,8
416,224,58562,1,8
256,112,58680,1,4
376,112,58838,1,0
376,200,58917,1,8
416,224,59153,1,8
416,224,59389,1,0
416,224,59547,1,0
376,200,59625,1,8
376,200,59861,1,8
336,216,60098,1,0
368,144,60334,1,8
440,160,60491,1,0
464,120,60570,5,0
416,224,60924,1,8
456,240,61043,1,0
280,176,61279,1,0
336,168,61436,1,0
336,168,61515,1,0
440,160,61869,1,8
416,224,61987,1,0
320,120,62224,1,8
392,288,62381,1,0
392,288,62460,1,0
416,224,62814,1,8
456,240,62933,1,0
280,176,63169,1,0
336,168,63326,1,0
336,168,63405,1,0
440,160,63759,1,8
416,224,63877,1,0
320,120,64114,1,8
392,288,64271,1,0
392,288,64350,5,0
368,208,64586,1,8
368,208,64704,1,8
416,224,64822,1,0
440,160,65058,1,0
208,176,65216,1,0
416,224,65295,1,0
440,160,65531,1,8
440,160,65649,1,8
416,224,65767,1,0
416,224,66003,1,8
352,320,66161,1,0
408,256,66239,1,0
312,208,66476,1,0
384,272,66712,1,0
264,208,66948,1,0
432,176,67184,1,8
432,176,67302,1,8
432,176,67421,1,8
432,176,67539,1,8
456,208,67657,1,0
400,176,67893,1,8
256,136,68129,5,0
448,152,68365,1,8
448,152,68484,1,8
400,176,68602,1,0
400,176,68720,1,0
360,232,68838,1,12
432,176,69074,1,4
400,176,69310,1,12
304,248,69547,1,4
400,176,69783,1,8
432,232,69940,1,8
432,264,70019,1,0
400,136,70255,1,0
432,176,70373,1,8
448,200,70491,1,0
240,168,70649,1,0
432,176,70728,1,0
400,136,70885,1,8
384,240,70964,1,0
344,280,71121,1,0
432,232,71200,1,8
432,176,71358,1,8
432,232,71436,1,0
432,232,71515,1,0
432,232,71594,1,0
432,232,71673,1,8
416,288,71830,1,8
256,160,71909,5,0
432,176,72145,1,8
432,176,72263,1,8
432,176,72381,1,0
216,200,72499,1,0
432,176,72617,1,12
432,176,72854,1,4
376,184,73090,1,4
344,248,73326,1,12
256,128,73562,1,0
440,144,73720,1,8
440,208,73798,1,0
432,176,74035,1,8
432,176,74153,1,0
432,176,74271,1,8
288,200,74428,1,8
432,176,74507,1,0
384,216,74665,1,8
384,216,74743,1,0
384,216,74901,1,0
384,280,74980,1,0
448,240,75137,1,8
440,208,75216,1,0
440,208,75295,1,0
440,208,75373,1,0
440,208,75452,1,0
416,128,75610,1,8
256,136,75688,5,0
448,152,75924,1,8
448,152,76043,1,8
400,176,76161,1,0
344,320,76279,1,0
360,232,76397,1,12
432,176,76633,1,4
400,176,76869,1,12
304,248,77106,1,4
400,176,77342,1,8
432,232,77499,1,8
432,264,77578,1,0
400,136,77814,1,0
432,176,77932,1,8
448,200,78050,1,0
384,240,78208,1,0
432,176,78287,1,0
400,136,78444,1,8
384,240,78523,1,0
344,280,78680,1,0
432,232,78759,1,8
432,176,78917,1,8
432,232,78995,1,0
432,232,79074,1,0
432,232,79153,1,8
432,232,79232,1,8
416,288,79389,1,8
256,160,79468,5,0
432,176,79704,1,8
432,176,79822,1,8
432,176,79940,1,0
432,176,80058,1,0
432,176,80176,1,12
432,176,80413,1,4
376,184,80649,1,4
344,248,80885,1,12
256,128,81121,1,0
440,144,81279,1,8
440,208,81357,1,0
432,176,81594,1,8
432,176,81712,1,0
432,176,81830,1,8
376,184,81987,1,8
432,176,82066,1,0
384,216,82224,1,0
384,216,82302,1,0
216,208,82381,1,0
384,216,82460,1,0
384,280,82539,1,8
448,240,82696,1,8
440,208,82775,1,0
384,184,83011,1,8
432,176,83169,1,8
144,176,83247,5,0
432,176,83484,1,8
432,176,83602,1,8
432,176,83720,1,0
432,176,83956,1,8
432,176,84113,1,8
448,240,84192,1,0
384,184,84428,1,8
408,160,84547,1,8
456,200,84665,1,0
376,112,84901,1,8
432,176,85058,1,8
448,240,85137,1,0
432,176,85373,1,8
432,176,85491,1,8
432,176,85609,1,0
432,176,85845,1,8
432,176,86002,1,8
448,240,86081,1,0
384,184,86317,1,8
408,160,86436,1,8
456,200,86554,1,0
376,112,86790,1,12
448,240,86948,1,8
448,240,87026,5,0
360,160,87263,1,8
360,160,87381,1,8
368,208,87499,1,0
368,208,87735,1,8
424,136,87893,1,8
424,208,87972,1,0
432,176,88208,1,8
432,176,88326,1,8
424,208,88444,1,0
424,136,88680,1,0
424,136,88838,1,8
424,208,88917,1,0
368,96,89153,1,8
424,136,89271,1,0
432,176,89389,1,8
416,272,89625,1,0
432,176,89783,1,8
432,240,89861,1,0
304,256,90019,1,0
392,200,90098,1,0
392,200,90255,1,8
392,200,90334,1,0
424,208,90570,1,12
384,296,90728,1,8
312,48,90806,5,0
336,112,90964,1,0
432,176,91043,1,8
432,176,91279,1,8
424,208,91515,1,0
480,184,91673,1,8
424,208,91751,1,0
432,176,91909,1,0
432,176,91987,1,8
400,168,92224,1,8
400,168,92460,1,0
432,176,92617,1,8
432,176,92696,1,0
400,240,92854,1,0
432,176,92932,1,8
432,176,93169,1,8
432,176,93405,1,0
464,176,93562,1,8
432,176,93641,1,0
400,168,93798,1,0
432,176,93877,1,8
400,168,94113,1,0
336,192,94350,1,12
376,296,94507,1,8
320,112,94586,5,0
464,176,94743,1,0
464,176,94822,1,8
464,176,95058,1,8
432,176,95295,1,0
432,176,95452,1,8
464,176,95531,1,0
464,176,95688,1,0
448,200,95767,1,8
432,176,96003,1,8
416,224,96239,1,0
464,176,96397,1,8
416,224,96476,1,0
328,192,96633,1,0
432,176,96712,1,8
288,272,96869,1,0
384,144,96948,1,8
416,224,97027,1,8
416,224,97106,1,8
400,184,97184,1,0
448,200,97342,1,8
416,224,97421,1,0
432,176,97578,1,0
384,216,97657,1,8
432,176,97893,1,0
432,176,97972,1,0
432,176,98050,1,0
424,256,98129,1,12
192,144,98365,5,0
288,192,98523,1,0
416,224,98602,1,8
384,216,98838,1,0
384,216,98995,1,0
448,200,99074,1,8
432,176,99310,1,0
432,176,99468,1,0
384,216,99547,1,8
384,184,99783,1,0
432,176,99940,1,0
384,216,100019,1,8
448,200,100255,1,0
448,200,100413,1,0
448,200,100491,1,8
384,216,100728,1,0
384,216,100885,1,0
416,216,100964,1,8
416,216,101200,1,0
416,216,101358,1,0
368,248,101436,1,8
216,248,101515,1,0
368,288,101594,1,8
320,280,101673,1,0
384,216,101751,1,0
336,240,101830,1,0
384,216,101909,1,8
408,168,102145,5,4
