osu file format v10

[General]
AudioFilename: carnival.mp3
AudioLeadIn: 2500
PreviewTime: 67893
Countdown: 0
SampleSet: Normal
StackLeniency: 0.7
Mode: 1
LetterboxInBreaks: 0

[Editor]
DistanceSpacing: 0.8
BeatDivisor: 2
GridSize: 8

[Metadata]
Title:Carnival
TitleUnicode:
Artist:otetsu feat. Touyu
ArtistUnicode:
Creator:lepidopodus
Version:Normal
Source:
Tags:taiko SDVX Sound Voltex Booth
BeatmapID:176412
BeatmapSetID:58729

[Difficulty]
HPDrainRate:4
CircleSize:5
OverallDifficulty:5
ApproachRate:5
SliderMultiplier:1.4
SliderTickRate:1

[Events]
//Background and Video events
0,0,"134768.jpg"
//Break Periods
//Storyboard Layer 0 (Background)
//Storyboard Layer 1 (Fail)
//Storyboard Layer 2 (Pass)
//Storyboard Layer 3 (Foreground)
//Storyboard Sound Samples
//Background Colour Transformations
3,100,163,162,255

[TimingPoints]
572,236.220472440945,4,1,0,30,1,0
572,-125,4,1,0,30,0,0
3997,-125,4,1,0,45,0,0
11792,-125,4,1,0,70,0,0
26999,-125,4,1,0,40,0,0
29804,-125,4,1,0,50,0,0
30778,-125,4,1,0,60,0,0
34351,236.220472440945,4,1,0,60,1,0
34351,-125,4,1,0,60,0,0
41673,236.220472440945,4,1,0,60,1,0
41673,-125,4,1,0,60,0,0
45373,-125,4,1,0,70,0,0
60570,-125,4,1,0,60,0,0
64350,-125,4,1,0,65,0,0
68129,-125,4,1,0,75,0,1
98365,-125,4,1,0,40,0,0

[HitObjects]
208,176,572,5,0,0:0:0
208,176,1044,1,0,0:0:0
304,176,1516,1,0,0:0:0
432,224,1989,1,8,0:0:0
432,224,2461,1,0,0:0:0
344,208,2934,1,0,0:0:0
344,208,3406,1,0,0:0:0
80,168,4351,5,0,0:0:0
336,280,4823,1,0,0:0:0
400,296,5296,1,0,0:0:0
336,200,6241,1,0,0:0:0
336,200,6713,1,0,0:0:0
416,200,7186,1,0,0:0:0
456,184,7658,1,8,0:0:0
408,264,8131,5,0,0:0:0
376,288,8603,1,0,0:0:0
376,288,9075,1,0,0:0:0
200,224,10020,1,0,0:0:0
200,224,10493,1,0,0:0:0
200,224,10965,1,0,0:0:0
320,200,11910,5,0,0:0:0
368,280,12383,1,0,0:0:0
424,192,12619,1,8,0:0:0
424,192,12855,1,0,0:0:0
416,240,13327,1,0,0:0:0
352,192,13800,1,0,0:0:0
136,192,14272,1,0,0:0:0
448,192,14509,1,0,0:0:0
416,240,14745,1,0,0:0:0
416,112,15690,5,0,0:0:0
416,112,16162,1,0,0:0:0
448,192,16398,1,8,0:0:0
448,192,16634,1,0,0:0:0
448,192,17107,1,0,0:0:0
448,192,17579,1,0,0:0:0
416,200,18052,1,0,0:0:0
448,192,18288,1,0,0:0:0
448,192,18524,1,0,0:0:0
320,200,19469,5,0,0:0:0
368,280,19942,1,0,0:0:0
424,192,20178,1,8,0:0:0
424,192,20414,1,0,0:0:0
416,240,20886,1,0,0:0:0
352,192,21359,1,0,0:0:0
352,192,21831,1,0,0:0:0
448,192,22068,1,0,0:0:0
416,240,22304,1,0,0:0:0
352,192,22776,1,8,0:0:0
416,112,23249,5,0,0:0:0
416,112,23721,1,0,0:0:0
448,192,23957,1,8,0:0:0
448,192,24193,1,0,0:0:0
448,192,24666,1,0,0:0:0
448,192,25138,1,0,0:0:0
416,200,25611,1,0,0:0:0
448,192,25847,1,0,0:0:0
448,192,26083,1,0,0:0:0
368,200,27264,5,8,0:0:0
336,304,27737,1,8,0:0:0
336,304,28209,1,8,0:0:0
336,304,28682,1,8,0:0:0
336,304,29154,1,8,0:0:0
256,192,29863,12,0,30572,0:0:0
176,168,30808,5,0,0:0:0
344,256,31280,1,0,0:0:0
344,256,31753,1,0,0:0:0
344,256,32225,1,0,0:0:0
360,144,32697,1,0,0:0:0
360,144,33170,1,0,0:0:0
352,176,33642,1,0,0:0:0
280,272,33879,1,0,0:0:0
408,192,34115,1,0,0:0:0
424,96,34351,5,0,0:0:0
320,264,35059,1,8,0:0:0
320,264,35295,1,8,0:0:0
272,208,35768,1,8,0:0:0
320,200,36004,1,8,0:0:0
392,224,36240,1,8,0:0:0
392,224,36713,1,8,0:0:0
384,344,37067,1,8,0:0:0
224,200,38130,5,0,0:0:0
224,200,38602,1,0,0:0:0
368,328,38839,1,0,0:0:0
224,200,39075,1,0,0:0:0
224,200,39547,1,0,0:0:0
408,176,40020,1,4,0:0:0
368,184,40492,1,4,0:0:0
368,184,40965,1,4,0:0:0
336,312,41437,1,0,0:0:0
416,312,41673,5,0,0:0:0
176,208,42381,1,8,0:0:0
432,192,42617,1,8,0:0:0
400,184,43090,1,8,0:0:0
432,192,43326,1,8,0:0:0
432,192,43562,1,8,0:0:0
432,232,44035,1,8,0:0:0
368,264,44271,1,8,0:0:0
264,168,44507,1,8,0:0:0
304,192,44861,1,8,0:0:0
256,256,45452,5,0,0:0:0
256,256,45806,1,0,0:0:0
384,304,46161,1,0,0:0:0
360,288,46397,1,0,0:0:0
432,208,46869,1,8,0:0:0
360,288,47342,1,0,0:0:0
360,288,47696,1,0,0:0:0
360,288,48050,1,0,0:0:0
360,288,48287,1,0,0:0:0
304,232,49232,5,0,0:0:0
304,232,49586,1,0,0:0:0
304,232,49940,1,0,0:0:0
304,232,50176,1,8,0:0:0
360,216,50413,1,8,0:0:0
360,216,50649,1,8,0:0:0
352,264,51121,1,4,0:0:0
312,272,51476,1,4,0:0:0
352,264,52066,1,12,0:0:0
312,272,52421,1,12,0:0:0
312,240,53011,5,0,0:0:0
312,240,53365,1,0,0:0:0
312,240,53720,1,0,0:0:0
312,240,53956,1,0,0:0:0
416,216,54428,1,8,0:0:0
416,216,54901,1,0,0:0:0
416,216,55255,1,0,0:0:0
416,216,55610,1,0,0:0:0
416,216,55846,1,0,0:0:0
320,240,56554,1,0,0:0:0
352,296,56791,5,0,0:0:0
384,296,57145,1,0,0:0:0
384,296,57735,1,8,0:0:0
384,296,58090,1,8,0:0:0
336,272,58444,1,8,0:0:0
384,296,58680,2,0,B|112:160|112:160|440:88|440:88|488:112,1,672
168,256,60570,5,0,0:0:0
344,304,61043,1,0,0:0:0
376,272,61515,1,0,0:0:0
312,272,61987,1,8,0:0:0
336,248,62460,1,0,0:0:0
336,248,62932,1,0,0:0:0
336,248,63405,1,0,0:0:0
336,248,63877,1,8,0:0:0
256,248,64350,5,0,0:0:0
288,256,64822,1,0,0:0:0
288,256,65058,1,0,0:0:0
288,256,65295,1,0,0:0:0
288,256,65767,1,8,0:0:0
344,256,66239,1,0,0:0:0
344,256,66476,1,0,0:0:0
288,256,66712,1,0,0:0:0
288,256,66948,1,0,0:0:0
400,192,67184,1,8,0:0:0
360,200,67657,1,8,0:0:0
256,176,68129,5,0,0:0:0
360,240,68602,1,0,0:0:0
416,208,68838,1,0,0:0:0
400,176,69074,1,4,0:0:0
344,192,69547,1,4,0:0:0
432,176,70019,1,0,0:0:0
400,176,70255,1,0,0:0:0
432,176,70491,1,8,0:0:0
376,224,70728,1,8,0:0:0
192,200,70964,1,0,0:0:0
376,224,71436,1,8,0:0:0
312,240,71909,5,0,0:0:0
312,240,72381,1,0,0:0:0
416,200,72617,1,0,0:0:0
376,224,72854,1,4,0:0:0
344,224,73326,1,4,0:0:0
376,224,73798,1,0,0:0:0
344,224,74035,1,0,0:0:0
376,224,74271,1,8,0:0:0
344,224,74507,1,8,0:0:0
376,224,74743,1,0,0:0:0
376,224,74980,1,0,0:0:0
376,224,75216,1,0,0:0:0
256,176,75688,5,0,0:0:0
360,240,76161,1,0,0:0:0
416,208,76397,1,8,0:0:0
400,176,76633,1,4,0:0:0
344,192,77106,1,4,0:0:0
432,176,77578,1,0,0:0:0
400,176,77814,1,0,0:0:0
432,176,78050,1,8,0:0:0
376,224,78287,1,8,0:0:0
192,200,78523,5,0,0:0:0
376,224,78995,1,0,0:0:0
312,240,79468,1,0,0:0:0
312,240,79940,1,0,0:0:0
416,200,80176,1,8,0:0:0
376,224,80413,1,4,0:0:0
344,224,80885,1,4,0:0:0
376,224,81357,1,0,0:0:0
344,224,81594,1,0,0:0:0
376,224,81830,1,8,0:0:0
344,224,82066,1,8,0:0:0
376,224,82302,1,0,0:0:0
376,224,82539,1,0,0:0:0
376,224,82775,1,8,0:0:0
224,176,83247,5,0,0:0:0
288,224,83720,1,0,0:0:0
288,224,84192,1,0,0:0:0
344,248,84665,1,8,0:0:0
288,224,85137,1,0,0:0:0
288,224,85610,1,0,0:0:0
288,224,86082,1,0,0:0:0
288,224,87027,1,0,0:0:0
288,224,87499,1,0,0:0:0
288,224,87972,1,0,0:0:0
288,224,88444,1,8,0:0:0
280,256,88917,1,0,0:0:0
288,224,89153,1,0,0:0:0
288,224,89389,1,0,0:0:0
304,272,89861,1,0,0:0:0
280,256,90098,1,0,0:0:0
280,256,90334,1,0,0:0:0
288,224,90806,5,0,0:0:0
288,224,91279,1,8,0:0:0
288,224,91751,1,0,0:0:0
288,224,92224,1,8,0:0:0
248,176,92696,1,0,0:0:0
240,224,93169,1,8,0:0:0
288,224,93641,1,0,0:0:0
288,224,94586,5,0,0:0:0
288,224,95059,1,8,0:0:0
288,224,95531,1,0,0:0:0
288,224,96004,1,8,0:0:0
288,224,96476,1,0,0:0:0
288,224,96712,1,0,0:0:0
288,224,96948,1,8,0:0:0
288,224,97421,1,0,0:0:0
288,224,97657,1,0,0:0:0
288,224,97893,1,8,0:0:0
376,192,98602,5,8,0:0:0
344,208,99074,1,8,0:0:0
344,208,99547,1,8,0:0:0
344,208,100019,1,8,0:0:0
344,208,100491,1,8,0:0:0
256,192,101200,12,0,101909,0:0:0
272,216,102145,5,4,0:0:0
