osu file format v10

[General]
AudioFilename: carnival.mp3
AudioLeadIn: 2500
PreviewTime: 67893
Countdown: 0
SampleSet: Normal
StackLeniency: 0.7
Mode: 1
LetterboxInBreaks: 0

[Editor]
DistanceSpacing: 0.8
BeatDivisor: 2
GridSize: 8

[Metadata]
Title:Carnival
TitleUnicode:
Artist:otetsu feat. Touyu
ArtistUnicode:
Creator:lepidopodus
Version:Hard
Source:
Tags:taiko SDVX Sound Voltex Booth
BeatmapID:176411
BeatmapSetID:58729

[Difficulty]
HPDrainRate:5
CircleSize:5
OverallDifficulty:6
ApproachRate:5
SliderMultiplier:1.4
SliderTickRate:1

[Events]
//Background and Video events
0,0,"134768.jpg"
//Break Periods
//Storyboard Layer 0 (Background)
//Storyboard Layer 1 (Fail)
//Storyboard Layer 2 (Pass)
//Storyboard Layer 3 (Foreground)
//Storyboard Sound Samples
//Background Colour Transformations
3,100,163,162,255

[TimingPoints]
572,236.220472440945,4,1,0,30,1,0
572,-200,4,1,0,30,0,0
3997,-200,4,1,0,45,0,0
11792,-100,4,1,0,70,0,0
26999,-100,4,1,0,40,0,0
29804,-100,4,1,0,50,0,0
30778,-100,4,1,0,60,0,0
34351,236.220472440945,4,1,0,60,1,0
41673,236.220472440945,4,1,0,60,1,0
45373,-100,4,1,0,70,0,0
60570,-100,4,1,0,60,0,0
64350,-100,4,1,0,65,0,0
68129,-100,4,1,0,75,0,1
98365,-100,4,1,0,40,0,0

[HitObjects]
112,176,572,5,0,0:0:0
376,160,808,1,8,0:0:0
376,160,1044,1,0,0:0:0
448,192,1280,1,8,0:0:0
448,192,1516,1,0,0:0:0
448,192,1989,1,0,0:0:0
112,176,2461,1,0,0:0:0
376,160,2697,1,8,0:0:0
376,160,2933,1,0,0:0:0
448,192,3169,1,8,0:0:0
448,192,3405,1,0,0:0:0
272,200,4351,5,0,0:0:0
416,192,4587,1,8,0:0:0
448,192,4823,1,0,0:0:0
448,192,5060,1,8,0:0:0
448,192,5296,1,0,0:0:0
416,192,5532,1,8,0:0:0
416,192,5768,1,0,0:0:0
408,200,6241,1,0,0:0:0
408,200,6477,1,0,0:0:0
448,192,6713,1,8,0:0:0
448,192,6949,1,8,0:0:0
448,192,7186,1,0,0:0:0
408,200,7422,1,8,0:0:0
408,200,7658,1,8,0:0:0
280,160,8131,5,0,0:0:0
408,200,8367,1,8,0:0:0
448,192,8603,1,0,0:0:0
448,192,8839,1,8,0:0:0
264,232,9075,1,0,0:0:0
304,248,9312,1,0,0:0:0
424,232,9548,1,8,0:0:0
448,192,10020,1,8,0:0:0
376,208,10257,1,8,0:0:0
424,232,10493,1,0,0:0:0
376,208,10729,1,8,0:0:0
408,208,10965,1,0,0:0:0
248,176,11320,1,0,0:0:0
384,256,11438,1,0,0:0:0
376,208,11674,1,8,0:0:0
208,136,11910,5,0,0:0:0
440,160,12146,1,8,0:0:0
440,160,12264,1,8,0:0:0
456,200,12383,1,8,0:0:0
456,200,12619,1,8,0:0:0
312,248,12855,1,0,0:0:0
424,288,13091,1,8,0:0:0
440,160,13327,1,0,0:0:0
416,192,13564,1,8,0:0:0
352,144,13800,1,0,0:0:0
376,160,14036,1,0,0:0:0
376,160,14154,1,0,0:0:0
448,192,14272,1,0,0:0:0
440,160,14509,1,8,0:0:0
208,184,14745,1,0,0:0:0
272,200,14981,1,0,0:0:0
400,272,15217,1,8,0:0:0
208,136,15690,5,0,0:0:0
440,160,15926,1,8,0:0:0
440,160,16044,1,8,0:0:0
456,200,16163,1,8,0:0:0
456,200,16399,1,8,0:0:0
312,248,16635,1,0,0:0:0
424,288,16871,1,8,0:0:0
440,160,17107,1,0,0:0:0
416,192,17344,1,8,0:0:0
352,144,17580,1,0,0:0:0
376,160,17816,1,0,0:0:0
376,160,17934,1,0,0:0:0
448,192,18052,1,0,0:0:0
440,160,18289,1,8,0:0:0
208,184,18525,1,0,0:0:0
384,232,18879,1,0,0:0:0
424,256,18997,1,0,0:0:0
208,136,19469,5,0,0:0:0
440,160,19705,1,8,0:0:0
440,160,19823,1,8,0:0:0
456,200,19942,1,8,0:0:0
456,200,20178,1,8,0:0:0
312,248,20414,1,0,0:0:0
224,240,20532,1,0,0:0:0
424,288,20650,1,0,0:0:0
440,160,20886,1,0,0:0:0
416,192,21123,1,8,0:0:0
352,144,21359,1,0,0:0:0
376,160,21595,1,0,0:0:0
376,160,21713,1,0,0:0:0
448,192,21831,1,0,0:0:0
440,160,22068,1,8,0:0:0
208,184,22304,1,0,0:0:0
272,200,22540,1,0,0:0:0
400,272,22776,1,8,0:0:0
208,136,23249,5,0,0:0:0
440,160,23485,1,8,0:0:0
440,160,23603,1,8,0:0:0
456,200,23722,1,8,0:0:0
456,200,23958,1,8,0:0:0
312,248,24194,1,0,0:0:0
160,224,24312,1,0,0:0:0
424,288,24430,1,0,0:0:0
440,160,24666,1,0,0:0:0
416,192,24903,1,8,0:0:0
352,144,25139,1,0,0:0:0
376,160,25375,1,0,0:0:0
376,160,25493,1,0,0:0:0
448,192,25611,1,0,0:0:0
440,160,25848,1,8,0:0:0
208,184,26084,1,0,0:0:0
384,232,26438,1,0,0:0:0
424,256,26556,1,0,0:0:0
352,128,27264,5,8,0:0:0
352,264,27737,1,8,0:0:0
312,272,28209,1,8,0:0:0
312,272,28682,1,8,0:0:0
352,264,29154,1,8,0:0:0
328,248,29627,1,8,0:0:0
256,192,29863,12,0,30572,0:0:0
224,168,30808,5,0,0:0:0
448,184,31044,1,0,0:0:0
328,248,31162,1,0,0:0:0
328,248,31516,1,0,0:0:0
368,224,31753,1,0,0:0:0
448,184,31989,1,0,0:0:0
472,224,32107,1,0,0:0:0
152,224,32461,1,0,0:0:0
216,232,32697,1,0,0:0:0
448,184,32934,1,0,0:0:0
416,232,33052,1,0,0:0:0
352,224,33406,1,0,0:0:0
400,200,33642,1,8,0:0:0
416,232,33879,1,0,0:0:0
448,184,34115,1,8,0:0:0
400,104,34351,5,0,0:0:0
424,144,35059,1,8,0:0:0
416,232,35295,1,0,0:0:0
184,192,35768,1,0,0:0:0
248,208,36004,1,0,0:0:0
392,208,36240,1,8,0:0:0
392,208,36476,1,0,0:0:0
448,176,36713,1,8,0:0:0
448,176,36949,1,8,0:0:0
392,208,37067,1,8,0:0:0
352,304,37894,5,0,0:0:0
352,304,38130,1,0,0:0:0
448,176,38366,1,0,0:0:0
448,216,38484,1,0,0:0:0
248,200,38839,1,0,0:0:0
248,200,39075,1,0,0:0:0
448,176,39311,1,0,0:0:0
448,216,39429,1,0,0:0:0
392,176,39784,1,12,0:0:0
448,176,40020,1,4,0:0:0
448,176,40256,1,12,0:0:0
448,176,40492,1,4,0:0:0
448,176,40728,1,12,0:0:0
448,216,40965,1,4,0:0:0
448,176,41201,1,8,0:0:0
416,232,41437,1,0,0:0:0
384,104,41673,5,8,0:0:0
448,176,42381,1,0,0:0:0
384,240,42617,1,8,0:0:0
416,136,43090,1,8,0:0:0
448,176,43326,1,0,0:0:0
416,208,43562,1,8,0:0:0
336,272,44035,1,0,0:0:0
336,272,44271,1,0,0:0:0
400,232,44507,1,8,0:0:0
368,248,44861,1,8,0:0:0
240,176,45452,5,0,0:0:0
456,152,45688,1,0,0:0:0
456,208,45806,1,0,0:0:0
416,176,46043,1,0,0:0:0
384,224,46279,1,0,0:0:0
416,176,46397,1,0,0:0:0
360,192,46633,1,8,0:0:0
392,160,46869,1,8,0:0:0
456,208,47106,1,0,0:0:0
416,176,47342,1,8,0:0:0
456,208,47578,1,8,0:0:0
384,224,47696,1,8,0:0:0
416,176,47932,1,8,0:0:0
416,176,48169,1,0,0:0:0
416,176,48405,1,8,0:0:0
424,232,48523,1,8,0:0:0
192,200,48995,1,0,0:0:0
320,288,49232,5,0,0:0:0
312,152,49468,1,0,0:0:0
424,232,49586,1,0,0:0:0
456,184,49940,1,8,0:0:0
456,184,50176,1,0,0:0:0
456,184,50413,1,8,0:0:0
424,232,50649,1,8,0:0:0
424,232,50885,1,0,0:0:0
376,168,51121,1,4,0:0:0
392,224,51476,1,4,0:0:0
392,224,52066,1,12,0:0:0
392,224,52421,1,12,0:0:0
240,176,53011,5,0,0:0:0
456,152,53247,1,0,0:0:0
456,208,53365,1,0,0:0:0
416,176,53602,1,0,0:0:0
384,224,53838,1,0,0:0:0
416,176,53956,1,0,0:0:0
360,192,54192,1,8,0:0:0
392,160,54428,1,8,0:0:0
456,208,54665,1,0,0:0:0
416,176,54901,1,8,0:0:0
456,208,55137,1,8,0:0:0
384,224,55255,1,8,0:0:0
416,176,55491,1,8,0:0:0
416,176,55728,1,0,0:0:0
416,176,55964,1,8,0:0:0
424,232,56082,1,8,0:0:0
192,200,56554,1,0,0:0:0
288,280,56791,5,0,0:0:0
376,192,57145,1,8,0:0:0
400,232,57735,1,8,0:0:0
416,208,57972,1,8,0:0:0
416,208,58090,1,8,0:0:0
344,176,58326,1,8,0:0:0
400,232,58444,1,8,0:0:0
432,248,58680,1,4,0:0:0
416,208,58917,1,8,0:0:0
416,208,59153,1,8,0:0:0
448,208,59389,1,0,0:0:0
416,208,59625,1,8,0:0:0
416,208,59861,1,8,0:0:0
384,224,60098,1,0,0:0:0
216,240,60570,5,0,0:0:0
448,168,60806,1,8,0:0:0
384,224,61043,1,0,0:0:0
328,256,61515,1,0,0:0:0
448,168,61751,1,8,0:0:0
424,240,61987,1,0,0:0:0
352,184,62460,1,0,0:0:0
448,168,62696,1,8,0:0:0
368,232,62932,1,0,0:0:0
384,200,63405,1,0,0:0:0
384,200,63641,1,8,0:0:0
408,216,63877,1,0,0:0:0
272,160,64350,5,0,0:0:0
432,176,64586,1,8,0:0:0
432,176,64704,1,8,0:0:0
384,200,64822,1,0,0:0:0
408,216,65295,1,0,0:0:0
384,200,65531,1,8,0:0:0
384,200,65649,1,8,0:0:0
352,248,65767,1,0,0:0:0
384,200,66239,1,0,0:0:0
408,216,66476,1,0,0:0:0
408,216,66712,1,0,0:0:0
384,200,66948,1,0,0:0:0
400,176,67184,1,8,0:0:0
360,176,67421,1,8,0:0:0
360,176,67657,1,8,0:0:0
200,176,68129,5,0,0:0:0
440,184,68365,1,8,0:0:0
440,184,68484,1,8,0:0:0
440,184,68602,1,8,0:0:0
440,184,68838,1,12,0:0:0
448,128,69074,1,4,0:0:0
440,184,69310,1,12,0:0:0
440,184,69547,1,4,0:0:0
296,200,69783,1,8,0:0:0
368,240,70019,1,0,0:0:0
368,240,70255,1,0,0:0:0
328,216,70373,1,0,0:0:0
328,216,70491,1,0,0:0:0
416,208,70728,1,8,0:0:0
440,184,70964,1,0,0:0:0
416,208,71200,1,0,0:0:0
416,208,71436,1,8,0:0:0
192,152,71909,5,0,0:0:0
416,208,72145,1,8,0:0:0
416,208,72263,1,8,0:0:0
416,208,72381,1,8,0:0:0
432,144,72617,1,12,0:0:0
464,192,72854,1,4,0:0:0
464,192,73090,1,12,0:0:0
416,208,73326,1,4,0:0:0
376,288,73562,1,0,0:0:0
376,288,73680,1,0,0:0:0
376,288,73798,1,0,0:0:0
392,176,74035,1,0,0:0:0
336,256,74153,1,0,0:0:0
336,256,74271,1,0,0:0:0
416,208,74507,1,8,0:0:0
448,240,74743,1,0,0:0:0
416,248,75098,1,0,0:0:0
416,248,75216,1,0,0:0:0
200,176,75688,5,0,0:0:0
440,184,75924,1,8,0:0:0
440,184,76043,1,8,0:0:0
440,184,76161,1,8,0:0:0
440,184,76397,1,12,0:0:0
448,128,76633,1,4,0:0:0
440,184,76869,1,12,0:0:0
440,184,77106,1,4,0:0:0
296,200,77342,1,8,0:0:0
368,240,77578,1,0,0:0:0
368,240,77814,1,0,0:0:0
328,216,77932,1,0,0:0:0
328,216,78050,1,0,0:0:0
416,208,78287,1,8,0:0:0
440,184,78523,1,0,0:0:0
416,208,78759,1,0,0:0:0
416,208,78995,1,8,0:0:0
192,152,79468,5,0,0:0:0
416,208,79704,1,8,0:0:0
416,208,79822,1,8,0:0:0
416,208,79940,1,8,0:0:0
432,144,80176,1,12,0:0:0
464,192,80413,1,4,0:0:0
464,192,80649,1,12,0:0:0
416,208,80885,1,4,0:0:0
376,288,81121,1,0,0:0:0
376,288,81239,1,0,0:0:0
376,288,81357,1,0,0:0:0
392,176,81594,1,0,0:0:0
336,256,81712,1,0,0:0:0
336,256,81830,1,0,0:0:0
416,208,82066,1,8,0:0:0
448,240,82302,1,0,0:0:0
416,248,82657,1,0,0:0:0
416,248,82775,1,0,0:0:0
208,144,83247,5,0,0:0:0
368,216,83484,1,8,0:0:0
368,216,83602,1,8,0:0:0
368,216,83720,1,8,0:0:0
368,216,83956,1,8,0:0:0
416,192,84192,1,0,0:0:0
416,192,84428,1,0,0:0:0
448,192,84665,1,8,0:0:0
352,144,85137,1,0,0:0:0
368,216,85373,1,0,0:0:0
368,216,85491,1,0,0:0:0
368,216,85610,1,0,0:0:0
416,192,85846,1,8,0:0:0
416,192,86082,1,0,0:0:0
416,192,86318,1,0,0:0:0
392,248,86554,1,8,0:0:0
208,144,87027,5,0,0:0:0
368,216,87264,1,8,0:0:0
368,216,87382,1,8,0:0:0
368,216,87500,1,8,0:0:0
368,216,87736,1,8,0:0:0
416,192,87972,1,0,0:0:0
416,192,88208,1,0,0:0:0
448,192,88445,1,8,0:0:0
168,224,88680,1,0,0:0:0
168,224,88798,1,0,0:0:0
168,224,88917,1,0,0:0:0
168,224,89153,1,0,0:0:0
168,224,89271,1,0,0:0:0
168,224,89389,1,0,0:0:0
416,192,89625,1,8,0:0:0
368,248,89861,1,0,0:0:0
344,264,90216,1,0,0:0:0
344,264,90334,1,0,0:0:0
208,144,90806,5,0,0:0:0
368,216,91043,1,8,0:0:0
368,216,91161,1,8,0:0:0
368,216,91279,1,8,0:0:0
368,216,91515,1,8,0:0:0
416,192,91751,1,0,0:0:0
416,192,91987,1,0,0:0:0
448,192,92224,1,8,0:0:0
352,144,92696,1,0,0:0:0
368,216,92932,1,0,0:0:0
368,216,93050,1,0,0:0:0
368,216,93169,1,0,0:0:0
416,192,93405,1,8,0:0:0
416,192,93641,1,0,0:0:0
416,192,93877,1,0,0:0:0
392,248,94113,1,8,0:0:0
208,144,94586,5,0,0:0:0
368,216,94823,1,8,0:0:0
368,216,94941,1,8,0:0:0
368,216,95059,1,8,0:0:0
368,216,95295,1,8,0:0:0
416,192,95531,1,0,0:0:0
416,192,95767,1,0,0:0:0
448,192,96004,1,8,0:0:0
168,224,96239,1,0,0:0:0
168,224,96357,1,0,0:0:0
168,224,96476,1,0,0:0:0
168,224,96712,1,0,0:0:0
168,224,96830,1,0,0:0:0
168,224,96948,1,0,0:0:0
416,192,97184,1,8,0:0:0
368,248,97420,1,0,0:0:0
344,264,97775,1,8,0:0:0
344,264,97893,1,8,0:0:0
448,184,98602,5,8,0:0:0
304,192,99074,1,8,0:0:0
352,248,99547,1,8,0:0:0
352,296,100019,1,8,0:0:0
352,296,100491,1,8,0:0:0
352,296,100964,1,8,0:0:0
256,192,101200,12,4,101909,0:0:0
360,192,102145,5,4,0:0:0
