osu file format v9

[General]
AudioFilename: carnival.mp3
AudioLeadIn: 2500
PreviewTime: 67893
Countdown: 0
SampleSet: Normal
StackLeniency: 0.7
Mode: 1
LetterboxInBreaks: 0

[Editor]
DistanceSpacing: 0.8
BeatDivisor: 1
GridSize: 8

[Metadata]
Title:Carnival
Artist:otetsu feat. Touyu
Creator:lepidopodus
Version:Easy
Source:
Tags:taiko SDVX Sound Voltex Booth

[Difficulty]
HPDrainRate:3
CircleSize:5
OverallDifficulty:4
ApproachRate:5
SliderMultiplier:1.4
SliderTickRate:1

[Events]
//Background and Video events
0,0,"134768.jpg"
//Break Periods
//Storyboard Layer 0 (Background)
//Storyboard Layer 1 (Fail)
//Storyboard Layer 2 (Pass)
//Storyboard Layer 3 (Foreground)
//Storyboard Sound Samples
//Background Colour Transformations
3,100,163,162,255

[TimingPoints]
572,236.220472440945,4,1,0,30,1,0
572,-125,4,1,0,30,0,0
3997,-125,4,1,0,45,0,0
11792,-125,4,1,0,70,0,0
26999,-125,4,1,0,40,0,0
29804,-125,4,1,0,50,0,0
30778,-125,4,1,0,60,0,0
34351,236.220472440945,4,1,0,60,1,0
34351,-125,4,1,0,60,0,0
41673,236.220472440945,4,1,0,60,1,0
41673,-125,4,1,0,60,0,0
45373,-125,4,1,0,70,0,0
60570,-125,4,1,0,60,0,0
64350,-125,4,1,0,65,0,0
68129,-125,4,1,0,75,0,1
98365,-125,4,1,0,40,0,0

[HitObjects]
288,272,572,5,0
360,320,1516,1,0
360,320,2461,1,0
184,192,4351,5,0
344,320,5296,1,0
336,256,6241,1,0
368,176,7186,1,0
448,176,7658,1,8
392,248,8131,5,0
272,256,9075,1,0
312,264,10020,1,0
344,280,10493,1,0
344,280,10965,1,4
256,208,11910,5,0
376,304,12855,1,0
336,280,13800,1,0
336,280,14272,1,0
336,280,14745,1,0
328,248,15217,1,0
200,272,15690,5,0
200,272,16634,1,0
200,272,17579,1,0
200,272,18052,1,0
200,272,18524,1,0
432,272,18997,1,0
312,272,19469,5,8
376,232,20414,1,8
368,192,21359,1,8
368,192,21831,1,8
368,192,22304,1,8
368,192,22776,1,8
368,192,23249,5,8
368,192,24194,1,8
368,192,25138,1,8
368,192,25611,1,8
368,192,26083,1,8
376,240,26556,1,8
296,288,27028,5,4
192,264,29863,1,0
312,288,30335,1,0
320,192,30808,5,0
392,304,31753,1,0
304,272,32697,1,0
328,216,33642,1,0
328,216,34351,5,8
392,240,35295,1,8
312,272,36240,1,8
312,272,36713,1,8
312,272,37185,1,8
400,208,38130,5,0
264,248,38602,1,0
376,312,39075,1,0
336,256,40020,1,4
320,192,40965,1,4
368,136,41673,5,8
360,208,42617,1,8
304,224,43562,1,8
328,312,44035,1,8
328,312,44507,1,8
160,208,45452,5,0
352,272,45924,1,0
352,272,46397,1,0
336,208,47342,1,0
336,208,47814,1,0
336,208,48287,1,0
440,160,49232,1,0
424,208,50176,1,8
424,176,51121,1,4
312,200,52066,1,12
192,176,53011,5,0
192,176,53484,1,0
192,176,53956,1,0
192,176,54901,1,0
192,176,55373,1,0
192,176,55846,1,0
400,136,56791,1,0
368,208,57735,1,8
400,152,58680,1,4
320,120,60570,5,0
376,288,61515,1,0
376,288,62460,1,0
376,288,63405,1,0
368,184,64350,1,8
368,184,65295,1,8
368,280,66239,1,8
368,280,66712,1,8
368,280,67184,1,8
368,168,68129,5,0
368,168,68602,1,0
312,176,69074,1,4
312,176,69547,1,4
408,192,70019,1,0
384,232,70491,1,0
408,192,70964,1,0
384,168,71909,5,8
384,168,72381,1,8
376,200,72854,1,12
376,200,73326,1,12
376,200,73798,1,8
376,200,74271,1,8
376,200,74743,1,8
320,288,75688,5,0
320,288,76161,1,0
384,184,76633,1,4
384,184,77106,1,4
392,232,77578,1,8
392,232,78050,1,8
400,264,78523,1,0
336,160,79468,5,8
336,160,79940,1,8
400,192,80413,1,12
400,192,80885,1,12
352,264,81358,1,0
352,264,81830,1,0
416,224,82302,1,8
160,192,83247,5,0
336,272,84192,1,0
336,272,85137,1,0
408,184,85610,1,8
416,216,86082,1,0
272,184,87027,5,0
344,224,87972,1,0
344,224,88917,1,0
448,200,89389,1,8
448,200,89861,1,0
392,160,90806,5,0
392,160,91279,1,0
392,160,91751,1,0
344,168,92696,1,0
440,192,93169,1,8
440,192,93641,1,0
336,264,94586,5,0
336,264,95058,1,0
336,264,95531,1,0
336,264,96476,1,0
432,200,96948,1,8
432,240,97421,1,0
360,112,98365,5,4
384,200,101200,1,0
384,200,101673,1,0
432,152,102145,5,4
