osu file format v12

[General]
AudioFilename: 01..mp3
AudioLeadIn: 2000
PreviewTime: 83449
Countdown: 0
SampleSet: Normal
StackLeniency: 0.7
Mode: 0
LetterboxInBreaks: 0

[Editor]
Bookmarks: 22807,33473,54783,60116,126783,193449,254337
DistanceSpacing: 0.4
BeatDivisor: 4
GridSize: 8

[Metadata]
Title:Sai afure, Ketsurakusha
TitleUnicode:才溢れ、欠落者
Artist:otetsu
ArtistUnicode:otetsu
Creator:Kite
Version:Insane
Source:
Tags:sweet_serenitee haruka Vocaloid Nyquill megurine luka balad Lunarsakuya
BeatmapID:210353
BeatmapSetID:73971

[Difficulty]
HPDrainRate:6
CircleSize:4
OverallDifficulty:7
ApproachRate:8
SliderMultiplier:2.28
SliderTickRate:1

[Events]
//Background and Video events
0,0,"luka.jpg",0,0
//Break Periods
//Storyboard Layer 0 (Background)
//Storyboard Layer 1 (Fail)
//Storyboard Layer 2 (Pass)
//Storyboard Layer 3 (Foreground)
//Storyboard Sound Samples
//Background Colour Transformations
3,100,163,162,255

[TimingPoints]
1450,444.444444444444,6,2,1,60,1,0
1450,-200,6,2,1,60,0,0
22116,-200,6,2,1,60,0,0
22783,-100,6,1,1,80,0,1
23116,-100,6,1,1,60,0,0
23227,-100,6,1,1,80,0,0
26672,-100,6,2,1,60,0,0
28005,-100,6,1,1,80,0,0
29338,-100,6,2,1,60,0,0
29561,-100,6,2,1,70,0,0
29783,-100,6,2,1,60,0,0
30783,-100,6,1,1,80,0,0
33449,-113.636363636364,6,2,1,80,0,0
37338,-113.636363636364,6,2,1,60,0,0
38672,-113.636363636364,6,2,1,80,0,0
42672,-113.636363636364,6,2,1,60,0,0
44005,-113.636363636364,6,2,1,80,0,0
48005,-113.636363636364,6,2,1,60,0,0
48783,-113.636363636364,6,2,1,70,0,0
49338,-113.636363636364,6,2,1,80,0,0
53338,-113.636363636364,6,2,1,60,0,0
54116,-113.636363636364,6,2,1,80,0,0
54672,-113.636363636364,6,1,1,80,0,0
54783,-100,6,1,1,80,0,0
59449,-66.6666666666667,6,1,1,80,0,0
59561,-66.6666666666667,6,1,1,5,0,0
60045,-100,6,1,1,5,0,0
60116,-100,6,1,1,80,0,0
83338,-200,6,1,1,80,0,0
84116,-100,6,1,1,80,0,1
104672,-133.333333333333,6,1,1,80,0,1
105449,-113.636363636364,6,2,1,80,0,0
126783,-113.636363636364,6,2,1,80,0,1
129561,-113.636363636364,6,2,1,30,0,1
129672,-113.636363636364,6,2,1,80,0,1
129783,-113.636363636364,6,2,1,30,0,1
129894,-113.636363636364,6,2,1,80,0,1
130005,-113.636363636364,6,2,1,30,0,1
130116,-113.636363636364,6,2,1,80,0,1
130227,-113.636363636364,6,2,1,30,0,1
130338,-113.636363636364,6,2,1,80,0,1
130449,-113.636363636364,6,2,1,30,0,1
130561,-113.636363636364,6,2,1,80,0,1
130672,-113.636363636364,6,2,1,30,0,1
130783,-113.636363636364,6,2,1,80,0,1
132005,-200,6,2,1,80,0,1
133116,-113.636363636364,6,2,1,80,0,1
133338,-113.636363636364,6,2,1,30,0,1
133449,-113.636363636364,6,2,1,80,0,1
133561,-113.636363636364,6,2,1,30,0,1
133672,-113.636363636364,6,2,1,80,0,1
133783,-113.636363636364,6,2,1,30,0,1
133894,-113.636363636364,6,2,1,80,0,1
134005,-113.636363636364,6,2,1,30,0,1
134116,-113.636363636364,6,2,1,80,0,1
134227,-113.636363636364,6,2,1,30,0,1
134338,-113.636363636364,6,2,1,80,0,1
147449,-113.636363636364,6,2,1,80,0,0
148116,-100,6,1,1,80,0,1
148783,-100,6,1,1,80,0,0
171338,-200,6,1,1,80,0,0
172116,-100,6,1,1,80,0,1
192116,-90.9090909090909,6,1,1,80,0,1
193449,-100,6,1,1,80,0,0
193894,444.444444444444,4,1,1,60,1,0
193894,-90.9090909090909,4,1,1,80,0,1
222338,444.444444444444,6,2,1,60,1,0

[Colours]
Combo1 : 255,255,255
Combo2 : 130,242,237
Combo3 : 29,103,216
Combo4 : 184,60,232
Combo5 : 238,96,174
Combo6 : 230,0,0
Combo7 : 170,0,0

[HitObjects]
376,336,1450,2,0,P|374:279|360:216,1,114,2|0,0:0|0:0,0:0:0:0:
336,141,2116,1,2,0:0:0:0:
207,292,2561,1,0,0:0:0:0:
207,292,2783,2,0,P|144:301|92:300,1,114,2|0,0:0|0:0,0:0:0:0:
30,202,3449,1,2,0:0:0:0:
37,168,3672,1,0,0:0:0:0:
50,136,3894,1,0,0:0:0:0:
67,106,4116,6,0,P|125:83|174:66,1,114,2|0,0:0|0:0,0:0:0:0:
256,37,4783,1,2,0:0:0:0:
263,197,5227,1,0,0:0:0:0:
263,197,5449,2,0,P|306:244|347:282,1,114,2|0,0:0|0:0,0:0:0:0:
400,341,6116,1,2,0:0:0:0:
490,102,6783,6,0,P|445:77|385:63,1,114,2|0,0:0|0:0,0:0:0:0:
303,62,7449,1,2,0:0:0:0:
245,242,7894,1,0,0:0:0:0:
245,242,8116,2,0,P|199:267|137:291,1,114,2|0,0:0|0:0,0:0:0:0:
47,231,8783,2,0,L|7:183,2,57,2|0|0,0:0|0:0|0:0,0:0:0:0:
97,151,9449,6,0,P|114:85|127:31,1,114,2|0,0:0|0:0,0:0:0:0:
197,91,10116,1,2,0:0:0:0:
401,61,10561,1,0,0:0:0:0:
346,128,10783,2,0,P|315:71|288:26,1,114,2|0,0:0|0:0,0:0:0:0:
346,128,11449,1,2,0:0:0:0:
192,307,12116,54,0,P|243:338|298:360,1,114,2|0,0:0|0:0,0:0:0:0:
374,371,12783,1,2,0:0:0:0:
325,179,13227,1,0,0:0:0:0:
325,179,13449,2,0,P|340:120|352:64,1,114,2|0,0:0|0:0,0:0:0:0:
443,126,14116,2,0,P|468:97|485:70,2,57,2|0|0,0:0|0:0|0:0,0:0:0:0:
364,175,14783,6,0,P|329:206|281:255,1,114,2|0,0:0|0:0,0:0:0:0:
222,316,15449,1,2,0:0:0:0:
180,135,15894,1,0,0:0:0:0:
180,135,16116,2,0,P|162:79|142:26,1,114,2|0,0:0|0:0,0:0:0:0:
59,94,16783,2,0,P|34:66|20:49,2,57,2|0|0,0:0|0:0|0:0,0:0:0:0:
120,167,17449,6,0,P|126:223|130:283,1,114,2|0,0:0|0:0,0:0:0:0:
129,361,18116,1,2,0:0:0:0:
275,236,18561,1,0,0:0:0:0:
275,236,18783,2,0,P|326:201|419:144,1,171,2|2,0:0|0:0,0:0:0:0:
503,109,19672,2,0,P|510:79|513:49,1,57
479,192,20116,6,0,P|471:252|466:315,1,114,2|0,0:0|0:0,0:0:0:0:
396,362,20783,1,2,0:0:0:0:
267,245,21227,1,0,0:0:0:0:
233,163,21449,2,0,P|174:147|116:135,1,114,2|0,0:0|0:0,0:0:0:0:
35,127,22116,38,0,P|30:191|25:302,1,171,2|4,0:0|0:0,0:0:0:0:
118,346,23005,69,0,0:0:0:0:
118,346,23116,1,0,0:0:0:0:
118,346,23227,2,0,P|152:302|182:251,1,114
252,66,23672,1,0,0:0:0:0:
97,109,23894,1,0,0:0:0:0:
322,211,24116,6,0,P|378:226|431:209,1,114
430,209,24449,1,0,0:0:0:0:
430,209,24561,1,0,0:0:0:0:
501,102,24783,1,0,0:0:0:0:
402,319,25005,1,0,0:0:0:0:
324,97,25227,86,0,P|270:81|217:97,1,114,0|4,0:0|0:0,0:0:0:0:
114,156,25672,1,0,0:0:0:0:
114,156,25783,1,0,0:0:0:0:
114,156,25894,1,0,0:0:0:0:
197,274,26116,1,0,0:0:0:0:
56,292,26338,1,0,0:0:0:0:
226,146,26561,1,0,0:0:0:0:
320,265,26783,21,2,0:0:0:0:
340,285,26894,1,2,0:0:0:0:
365,298,27005,1,2,0:0:0:0:
392,303,27116,1,2,0:0:0:0:
420,303,27227,1,2,0:0:0:0:
447,296,27338,1,2,0:0:0:0:
472,283,27449,2,0,P|500:234|510:172,1,114,2|2,0:0|1:2,0:0:0:0:
483,49,27894,1,2,1:2:0:0:
364,146,28116,70,0,P|306:128|262:99,1,114,4|0,0:0|0:0,0:0:0:0:
240,79,28449,1,0,0:0:0:0:
240,79,28561,1,0,0:0:0:0:
312,9,28783,1,0,0:0:0:0:
221,187,29005,2,0,P|212:246|232:296,1,114
352,359,29449,21,2,0:0:0:0:
427,300,29672,1,0,0:0:0:0:
498,241,29894,1,2,0:0:0:0:
406,209,30116,1,2,0:0:0:0:
397,181,30227,1,2,0:0:0:0:
388,153,30338,1,2,0:0:0:0:
379,125,30449,1,2,0:0:0:0:
370,97,30561,1,2,0:0:0:0:
361,69,30672,1,2,0:0:0:0:
352,41,30783,70,0,B|308:27|308:27|236:20,1,114,6|0,0:2|0:0,0:0:0:0:
212,19,31116,1,0,0:0:0:0:
212,19,31227,1,0,0:0:0:0:
75,64,31449,1,0,0:0:0:0:
162,179,31672,2,0,P|169:239|141:282,1,114
38,331,32116,1,0,0:0:0:0:
32,215,32338,1,0,0:0:0:0:
32,215,32449,1,0,0:0:0:0:
32,215,32561,1,0,0:0:0:0:
245,349,32783,5,0,0:0:0:0:
394,325,33005,1,0,0:0:0:0:
299,225,33227,1,0,0:0:0:0:
441,160,33449,22,0,P|448:111|435:63,1,100.320003061524,4|0,0:0|0:0,0:0:0:0:
334,12,33894,1,0,0:0:0:0:
237,91,34116,2,0,P|212:181|182:287,1,200.640006123047,0|0,1:0|0:0,0:0:0:0:
158,371,34783,1,0,0:0:0:0:
252,352,35005,1,0,0:0:0:0:
256,351,35116,1,0,0:0:0:0:
260,350,35227,1,0,0:0:0:0:
369,298,35449,5,0,1:0:0:0:
329,196,35672,2,0,P|315:144|326:99,1,100.320003061524,0|0,0:0|1:0,0:0:0:0:
483,178,36116,2,0,P|508:282|479:372,1,200.640006123047
398,337,36783,1,0,1:0:0:0:
340,241,37005,1,0,0:0:0:0:
226,284,37227,1,0,0:0:0:0:
212,140,37449,69,2,0:0:0:0:
191,124,37561,1,2,0:0:0:0:
167,114,37672,1,2,0:0:0:0:
142,110,37783,1,2,0:0:0:0:
116,110,37894,1,2,0:0:0:0:
91,115,38005,1,2,0:0:0:0:
67,123,38116,2,0,P|42:167|24:213,1,100.320003061524,2|2,1:2|1:2,1:2:0:0:
51,345,38561,1,2,1:2:0:0:
254,214,38783,6,0,P|333:189|445:214,1,200.640006123047,4|0,0:2|0:0,0:0:0:0:
445,214,39338,1,0,0:0:0:0:
445,214,39449,1,0,1:0:0:0:
303,333,39672,2,0,P|260:345|206:330,1,100.320003061524
82,223,40116,2,0,B|131:225|206:239|240:303|206:332,1,200.640006123047,0|0,0:0|0:0,0:0:0:0:
82,223,40783,2,0,P|65:181|70:126,1,100.320003061524,0|0,1:0|0:0,0:0:0:0:
148,13,41227,1,0,1:0:0:0:
216,134,41449,6,0,P|284:161|401:114,1,200.640006123047
459,50,42116,1,0,1:0:0:0:
359,313,42561,1,0,0:0:0:0:
241,239,42783,69,2,0:0:0:0:
216,234,42894,1,2,0:0:0:0:
191,229,43005,1,2,0:0:0:0:
166,224,43116,1,2,0:0:0:0:
141,219,43227,1,2,0:0:0:0:
116,214,43338,1,2,0:0:0:0:
91,209,43449,2,0,P|60:166|36:121,1,100.320003061524,2|2,1:2|1:2,0:0:0:0:
114,21,43894,1,2,1:2:0:0:
249,135,44116,6,0,P|353:166|436:129,1,200.640006123047,4|0,0:0|0:0,0:0:0:0:
433,131,44672,1,0,0:0:0:0:
433,131,44783,1,0,1:0:0:0:
249,135,45005,2,0,P|233:179|247:229,1,100.320003061524
347,71,45449,2,0,P|286:39|158:58,1,200.640006123047
75,130,46116,1,0,1:0:0:0:
134,232,46338,1,0,0:0:0:0:
27,294,46561,1,0,1:0:0:0:
238,237,46783,6,0,B|314:243|397:276|379:278|379:278|402:286|424:293,1,200.640006123047
510,322,47449,1,0,1:0:0:0:
374,53,47894,1,0,0:0:0:0:
276,139,48116,69,2,0:0:0:0:
264,161,48227,1,2,0:0:0:0:
253,183,48338,1,2,0:0:0:0:
243,206,48449,1,2,0:0:0:0:
234,229,48561,1,2,0:0:0:0:
224,252,48672,1,2,0:0:0:0:
215,275,48783,1,2,1:2:0:0:
177,368,49005,1,2,1:2:0:0:
289,352,49227,1,2,1:2:0:0:
114,251,49449,6,0,B|77:197|36:120|42:121|42:121|40:102|38:70,1,200.640006123047,4|0,0:0|0:0,0:0:0:0:
173,135,50116,2,0,P|227:176|339:249,1,200.640006123047,0|0,1:0|0:0,0:0:0:0:
427,296,50783,1,0,0:0:0:0:
421,191,51005,1,0,0:0:0:0:
420,186,51116,1,0,0:0:0:0:
419,181,51227,1,0,0:0:0:0:
409,70,51449,1,0,1:0:0:0:
427,296,51672,6,0,P|383:312|331:303,1,100.320003061524,0|0,0:0|1:0,0:0:0:0:
224,264,52116,2,0,B|213:247|213:247|214:209|214:209|188:161|169:74,1,200.640006123047
251,51,52783,1,0,1:0:0:0:
59,193,53227,1,0,0:0:0:0:
97,291,53449,69,2,0:0:0:0:
114,309,53561,1,2,0:0:0:0:
137,318,53672,1,2,0:0:0:0:
161,322,53783,1,2,0:0:0:0:
185,318,53894,1,2,0:0:0:0:
209,311,54005,1,2,0:0:0:0:
229,297,54116,1,2,1:2:0:0:
257,165,54338,1,2,1:2:0:0:
368,323,54561,1,2,1:2:0:0:
432,161,54783,70,0,P|451:107|465:50,1,114,4|0,0:2|0:0,0:0:0:0:
464,51,55116,1,0,0:0:0:0:
464,51,55227,1,0,0:0:0:0:
296,76,55449,1,0,0:0:0:0:
274,266,55672,2,0,P|323:286|379:265,1,114
187,175,56116,5,0,0:0:0:0:
95,314,56338,1,0,0:0:0:0:
95,314,56449,1,0,0:0:0:0:
95,314,56561,1,0,0:0:0:0:
29,181,56783,1,0,0:0:0:0:
187,175,57005,2,0,P|204:122|189:65,1,114
52,22,57449,85,4,0:2:0:0:
109,232,57672,1,0,0:0:0:0:
109,232,57783,1,0,0:0:0:0:
109,232,57894,1,0,0:0:0:0:
292,137,58116,1,0,0:0:0:0:
329,323,58338,2,0,P|384:340|436:323,1,114
508,204,58783,5,0,0:0:0:0:
409,47,59005,1,0,0:0:0:0:
409,47,59116,1,0,0:0:0:0:
409,47,59227,1,0,0:0:0:0:
348,214,59449,2,0,B|326:239|283:257|283:257|298:218|278:171|278:171|258:214|235:229|235:229|225:189|205:174|205:174|169:207|112:192,1,399.000015220643,0|0,0:0|2:0,0:0:0:0:
22,109,60116,22,0,B|11:174|11:174|19:196|19:196|1:336,1,228,4|0,0:2|0:0,0:0:0:0:
98,158,60783,2,0,L|113:42,2,114,2|0|0,0:2|0:0|0:0,0:0:0:0:
179,317,61449,2,0,L|194:201,1,114,2|0,0:2|0:0,0:0:0:0:
193,203,61783,1,0,0:0:0:0:
193,203,61894,1,0,0:0:0:0:
275,67,62116,1,2,0:2:0:0:
275,67,62338,1,0,0:0:0:0:
381,142,62561,1,0,0:0:0:0:
460,58,62783,5,2,0:2:0:0:
294,157,63005,1,0,0:0:0:0:
451,264,63227,1,0,0:0:0:0:
363,80,63449,1,2,0:2:0:0:
349,243,63672,1,0,0:0:0:0:
494,162,63894,1,0,0:0:0:0:
294,157,64116,6,0,P|234:166|181:181,1,114,2|0,0:2|0:0,0:0:0:0:
162,190,64449,1,0,0:0:0:0:
162,190,64561,1,0,0:0:0:0:
67,260,64783,1,2,0:2:0:0:
15,159,65005,1,0,0:0:0:0:
67,260,65227,1,0,0:0:0:0:
84,79,65449,6,0,P|190:43|305:16,1,228,6|0,0:2|0:0,0:0:0:0:
459,143,66116,1,2,0:2:0:0:
485,242,66338,1,0,0:0:0:0:
459,143,66561,1,0,0:0:0:0:
485,242,66783,2,0,P|379:278|264:305,1,228,2|0,0:2|0:0,0:0:0:0:
154,315,67449,1,2,0:2:0:0:
198,205,67672,1,0,0:0:0:0:
154,315,67894,1,0,0:0:0:0:
197,205,68116,54,0,B|220:152|183:112|183:112|204:43|276:40,1,228,2|0,0:2|0:0,0:3:0:0:
401,49,68783,1,2,0:2:0:0:
381,150,69005,1,0,0:0:0:0:
381,150,69116,1,0,0:0:0:0:
381,150,69227,1,0,0:0:0:0:
496,254,69449,1,2,0:2:0:0:
378,308,69672,1,0,0:0:0:0:
378,308,69783,1,0,0:0:0:0:
378,308,69894,1,0,0:0:0:0:
252,190,70116,85,2,0:2:0:0:
182,348,70338,1,2,0:2:0:0:
252,190,70561,1,2,0:2:0:0:
75,225,70783,22,0,B|38:191|51:143|51:143|97:9,1,228,4|0,0:2|0:0,0:0:0:0:
205,121,71449,1,2,0:2:0:0:
303,47,71672,1,0,0:0:0:0:
173,29,71894,1,0,0:0:0:0:
318,201,72116,1,2,0:2:0:0:
344,115,72338,1,0,0:0:0:0:
215,195,72561,1,0,0:0:0:0:
344,306,72783,1,2,0:2:0:0:
408,233,73005,1,0,0:0:0:0:
249,276,73227,1,0,0:0:0:0:
408,233,73449,6,0,P|438:126|365:45,1,228,2|0,0:2|0:0,0:0:0:0:
249,24,74116,1,2,0:2:0:0:
209,142,74338,2,0,P|152:162|99:148,1,114
291,104,74783,2,0,B|318:159|318:159|337:213,2,114,2|0|0,0:2|0:0|0:0,0:0:0:0:
162,36,75449,1,2,0:2:0:0:
186,125,75672,1,0,0:0:0:0:
30,164,75894,1,0,0:0:0:0:
118,194,76116,6,0,P|149:261|107:352,1,171,6|0,0:2|0:0,0:0:0:0:
95,332,76561,2,0,P|151:320|206:333,1,114,0|2,0:0|0:2,0:0:0:0:
308,371,77005,1,0,0:0:0:0:
412,351,77227,1,0,0:0:0:0:
308,371,77449,2,0,P|295:260|285:142,1,228,2|0,0:2|0:0,0:0:0:0:
475,31,78116,2,0,P|459:134|431:258,1,228,2|0,0:2|0:0,0:0:0:0:
402,351,78783,53,0,0:0:0:0:
285,228,79005,1,2,0:2:0:0:
237,373,79227,1,2,0:2:0:0:
353,284,79449,1,0,0:0:0:0:
214,279,79672,1,2,0:2:0:0:
237,373,79894,1,2,0:2:0:0:
285,228,80116,2,0,P|209:189|79:239,1,228,0|2,0:0|0:2,0:0:0:0:
30,321,80783,1,6,0:2:0:0:
281,44,81449,53,4,0:2:0:0:
357,164,81672,1,0,0:0:0:0:
357,164,81783,1,0,0:0:0:0:
357,164,81894,2,0,P|415:169|467:142,1,114,0|2,0:0|0:2,0:0:0:0:
276,125,82338,2,0,P|237:178|216:224,1,114
186,323,82783,5,0,0:0:0:0:
186,323,82894,1,0,0:0:0:0:
186,323,83005,1,2,0:2:0:0:
305,302,83227,1,0,0:0:0:0:
110,242,83449,6,0,P|92:170|69:75,1,171,2|4,0:2|0:2,0:0:0:0:
176,14,84338,1,0,0:0:0:0:
176,14,84449,1,0,0:0:0:0:
176,14,84561,1,0,0:0:0:0:
176,125,84783,1,2,0:2:0:0:
278,59,85005,2,0,P|335:45|390:36,1,114
498,123,85449,5,2,0:2:0:0:
383,130,85672,1,0,0:0:0:0:
441,214,85894,1,0,0:0:0:0:
374,133,86116,1,2,0:2:0:0:
330,229,86338,1,0,0:0:0:0:
448,210,86561,1,0,0:0:0:0:
266,131,86783,6,0,P|164:135|70:166,1,171,6|0,0:2|0:0,0:0:0:0:
77,162,87227,1,0,0:0:0:0:
132,239,87449,1,2,0:2:0:0:
29,281,87672,1,0,0:0:0:0:
29,281,87783,1,0,0:0:0:0:
29,281,87894,1,0,0:0:0:0:
164,350,88116,6,0,P|221:368|273:353,1,114,2|0,0:2|0:0,0:0:0:0:
370,314,88561,1,0,0:0:0:0:
289,222,88783,1,2,0:2:0:0:
407,201,89005,1,0,0:0:0:0:
207,273,89227,1,0,0:0:0:0:
266,133,89449,6,0,P|284:82|303:25,1,114,6|0,0:2|0:0,0:0:0:0:
302,25,89783,1,0,0:0:0:0:
302,25,89894,1,0,0:0:0:0:
176,104,90116,2,0,P|132:181|62:304,1,228,2|0,0:2|0:0,0:0:0:0:
184,359,90783,1,2,0:2:0:0:
282,288,91005,1,0,0:0:0:0:
184,359,91227,1,0,0:0:0:0:
282,288,91449,2,0,P|326:211|396:88,1,228,2|0,0:2|0:0,0:0:0:0:
284,12,92116,85,6,0:2:0:0:
191,91,92338,1,0,0:0:0:0:
191,91,92449,1,0,0:0:0:0:
191,91,92561,1,0,0:0:0:0:
70,39,92783,1,2,0:2:0:0:
92,146,93005,1,0,0:0:0:0:
70,39,93227,1,0,0:0:0:0:
92,146,93449,2,0,P|119:272|144:373,1,228,2|0,0:2|0:0,0:0:0:0:
289,341,94116,53,2,0:2:0:0:
214,174,94338,1,2,0:2:0:0:
413,144,94561,1,2,0:2:0:0:
272,248,94783,6,0,P|249:137|320:57,1,228,4|0,0:2|0:0,0:0:0:0:
435,253,95449,2,0,P|446:314|431:367,1,114,2|0,0:2|0:0,0:0:0:0:
412,374,95783,1,0,0:0:0:0:
412,374,95894,1,0,0:0:0:0:
266,336,96116,6,0,B|212:316|212:316|202:308|202:308|159:291,1,114,2|0,0:2|0:0,0:0:0:0:
62,254,96561,1,0,0:0:0:0:
216,204,96783,2,0,B|263:186|263:186|279:174|279:174|323:161,1,114,2|0,0:2|0:0,0:0:0:0:
433,136,97227,1,0,0:0:0:0:
258,96,97449,2,0,B|178:77|178:77|128:50|128:50|34:25,1,228,6|0,0:2|0:0,0:0:0:0:
170,165,98116,2,0,L|280:191,1,114,2|0,0:2|0:0,0:0:0:0:
280,191,98449,1,0,0:0:0:0:
280,191,98561,1,0,0:0:0:0:
416,107,98783,6,0,B|443:65|443:65|453:58|453:58|481:10,2,114,2|0|0,0:2|0:0|0:0,0:0:0:0:
436,211,99449,1,2,0:2:0:0:
436,211,99561,1,0,0:0:0:0:
436,211,99672,2,0,B|409:253|409:253|399:260|399:260|372:304,1,114,2|2,0:2|0:2,0:0:0:0:
436,211,100116,6,0,P|340:169|225:126,1,228,4|0,0:2|0:0,0:0:0:0:
114,91,100783,1,2,0:2:0:0:
146,192,101005,1,0,0:0:0:0:
149,202,101116,1,0,0:0:0:0:
152,212,101227,1,0,0:0:0:0:
151,315,101449,2,0,P|95:327|37:299,2,114,2|0|0,0:2|0:0|0:0,0:0:0:0:
261,242,102116,53,2,0:2:0:0:
427,320,102338,1,0,0:0:0:0:
373,110,102561,1,0,0:0:0:0:
261,242,102783,6,0,P|177:211|148:74,1,228,6|0,0:2|0:0,0:0:0:0:
233,28,103449,1,2,0:2:0:0:
358,353,103894,1,2,0:2:0:0:
454,324,104116,2,0,P|488:211|505:96,1,228,2|0,0:2|0:0,0:0:0:0:
382,85,104783,70,0,B|331:74|276:69|228:76|194:121|193:166|231:198,1,256.500009784699,4|4,0:2|0:0,0:0:0:0:
279,256,105672,1,0,0:0:0:0:
345,201,105894,2,0,P|388:189|440:204,1,100.320003061524,0|0,0:0|1:0,0:0:0:0:
356,336,106338,1,0,0:0:0:0:
356,336,106561,2,0,P|304:348|256:333,1,100.320003061524,0|0,0:0|0:0,0:0:0:0:
95,212,107005,1,0,0:0:0:0:
95,212,107116,1,0,0:0:0:0:
95,212,107228,2,0,P|147:200|195:215,1,100.320003061524,0|0,0:0|1:0,0:0:0:0:
300,272,107672,1,0,0:0:0:0:
397,205,107894,1,0,0:0:0:0:
300,272,108116,6,0,P|281:186|257:77,1,200.640006123047,0|0,0:0|0:0,0:0:0:0:
355,156,108783,2,0,P|305:227|232:323,1,200.640006123047,0|0,1:0|0:0,0:0:0:0:
149,366,109449,1,0,0:0:0:0:
72,241,109672,1,0,0:0:0:0:
72,241,109783,1,0,0:0:0:0:
72,241,109894,1,0,0:0:0:0:
187,186,110116,2,0,P|247:159|377:104,1,200.640006123047,0|0,1:0|0:0,0:0:0:0:
471,65,110783,5,0,0:0:0:0:
463,181,111005,1,0,0:0:0:0:
463,181,111227,1,0,0:0:0:0:
363,105,111449,2,0,P|270:77|166:50,1,200.640006123047,0|0,1:0|0:0,0:0:0:0:
46,98,112116,1,0,0:0:0:0:
170,52,112338,1,0,0:0:0:0:
128,167,112561,1,0,0:0:0:0:
46,98,112783,1,0,1:0:0:0:
214,129,113005,1,0,0:0:0:0:
176,250,113227,1,0,0:0:0:0:
102,156,113449,6,0,P|79:235|47:352,1,200.640006123047
162,355,114116,1,0,1:0:0:0:
262,297,114338,2,0,P|308:270|353:247,1,100.320003061524
175,251,114783,2,0,P|248:206|350:148,1,200.640006123047
451,107,115449,1,0,1:0:0:0:
350,30,115672,1,0,0:0:0:0:
451,107,115894,1,2,0:0:0:0:
350,30,116116,6,0,P|293:20|251:14,1,100.320003061524,4|0,0:0|0:0,0:0:0:0:
118,15,116561,1,2,0:0:0:0:
176,109,116783,2,0,P|186:167|169:209,1,100.320003061524,0|0,1:0|0:0,0:0:0:0:
97,282,117227,1,0,0:0:0:0:
176,109,117449,2,0,P|270:87|356:138,1,200.640006123047,2|0,0:0|0:0,0:0:0:0:
381,248,118116,2,0,P|433:254|481:255,2,100.320003061524,0|0|0,1:0|0:0|0:0,0:0:0:0:
283,206,118783,54,0,P|175:168|91:139,1,200.640006123047,2|2,0:0|0:0,0:0:0:0:
4,106,119449,1,0,1:0:0:0:
21,203,119672,1,0,0:0:0:0:
21,203,119783,1,0,0:0:0:0:
21,203,119894,1,0,0:0:0:0:
142,249,120116,1,2,0:0:0:0:
77,328,120338,1,0,0:0:0:0:
77,328,120449,1,0,0:0:0:0:
77,328,120561,1,0,0:0:0:0:
105,161,120783,6,0,P|194:129|292:163,1,200.640006123047,0|0,1:0|0:0,0:0:0:0:
376,256,121449,1,6,0:0:0:0:
455,187,121672,1,0,0:0:0:0:
269,274,121894,1,0,0:0:0:0:
360,110,122116,5,2,1:2:0:0:
376,256,122338,1,0,0:0:0:0:
466,105,122561,1,0,0:0:0:0:
293,187,122783,5,2,0:0:0:0:
286,23,123005,1,0,0:0:0:0:
360,110,123227,1,0,0:0:0:0:
202,164,123449,53,2,1:2:0:0:
116,43,123672,1,0,0:0:0:0:
286,23,123894,1,0,0:0:0:0:
202,164,124116,6,0,P|173:254|230:337,1,200.640006123047,6|0,0:0|0:0,0:0:0:0:
373,361,124783,1,0,1:0:0:0:
444,247,125005,1,0,0:0:0:0:
444,247,125227,1,2,0:0:0:0:
374,75,125449,1,0,0:0:0:0:
295,196,125672,1,0,0:0:0:0:
295,196,125894,1,0,0:0:0:0:
146,58,126116,5,0,1:0:0:0:
128,72,126783,22,0,P|91:167|147:240,1,200.640006123047,4|2,0:0|0:0,0:0:0:0:
318,221,127449,2,0,P|329:164|313:110,1,100.320003061524,0|0,1:0|0:0,0:0:0:0:
242,51,127894,1,0,0:0:0:0:
203,202,128116,2,0,P|193:252|206:302,2,100.320003061524,2|0|0,0:0|0:0|0:0,0:0:0:0:
244,113,128783,1,0,1:0:0:0:
343,170,129005,1,0,0:0:0:0:
420,33,129227,1,0,1:0:0:0:
343,170,129449,6,0,L|326:217,1,50.1600015307618,6|0,0:0|0:0,0:0:0:0:
400,237,129672,2,0,L|383:284,1,50.1600015307618,0|0,0:0|0:0,0:0:0:0:
304,292,129894,2,0,L|284:338,1,50.1600015307618,2|0,0:0|0:0,0:0:0:0:
218,296,130116,2,0,L|195:342,1,50.1600015307618,0|0,1:0|0:0,0:0:0:0:
129,303,130338,2,0,L|106:347,1,50.1600015307618,2|0,0:0|0:0,0:0:0:0:
38,311,130561,2,0,L|17:358,1,50.1600015307618,0|0,0:0|0:0,0:0:0:0:
129,303,130783,2,0,P|161:205|120:122,1,200.640006123047,2|0,0:0|0:0,0:0:0:0:
43,58,131449,85,0,1:0:0:0:
32,182,131672,1,0,0:0:0:0:
199,26,131894,1,0,1:0:0:0:
262,173,132116,22,0,P|344:229|452:174,1,228,4|2,0:0|0:0,0:0:0:0:
411,101,133227,70,0,L|434:55,1,50.1600015307618,2|0,0:0|0:0,0:0:0:0:
346,60,133449,2,0,L|371:15,1,50.1600015307618
267,70,133672,2,0,L|241:114,1,50.1600015307618,2|0,0:0|0:0,0:0:0:0:
178,75,133894,2,0,L|152:119,1,50.1600015307618
204,186,134116,2,0,L|178:230,1,50.1600015307618,0|0,1:0|0:0,0:0:0:0:
111,193,134338,2,0,P|85:234|58:279,1,100.320003061524,2|0,0:0|1:0,0:0:0:0:
177,366,134783,5,6,0:0:0:0:
353,323,135005,2,0,L|388:312,3,33.4400010205078,0|0|0|2,0:0|0:0|0:0|0:0,0:0:0:0:
451,165,135449,1,0,1:0:0:0:
269,96,135672,2,0,L|234:85,3,33.4400010205078,0|0|0|2,0:0|0:0|0:0|0:0,0:0:0:0:
70,74,136116,2,0,B|33:103|17:138|17:138|55:121|102:128|102:128|42:156|42:235,1,300.960009184571,2|0,0:0|1:0,0:0:0:0:
54,346,137005,1,0,0:0:0:0:
54,346,137227,1,0,1:0:0:0:
206,361,137449,85,4,0:0:0:0:
324,296,137672,2,0,L|355:279,3,33.4400010205078,0|0|0|2,0:0|0:0|0:0|0:0,0:0:0:0:
185,219,138116,1,2,1:2:0:0:
109,105,138338,2,0,L|91:74,3,33.4400010205078,0|0|0|2,0:0|0:0|0:0|0:0,0:0:0:0:
304,153,138783,1,2,0:0:0:0:
418,80,139005,2,0,L|449:63,3,33.4400010205078,0|0|0|2,0:0|0:0|0:0|0:0,0:0:0:0:
381,253,139449,1,2,1:2:0:0:
246,170,139672,2,0,L|215:153,3,33.4400010205078,0|0|0|2,0:0|0:0|0:0|1:2,0:0:0:0:
314,325,140116,5,6,0:0:0:0:
334,159,140338,2,0,L|340:127,3,33.4400010205078,0|0|0|2,0:0|0:0|0:0|0:0,0:0:0:0:
220,272,140783,1,2,1:2:0:0:
79,309,141005,2,0,L|46:317,3,33.4400010205078,0|0|0|2,0:0|0:0|0:0|0:0,0:0:0:0:
147,174,141449,1,2,0:0:0:0:
210,53,141672,2,0,L|227:24,3,33.4400010205078,0|0|0|2,0:0|0:0|0:0|0:0,0:0:0:0:
75,119,142116,1,2,1:2:0:0:
224,213,142338,2,0,L|253:234,3,33.4400010205078,0|0|0|0,0:0|0:0|0:0|1:2,0:0:0:0:
283,86,142783,86,0,P|367:54|467:95,1,200.640006123047,4|0,0:0|0:0,0:0:0:0:
491,198,143449,1,0,1:0:0:0:
369,250,143672,1,0,0:0:0:0:
491,198,143894,1,0,0:0:0:0:
369,250,144116,2,0,P|324:264|274:246,1,100.320003061524
194,184,144561,1,0,0:0:0:0:
426,187,144783,2,0,P|451:232|444:281,1,100.320003061524,0|0,1:0|0:0,0:0:0:0:
399,356,145227,1,0,1:0:0:0:
342,167,145449,6,0,P|346:116|357:66,1,100.320003061524,6|0,0:0|0:0,0:0:0:0:
437,34,145894,1,0,1:0:0:0:
266,222,146116,2,0,P|235:177|217:132,1,100.320003061524,2|0,0:0|0:0,0:0:0:0:
267,58,146561,1,0,1:0:0:0:
182,273,146783,1,2,0:0:0:0:
164,282,146894,1,0,0:0:0:0:
145,289,147005,2,0,P|98:290|48:269,1,100.320003061524,4|0,0:0|0:0,0:0:0:0:
154,164,147449,2,0,B|176:144|199:133|199:133|213:154|236:161|236:161|282:136|331:144,1,200.640006123047,4|0,0:0|0:0,0:0:0:0:
464,216,148116,22,0,P|503:121|451:14,1,228,4|0,0:2|0:0,0:0:0:0:
289,27,148783,2,0,P|259:74|231:129,2,114,2|0|0,0:2|0:0|0:0,0:0:0:0:
352,137,149449,2,0,P|363:181|376:248,2,114,2|0|0,0:2|0:0|0:0,0:0:0:0:
254,216,150116,2,0,P|236:276|224:330,1,114,2|0,0:2|0:0,0:0:0:0:
304,378,150561,1,0,0:0:0:0:
437,262,150783,6,0,P|467:209|459:154,1,114,2|0,0:2|0:0,0:0:0:0:
416,52,151227,1,0,0:0:0:0:
286,177,151449,2,0,P|226:191|175:176,1,114,2|0,0:2|0:0,0:0:0:0:
84,133,151894,1,0,0:0:0:0:
266,138,152116,2,0,P|315:246|252:327,1,228,2|0,0:2|0:0,0:0:0:0:
121,347,152783,1,2,0:2:0:0:
79,232,153005,1,0,0:0:0:0:
121,347,153227,1,0,0:0:0:0:
79,232,153449,6,0,P|47:131|13:10,1,228,6|0,0:2|0:0,0:0:0:0:
144,65,154116,1,2,0:2:0:0:
260,111,154338,1,0,0:0:0:0:
165,185,154561,1,0,0:0:0:0:
332,291,154783,1,2,0:2:0:0:
336,183,155005,1,0,0:2:0:0:
244,242,155227,1,0,0:0:0:0:
420,241,155449,2,0,P|453:136|486:22,1,228,2|0,0:2|0:0,0:0:0:0:
363,41,156116,5,2,0:2:0:0:
256,99,156338,1,0,0:0:0:0:
256,99,156449,1,0,0:0:0:0:
256,99,156561,1,0,0:0:0:0:
106,33,156783,1,2,0:2:0:0:
121,144,157005,1,0,0:0:0:0:
121,144,157116,1,0,0:0:0:0:
121,144,157227,1,0,0:0:0:0:
30,236,157449,1,2,0:2:0:0:
147,293,157672,1,0,0:0:0:0:
147,293,157783,1,0,0:0:0:0:
147,293,157894,1,0,0:0:0:0:
257,193,158116,37,2,0:2:0:0:
393,308,158338,1,2,0:2:0:0:
469,107,158561,1,2,0:2:0:0:
257,193,158783,6,0,P|213:102|289:14,1,228,4|0,0:2|0:0,0:0:0:0:
386,108,159449,2,0,P|410:161|429:214,1,114,2|0,0:2|0:0,0:0:0:0:
442,314,159894,1,0,0:0:0:0:
301,232,160116,1,2,0:2:0:0:
266,353,160338,1,0,0:0:0:0:
301,232,160561,1,0,0:0:0:0:
172,188,160783,1,2,0:2:0:0:
196,54,161005,1,0,0:0:0:0:
172,188,161227,1,0,0:0:0:0:
60,247,161449,6,0,P|32:133|8:22,1,228,2|0,0:2|0:0,0:0:0:0:
129,107,162116,1,2,0:2:0:0:
247,174,162338,1,0,0:0:0:0:
129,107,162561,1,0,0:0:0:0:
247,174,162783,2,0,P|349:235|446:294,1,228,2|0,0:2|0:0,0:0:0:0:
417,147,163449,2,0,P|368:116|317:85,1,114,2|0,0:2|0:0,0:0:0:0:
417,147,163894,1,0,0:0:0:0:
214,46,164116,6,0,P|176:89|140:134,2,114,4|0|0,0:2|0:0|0:0,0:0:0:0:
321,190,164783,2,0,P|344:242|365:298,2,114,2|0|0,0:2|0:0|0:0,0:0:0:0:
200,303,165449,2,0,P|157:337|102:329,1,114,2|0,0:2|0:0,0:0:0:0:
6,286,165894,1,0,0:0:0:0:
118,198,166116,2,0,P|167:115|104:12,1,228,2|0,0:2|0:0,0:0:0:0:
24,90,166783,5,2,0:2:0:0:
40,216,167005,1,0,0:0:0:0:
40,216,167227,1,0,0:0:0:0:
211,211,167449,1,2,0:2:0:0:
166,341,167672,1,0,0:0:0:0:
166,341,167894,1,0,0:0:0:0:
343,284,168116,2,0,P|419:187|483:98,1,228,2|0,0:2|0:0,0:0:0:0:
336,38,168783,1,4,0:2:0:0:
336,38,169449,5,6,0:2:0:0:
272,138,169672,1,0,0:0:0:0:
272,138,169783,1,0,0:0:0:0:
272,138,169894,1,0,0:0:0:0:
145,43,170116,1,2,0:2:0:0:
87,173,170338,2,0,P|69:239|90:286,1,114
166,358,170783,1,0,0:2:0:0:
252,279,171005,1,2,0:2:0:0:
166,358,171227,1,0,0:0:0:0:
252,279,171449,22,0,P|320:200|365:146,1,171,2|6,1:2|0:2,2:2:0:0:
399,46,172338,1,0,0:0:0:0:
399,46,172449,1,0,0:0:0:0:
399,46,172561,1,0,0:0:0:0:
282,84,172783,1,2,0:2:0:0:
172,34,173005,2,0,P|142:82|113:132,1,114
53,229,173449,5,2,0:2:0:0:
97,335,173672,1,0,0:0:0:0:
178,246,173894,1,0,0:0:0:0:
216,350,174116,1,2,0:2:0:0:
167,250,174338,1,0,0:0:0:0:
89,339,174561,1,0,0:0:0:0:
227,345,174783,6,0,P|291:315|369:254,1,171,6|0,0:2|0:0,0:0:0:0:
386,238,175227,1,0,0:0:0:0:
321,147,175449,1,2,0:2:0:0:
432,133,175672,1,0,0:0:0:0:
432,133,175783,1,0,0:0:0:0:
432,133,175894,1,0,0:0:0:0:
343,42,176116,6,0,B|286:36|286:36|227:47,1,114,2|0,0:2|0:0,0:0:0:0:
121,75,176561,1,0,0:0:0:0:
194,146,176783,1,2,0:2:0:0:
34,108,177005,1,0,0:0:0:0:
87,231,177227,1,0,0:0:0:0:
200,136,177449,6,0,P|298:120|429:99,1,228,6|0,0:2|0:0,0:0:0:0:
503,187,178116,1,2,0:2:0:0:
243,323,178561,1,0,0:0:0:0:
153,282,178783,2,0,P|93:190|138:91,1,228,2|0,0:2|0:0,0:0:0:0:
254,32,179449,1,2,0:2:0:0:
304,137,179672,1,0,0:0:0:0:
254,32,179894,1,0,0:0:0:0:
304,137,180116,70,0,P|391:178|490:98,1,228,6|0,0:2|0:0,0:0:0:0:
436,25,180783,1,2,0:2:0:0:
304,137,181005,1,0,0:0:0:0:
344,49,181227,1,0,0:0:0:0:
268,226,181449,1,2,0:2:0:0:
187,106,181672,1,0,0:0:0:0:
187,106,181783,1,0,0:0:0:0:
187,106,181894,1,0,0:0:0:0:
90,191,182116,69,2,0:2:0:0:
279,112,182338,1,2,0:2:0:0:
146,29,182561,1,2,0:2:0:0:
419,57,182783,6,0,P|477:148|434:254,1,228,6|0,0:2|0:0,0:0:0:0:
333,309,183449,1,2,0:2:0:0:
328,195,183672,1,0,0:0:0:0:
328,195,183783,1,0,0:0:0:0:
328,195,183894,1,0,0:0:0:0:
205,251,184116,2,0,P|145:261|97:239,1,114,2|0,0:2|0:0,0:0:0:0:
21,169,184561,1,0,0:0:0:0:
113,65,184783,1,2,0:2:0:0:
228,145,185005,1,0,0:0:0:0:
113,162,185227,1,0,0:0:0:0:
216,52,185449,6,0,P|299:20|423:70,1,228,6|0,0:2|0:0,0:0:0:0:
483,152,186116,1,2,0:2:0:0:
373,218,186338,1,0,0:0:0:0:
373,218,186449,1,0,0:0:0:0:
373,218,186561,1,0,0:0:0:0:
273,133,186783,2,0,B|232:124|232:124|202:127|202:127|161:120,1,114,2|0,0:2|0:0,0:0:0:0:
60,97,187227,1,0,0:0:0:0:
162,42,187449,1,2,0:2:0:0:
12,243,187672,1,0,0:0:0:0:
107,189,187894,1,0,0:0:0:0:
173,314,188116,6,0,P|294:345|387:301,1,228,6|0,0:2|0:0,0:0:0:0:
462,240,188783,1,2,0:2:0:0:
267,57,189227,1,0,0:0:0:0:
166,94,189449,2,0,P|123:196|76:306,1,228,2|0,0:2|0:0,0:0:0:0:
212,260,190116,2,0,P|186:321|165:369,1,114,2|0,0:2|0:0,0:0:0:0:
76,303,190561,1,0,0:0:0:0:
237,161,190783,6,0,P|336:124|449:160,1,228,4|0,0:2|0:0,0:0:0:0:
509,231,191449,1,2,0:2:0:0:
509,231,191894,1,2,0:2:0:0:
397,265,192116,5,0,0:0:0:0:
397,265,192227,2,0,B|348:286|348:286|328:304|328:304|285:323,1,125.400003826904
154,333,192672,2,0,L|95:362,1,62.7000019134522
206,229,193005,1,0,0:0:0:0:
206,229,193116,1,0,0:0:0:0:
206,229,193227,2,0,L|264:200,2,62.7000019134522
203,105,193894,38,0,P|153:86|87:106,2,125.400003826904,4|2|0,0:2|0:2|0:0,0:0:0:0:
345,200,194560,1,2,0:2:0:0:
345,200,194671,1,0,0:0:0:0:
345,200,194782,2,0,P|386:147|385:89,1,125.400003826904,0|2,0:0|0:2,0:0:0:0:
371,77,195116,2,0,P|400:146|505:164,1,188.100005740357,0|2,0:0|0:2,0:0:0:0:
263,150,195671,6,0,P|236:215|216:267,1,125.400003826904,0|2,0:2|0:2,0:0:0:0:
183,362,196116,1,0,0:0:0:0:
183,362,196227,1,0,0:0:0:0:
183,362,196338,1,2,0:2:0:0:
79,310,196560,1,0,0:0:0:0:
139,201,196782,1,2,0:2:0:0:
139,201,196894,2,0,P|145:108|66:73,1,188.100005740357,0|2,0:0|0:2,0:0:0:0:
245,131,197449,6,0,P|289:145|365:130,1,125.400003826904,4|2,0:2|0:2,0:0:0:0:
382,122,197782,1,0,0:0:0:0:
382,122,197894,1,0,0:0:0:0:
473,70,198116,1,2,0:2:0:0:
333,39,198338,1,0,0:0:0:0:
384,231,198560,1,2,0:2:0:0:
384,231,198671,1,0,0:0:0:0:
384,231,198782,1,0,0:0:0:0:
196,185,199005,1,2,0:2:0:0:
382,122,199227,6,0,B|433:142|433:142|445:157|445:157|495:174,1,125.400003826904,0|2,0:0|0:2,0:0:0:0:
304,173,199671,2,0,B|253:153|253:153|241:138|241:138|191:121,1,125.400003826904,0|2,0:0|0:2,0:0:0:0:
174,116,200005,1,0,0:0:0:0:
174,116,200116,1,0,0:0:0:0:
49,213,200338,1,2,0:2:0:0:
178,227,200560,1,2,0:2:0:0:
180,245,200671,1,0,0:2:0:0:
182,263,200782,1,2,0:2:0:0:
185,282,200894,1,2,0:2:0:0:
187,300,201005,54,0,P|137:332|75:322,1,125.400003826904,4|2,0:2|0:2,0:0:0:0:
251,229,201449,1,0,0:0:0:0:
119,142,201671,1,2,0:2:0:0:
119,142,201782,1,0,0:0:0:0:
119,142,201894,2,0,P|108:78|138:26,1,125.400003826904,0|2,0:0|0:2,0:0:0:0:
154,21,202227,2,0,P|104:72|1:44,1,188.100005740357,0|2,0:0|0:2,0:0:0:0:
221,133,202782,6,0,P|238:198|218:252,1,125.400003826904,0|2,0:0|0:2,0:0:0:0:
143,326,203227,1,0,0:0:0:0:
143,326,203338,1,0,0:0:0:0:
143,326,203449,1,2,0:2:0:0:
294,315,203671,2,0,P|359:308|418:321,1,125.400003826904,0|2,0:0|0:2,0:0:0:0:
412,339,204005,2,0,P|362:270|403:175,1,188.100005740357,0|2,0:0|0:2,0:0:0:0:
489,101,204560,5,4,0:2:0:0:
376,32,204782,1,2,0:2:0:0:
376,32,204894,1,0,0:0:0:0:
376,32,205005,1,0,0:0:0:0:
324,162,205227,1,2,0:2:0:0:
431,190,205449,1,0,0:0:0:0:
263,69,205671,1,2,0:2:0:0:
263,69,205782,1,0,0:0:0:0:
263,69,205894,1,0,0:0:0:0:
257,259,206116,1,2,0:2:0:0:
256,192,206338,12,4,207227,0:0:0:0:
171,322,207449,5,0,0:2:0:0:
162,305,207560,1,0,0:2:0:0:
153,287,207672,1,2,0:2:0:0:
145,269,207783,1,0,0:2:0:0:
137,251,207894,1,2,0:2:0:0:
129,233,208005,1,2,0:2:0:0:
121,215,208116,54,0,B|105:174|105:174|103:146|103:146|83:96,1,125.400003826904,4|2,0:2|0:2,0:0:0:0:
41,16,208560,1,0,0:0:0:0:
186,72,208782,1,2,0:2:0:0:
186,72,208894,1,0,0:0:0:0:
186,72,209005,2,0,P|254:91|303:69,1,125.400003826904,0|2,0:0|0:2,0:0:0:0:
316,58,209338,2,0,P|255:96|258:207,1,188.100005740357,0|2,0:2|0:2,0:0:0:0:
420,116,209893,6,0,P|460:75|502:20,1,125.400003826904,0|2,0:0|0:2,0:0:0:0:
336,154,210338,1,0,0:0:0:0:
199,81,210560,1,2,0:2:0:0:
199,81,210671,1,0,0:0:0:0:
199,81,210782,2,0,P|173:139|194:193,1,125.400003826904,0|2,0:0|0:2,0:0:0:0:
208,206,211116,2,0,P|152:148|45:160,1,188.100005740357,0|2,0:0|0:2,0:0:0:0:
147,297,211671,5,4,0:2:0:0:
266,286,211893,1,2,0:2:0:0:
266,286,212005,1,0,0:0:0:0:
266,286,212116,1,0,0:0:0:0:
320,167,212338,1,2,0:2:0:0:
423,244,212560,1,0,0:0:0:0:
228,141,212782,1,2,0:2:0:0:
394,58,213005,1,0,0:0:0:0:
341,254,213227,5,2,0:2:0:0:
341,254,213338,1,0,0:0:0:0:
341,254,213449,2,0,P|281:268|223:234,1,125.400003826904,0|2,0:0|0:2,0:0:0:0:
176,143,213893,1,0,0:0:0:0:
47,212,214116,1,2,0:2:0:0:
47,212,214227,1,0,0:0:0:0:
47,212,214338,1,0,0:0:0:0:
38,63,214560,1,2,0:2:0:0:
176,143,214782,1,2,0:2:0:0:
182,160,214893,1,0,0:0:0:0:
184,178,215005,1,2,0:2:0:0:
182,196,215116,1,2,0:2:0:0:
177,214,215227,54,0,B|149:271|129:294|129:294|135:306|135:306|118:321,1,125.400003826904,4|2,0:2|0:2,0:0:0:0:
264,244,215671,1,0,0:0:0:0:
264,244,215893,2,0,P|321:232|384:249,1,125.400003826904,2|0,0:2|0:0,0:0:0:0:
296,142,216338,1,2,0:2:0:0:
296,142,216449,2,0,P|277:65|352:-3,1,188.100005740357,0|2,0:0|0:2,0:0:0:0:
467,161,217005,6,0,P|482:225|455:282,1,125.400003826904,0|2,0:0|0:2,0:0:0:0:
376,348,217449,1,0,0:0:0:0:
282,242,217671,1,2,0:2:0:0:
282,242,217782,1,0,0:0:0:0:
282,242,217893,2,0,P|221:223|165:244,1,125.400003826904,0|2,0:0|0:2,0:0:0:0:
149,254,218227,2,0,P|209:188|184:95,1,188.100005740357,0|2,0:0|0:2,0:0:0:0:
54,27,218782,5,4,0:2:0:0:
22,147,219005,1,2,0:2:0:0:
22,147,219116,1,0,0:0:0:0:
22,147,219227,1,0,0:0:0:0:
187,98,219449,1,2,0:2:0:0:
275,225,219671,1,0,0:0:0:0:
142,213,219893,1,2,0:2:0:0:
142,213,220005,1,0,0:0:0:0:
142,213,220116,1,0,0:0:0:0:
316,115,220338,1,2,0:2:0:0:
416,200,220560,6,0,P|429:263|402:318,1,125.400003826904,0|2,0:0|0:2,0:0:0:0:
293,354,221005,1,0,0:2:0:0:
293,354,221116,1,0,0:0:0:0:
293,354,221227,1,2,0:2:0:0:
293,354,221338,1,2,0:2:0:0:
293,354,221449,38,0,B|217:360|152:311|142:210|210:149|210:149|174:182|113:180|57:147|50:87,1,501.600015307618,4|4,0:2|0:2,0:0:0:0:
