osu file format v14

[General]
AudioFilename: Minamo no Sakura, Yume wa Sakayume.mp3
AudioLeadIn: 0
PreviewTime: 39368
Countdown: 0
SampleSet: None
StackLeniency: 0.7
Mode: 0
LetterboxInBreaks: 0
WidescreenStoryboard: 1

[Editor]
Bookmarks: 10568
DistanceSpacing: 1.1
BeatDivisor: 4
GridSize: 8
TimelineZoom: 1.8

[Metadata]
Title:Minamo no Sakura, Yume wa Sakayume
TitleUnicode:水面の桜、夢は逆夢
Artist:otetsu
ArtistUnicode:otetsu
Creator:Awaken
Version:7.47
Source:
Tags:
BeatmapID:933268
BeatmapSetID:432847

[Difficulty]
HPDrainRate:7
CircleSize:4
OverallDifficulty:8.5
ApproachRate:9.3
SliderMultiplier:1.58
SliderTickRate:1

[Events]
//Background and Video events
0,0,"Konachan.com - 190303 cherry_blossoms forest long_hair original petals scenic topipan tree water wings.jpg",0,0
//Break Periods
//Storyboard Layer 0 (Background)
//Storyboard Layer 1 (Fail)
//Storyboard Layer 2 (Pass)
//Storyboard Layer 3 (Foreground)
//Storyboard Sound Samples

[TimingPoints]
10620,300,4,1,0,100,1,0
10620,-200,4,2,0,35,0,0
39420,-100,4,2,0,35,0,0
63420,-100,4,2,0,35,0,0
82620,-133.333333333333,4,2,0,35,0,0
91620,-200,4,2,0,35,0,0
94620,-80,4,2,0,35,0,1
113220,-74.0740740740741,4,2,0,35,0,1
113520,-68.9655172413793,4,2,0,35,0,1
113745,-68.9655172413793,4,2,0,35,0,0
113820,-55.5555555555556,4,2,0,35,0,1
133170,-55.5555555555556,4,2,0,5,0,0

[Colours]
Combo1 : 255,128,255
Combo2 : 0,64,128
Combo3 : 255,128,0

[HitObjects]
97,67,10620,6,0,B|84:125|84:125|94:165|94:165|79:227,1,158
348,332,11520,1,0,0:0:0:0:
348,332,11820,2,0,L|343:245,1,79
460,154,12270,1,0,0:0:0:0:
460,154,12420,2,0,L|457:247,1,79
232,275,13020,6,0,B|135:242|175:299|68:272,1,158
120,153,13770,2,0,L|119:193,1,39.5
77,73,14070,2,0,L|76:47,2,19.75
352,211,14520,5,0,0:0:0:0:
275,150,14670,1,0,0:0:0:0:
232,275,14820,1,0,0:0:0:0:
232,275,15120,5,0,0:0:0:0:
378,324,15270,1,0,0:0:0:0:
159,316,15420,2,0,P|151:283|161:240,1,79
34,192,15870,1,0,0:0:0:0:
111,72,16020,2,0,P|119:105|109:148,1,79
297,132,16470,1,0,0:0:0:0:
238,190,16620,2,0,P|220:156|220:113,1,79
374,213,17070,1,0,0:0:0:0:
491,149,17220,6,0,L|489:198,1,39.5
401,90,17520,2,0,L|403:141,1,39.5
487,55,17820,2,0,B|450:63|450:63|320:44,1,158
296,251,18720,6,0,P|251:172|347:200,1,237
203,350,19920,2,0,L|155:346,1,39.5
103,268,20220,6,0,L|188:260,1,79
343,330,20670,1,0,0:0:0:0:
414,379,20820,2,0,P|429:337|421:298,1,79
264,285,21270,1,0,0:0:0:0:
336,203,21420,2,0,L|335:256,1,39.5
204,172,21720,2,0,L|210:218,1,39.5
342,226,22020,2,0,L|343:187,1,39.5
211,156,22320,2,0,L|217:202,1,39.5
368,110,22620,6,0,B|376:73|376:73|371:22,1,79
267,89,23070,1,0,0:0:0:0:
336,203,23220,2,0,L|284:195,1,39.5
226,292,23520,2,0,L|277:289,1,39.5
334,349,23820,6,0,P|378:350|418:337,1,79
482,279,24270,1,0,0:0:0:0:
496,199,24420,1,0,0:0:0:0:
496,181,24720,6,0,L|483:143,1,39.5
422,94,25020,2,0,P|385:87|346:100,1,79
239,160,25470,1,0,0:0:0:0:
260,38,25620,2,0,L|265:88,1,39.5
322,224,25920,2,0,L|325:168,1,39.5
154,147,26220,6,0,B|150:178|150:178|157:195|157:195|155:231,1,79
155,308,26670,1,0,0:0:0:0:
237,243,26820,2,0,L|246:290,1,39.5
330,307,27120,2,0,L|325:351,1,39.5
416,285,27420,6,0,B|383:177|435:233|403:117,1,158
501,190,28170,2,0,L|496:230,1,39.5
332,171,28470,2,0,L|327:152,2,19.75
330,140,28920,1,0,0:0:0:0:
248,173,29070,1,0,0:0:0:0:
160,180,29220,1,0,0:0:0:0:
145,178,29520,2,0,L|95:169,1,39.5
91,276,29820,6,0,L|181:268,1,79
345,301,30270,1,0,0:0:0:0:
261,334,30420,2,0,P|257:290|275:244,1,79
278,244,31020,6,0,B|284:211|284:211|279:154,1,79
401,208,31470,1,0,0:0:0:0:
366,84,31620,2,0,L|363:123,1,39.5
494,219,31920,1,0,0:0:0:0:
460,126,32070,1,0,0:0:0:0:
443,288,32220,6,0,P|419:297|358:286,1,79
279,373,32670,1,0,0:0:0:0:
373,378,32820,2,0,L|393:383,2,19.75
281,280,33120,2,0,L|242:286,1,39.5
169,363,33420,6,0,P|131:348|81:357,1,79
81,220,33870,1,0,0:0:0:0:
81,220,34020,2,0,P|66:175|71:143,1,79
161,47,34470,5,0,0:0:0:0:
161,47,34620,2,0,P|231:42|244:178,1,237
246,176,35820,6,0,B|281:148|278:107|278:107|221:91|165:115|172:191|172:191|191:223|183:265,1,316
178,269,37320,1,0,0:0:0:0:
97,315,37620,1,0,0:0:0:0:
1,244,37920,1,0,0:0:0:0:
61,109,38220,6,0,B|121:115|121:115|163:99|163:99|230:108,1,158
225,110,39120,6,0,L|300:96,1,59.25
294,96,39420,5,0,0:0:0:0:
191,207,39570,1,0,0:0:0:0:
191,207,39645,1,0,0:0:0:0:
191,207,39720,1,0,0:0:0:0:
358,299,39870,1,0,0:0:0:0:
286,187,40020,5,0,0:0:0:0:
267,325,40170,1,0,0:0:0:0:
286,187,40320,1,0,0:0:0:0:
267,325,40470,1,0,0:0:0:0:
362,143,40620,5,0,0:0:0:0:
432,254,40770,1,0,0:0:0:0:
432,254,40845,1,0,0:0:0:0:
432,254,40920,1,0,0:0:0:0:
392,62,41070,1,0,0:0:0:0:
286,187,41220,5,0,0:0:0:0:
468,176,41370,1,0,0:0:0:0:
286,187,41520,1,0,0:0:0:0:
468,176,41670,1,0,0:0:0:0:
288,96,41820,5,0,0:0:0:0:
348,284,41970,1,0,0:0:0:0:
348,284,42045,1,0,0:0:0:0:
348,284,42120,1,0,0:0:0:0:
206,208,42270,1,0,0:0:0:0:
362,143,42420,5,0,0:0:0:0:
259,273,42570,1,0,0:0:0:0:
155,128,42720,1,0,0:0:0:0:
286,187,42870,1,0,0:0:0:0:
211,44,43020,5,0,0:0:0:0:
155,128,43170,1,0,0:0:0:0:
155,128,43245,1,0,0:0:0:0:
155,128,43320,1,0,0:0:0:0:
119,42,43470,1,0,0:0:0:0:
116,208,43620,5,0,0:0:0:0:
134,214,43695,1,0,0:0:0:0:
153,215,43770,1,0,0:0:0:0:
172,212,43845,1,0,0:0:0:0:
191,206,43920,5,0,0:0:0:0:
226,187,43995,1,0,0:0:0:0:
272,178,44070,1,0,0:0:0:0:
326,187,44145,1,0,0:0:0:0:
374,229,44220,6,0,L|368:321,1,79
478,154,44520,2,0,L|472:246,1,79
277,99,44820,2,0,L|271:191,1,79
392,19,45120,2,0,L|386:111,1,79
184,120,45420,1,0,0:0:0:0:
288,260,45570,1,0,0:0:0:0:
288,260,45645,1,0,0:0:0:0:
288,260,45720,1,0,0:0:0:0:
216,44,45870,1,0,0:0:0:0:
208,204,46020,6,0,L|120:196,1,79
325,176,46320,2,0,L|403:183,1,79
227,324,46620,5,0,0:0:0:0:
345,348,46770,1,0,0:0:0:0:
221,310,46920,1,0,0:0:0:0:
342,338,47070,1,0,0:0:0:0:
134,331,47220,5,0,0:0:0:0:
288,260,47370,1,0,0:0:0:0:
129,319,47520,1,0,0:0:0:0:
284,247,47670,1,0,0:0:0:0:
147,156,47820,1,0,0:0:0:0:
202,226,47970,1,0,0:0:0:0:
202,226,48045,1,0,0:0:0:0:
202,226,48120,1,0,0:0:0:0:
176,74,48270,1,0,0:0:0:0:
73,191,48420,5,0,0:0:0:0:
231,141,48570,1,0,0:0:0:0:
264,162,48645,1,0,0:0:0:0:
302,168,48720,1,0,0:0:0:0:
341,167,48795,1,0,0:0:0:0:
378,153,48870,1,0,0:0:0:0:
479,239,49020,6,0,L|468:322,1,79
290,325,49320,2,0,L|283:246,1,79
384,292,49620,2,0,L|373:375,1,79
195,378,49920,2,0,L|188:299,1,79
101,133,50220,6,0,P|59:178|100:267,1,158
226,202,50670,1,0,0:0:0:0:
226,202,50745,1,0,0:0:0:0:
226,202,50820,2,0,L|219:122,1,79
353,43,51120,2,0,L|344:126,1,79
482,277,51420,2,0,P|427:240|322:262,1,158
181,371,51870,5,0,0:0:0:0:
181,371,51945,1,0,0:0:0:0:
181,371,52020,2,0,P|185:332|176:287,1,79
32,161,52320,2,0,P|28:200|37:245,1,79
258,196,52620,1,0,0:0:0:0:
188,45,52770,1,0,0:0:0:0:
188,45,52845,1,0,0:0:0:0:
188,45,52920,1,0,0:0:0:0:
112,203,53070,1,0,0:0:0:0:
265,100,53220,5,0,0:0:0:0:
188,238,53370,1,0,0:0:0:0:
192,257,53445,1,0,0:0:0:0:
197,276,53520,2,0,L|249:272,1,39.5
349,199,53670,2,0,L|400:208,1,39.5
179,130,53820,6,0,L|94:117,1,79
357,115,54120,2,0,L|435:126,1,79
314,297,54420,1,0,0:0:0:0:
258,196,54570,1,0,0:0:0:0:
231,363,54720,1,0,0:0:0:0:
401,282,54870,1,0,0:0:0:0:
199,275,55020,6,0,L|110:265,1,79
120,266,55245,1,0,0:0:0:0:
120,266,55320,1,0,0:0:0:0:
52,130,55470,1,0,0:0:0:0:
6,340,55620,1,0,0:0:0:0:
34,215,55770,1,0,0:0:0:0:
34,215,55845,1,0,0:0:0:0:
34,215,55920,2,0,L|37:260,1,39.5
144,179,56070,2,0,L|141:139,1,39.5
255,82,56220,6,0,B|301:90|301:90|338:117,1,79
461,253,56520,2,0,B|415:245|415:245|378:218,1,79
199,275,56820,2,0,L|205:368,1,79
204,353,57045,1,0,0:0:0:0:
204,353,57120,1,0,0:0:0:0:
241,186,57270,1,0,0:0:0:0:
120,266,57420,5,0,0:0:0:0:
293,341,57570,1,0,0:0:0:0:
293,341,57645,1,0,0:0:0:0:
293,341,57720,1,0,0:0:0:0:
389,226,57870,1,0,0:0:0:0:
258,105,58020,1,0,0:0:0:0:
312,258,58170,1,0,0:0:0:0:
321,167,58320,1,0,0:0:0:0:
226,273,58470,1,0,0:0:0:0:
379,309,58620,6,0,P|431:299|469:198,1,158
321,167,59070,1,0,0:0:0:0:
409,61,59220,2,0,L|414:156,1,79
413,139,59445,1,0,0:0:0:0:
413,139,59520,1,0,0:0:0:0:
291,23,59670,1,0,0:0:0:0:
242,190,59820,6,0,L|154:186,1,79
90,344,60120,1,0,0:0:0:0:
56,200,60270,1,0,0:0:0:0:
56,200,60345,1,0,0:0:0:0:
56,200,60420,2,0,L|49:110,1,79
201,295,60720,2,0,L|284:289,1,79
295,123,61020,6,0,P|241:105|161:175,1,158
376,183,61470,1,0,0:0:0:0:
376,183,61545,1,0,0:0:0:0:
376,183,61620,2,0,P|392:148|386:93,1,79
322,258,61920,2,0,L|336:348,1,79
244,208,62220,5,0,0:0:0:0:
418,288,62370,1,0,0:0:0:0:
418,288,62445,1,0,0:0:0:0:
418,288,62520,1,0,0:0:0:0:
484,160,62670,1,0,0:0:0:0:
308,130,62820,5,0,0:0:0:0:
492,243,62970,1,0,0:0:0:0:
492,243,63045,1,0,0:0:0:0:
492,243,63120,1,0,0:0:0:0:
345,345,63270,1,0,0:0:0:0:
397,184,63420,6,0,L|405:23,1,158
229,88,63870,2,0,P|221:134|246:183,1,79
424,384,64170,2,0,P|432:338|407:289,1,79
237,174,64470,1,0,0:0:0:0:
351,255,64620,6,0,B|311:241|311:241|263:290|191:267,1,158
81,140,65070,1,0,0:0:0:0:
81,140,65145,1,0,0:0:0:0:
81,140,65220,2,0,L|76:227,1,79
237,174,65520,2,0,L|241:95,1,79
145,288,65820,6,0,P|221:291|286:354,1,158
467,267,66270,1,0,0:0:0:0:
346,176,66420,2,0,L|351:265,1,79
467,167,66720,2,0,L|462:88,1,79
396,334,67020,6,0,P|336:343|259:282,1,158
130,318,67470,1,0,0:0:0:0:
130,318,67545,1,0,0:0:0:0:
130,318,67620,2,0,P|141:266|131:222,1,79
51,93,67920,2,0,P|40:145|50:189,1,79
306,154,68220,6,0,P|249:122|150:150,1,158
264,269,68670,1,0,0:0:0:0:
412,226,68820,2,0,L|423:138,1,79
409,343,69120,2,0,B|368:333|368:333|308:342,1,79
172,296,69420,6,0,P|107:299|54:205,1,158
232,123,69870,1,0,0:0:0:0:
136,220,70020,1,0,0:0:0:0:
133,118,70170,1,0,0:0:0:0:
239,218,70320,1,0,0:0:0:0:
64,170,70470,1,0,0:0:0:0:
191,42,70620,5,0,0:0:0:0:
201,28,70920,2,0,L|209:112,1,79
340,219,71220,2,0,L|347:140,1,79
186,288,71520,2,0,L|193:366,1,79
430,361,71820,6,0,P|383:323|281:333,1,158
289,327,72270,1,0,0:0:0:0:
499,271,72420,1,0,0:0:0:0:
187,289,72570,6,0,L|106:277,1,79
101,270,73020,2,0,B|166:258|166:258|206:270|206:270|266:255,1,158
275,114,73470,1,0,0:0:0:0:
361,282,73620,2,0,L|370:366,1,79
433,194,73920,2,0,L|424:115,1,79
361,282,74220,6,0,P|441:301|510:269,1,158
335,176,74670,1,0,0:0:0:0:
267,321,74820,2,0,L|261:243,1,79
166,186,75120,2,0,L|159:264,1,79
202,377,75420,6,0,B|187:331|147:315|147:315|119:334|72:325,1,158
281,205,75870,2,0,L|371:210,1,79
98,138,76170,2,0,P|81:173|90:224,1,79
307,303,76470,1,0,0:0:0:0:
184,101,76620,6,0,L|192:281,1,158
414,352,77070,1,0,0:0:0:0:
414,352,77145,1,0,0:0:0:0:
414,352,77220,2,0,L|421:270,1,79
191,258,77520,2,0,L|197:336,1,79
405,114,77820,6,0,P|362:95|266:139,1,158
472,188,78270,1,0,0:0:0:0:
249,170,78420,2,0,B|249:260,1,79
414,352,78720,2,0,L|415:253,1,79
106,259,79020,6,0,P|134:330|209:345,1,158
335,210,79470,1,0,0:0:0:0:
186,269,79620,1,0,0:0:0:0:
348,302,79770,1,0,0:0:0:0:
238,177,79920,1,0,0:0:0:0:
260,343,80070,1,0,0:0:0:0:
419,248,80220,6,0,L|436:70,1,158
269,259,80670,1,0,0:0:0:0:
507,283,80820,2,0,L|511:363,1,79
510,361,81045,1,0,0:0:0:0:
510,361,81120,1,0,0:0:0:0:
455,169,81270,1,0,0:0:0:0:
269,259,81420,5,0,0:0:0:0:
362,272,81720,1,0,0:0:0:0:
458,219,82020,1,0,0:0:0:0:
466,93,82320,1,0,0:0:0:0:
356,47,82620,6,0,B|343:115|343:115|365:166|365:166|328:205|369:288,1,237.000009040833
235,372,83520,1,0,0:0:0:0:
235,372,83820,2,0,L|107:363,2,118.500004520416
85,202,84720,2,0,P|66:170|62:136,1,59.2500022602082
165,200,85020,6,0,B|163:262|124:282|79:292|40:273|40:273|45:308|15:344,1,237.000009040833
318,178,85920,2,0,L|317:104,1,59.2500022602082
374,57,86220,2,0,B|413:49|413:49|501:72,1,118.500004520416
257,247,86820,2,0,B|218:255|218:255|130:232,1,118.500004520416
434,207,87420,6,0,L|438:339,1,118.500004520416
332,373,87870,2,0,L|336:293,1,59.2500022602082
221,284,88170,2,0,L|228:347,1,59.2500022602082
346,235,88470,1,0,0:0:0:0:
220,179,88620,6,0,P|170:204|85:207,1,118.500004520416
44,144,89070,1,0,0:0:0:0:
4,289,89220,2,0,L|1:229,1,59.2500022602082
97,300,89520,2,0,L|99:359,1,59.2500022602082
194,333,89820,6,0,P|245:299|339:357,1,177.750006780625
423,259,90420,2,0,P|389:208|447:114,1,177.750006780625
348,49,91020,2,0,P|297:83|203:25,1,177.750006780625
245,230,91620,6,0,P|242:187|281:228,1,138.25
263,306,92220,1,0,0:0:0:0:
147,165,92370,1,0,0:0:0:0:
147,165,92445,1,0,0:0:0:0:
147,165,92520,1,0,0:0:0:0:
93,356,92670,1,0,0:0:0:0:
176,276,92820,5,0,0:0:0:0:
34,253,92970,1,0,0:0:0:0:
176,276,93120,1,0,0:0:0:0:
34,253,93270,1,0,0:0:0:0:
311,377,93420,5,0,0:0:0:0:
341,344,93495,1,0,0:0:0:0:
360,305,93570,1,0,0:0:0:0:
367,261,93645,1,0,0:0:0:0:
359,217,93720,1,0,0:0:0:0:
339,178,93795,1,0,0:0:0:0:
308,147,93870,1,0,0:0:0:0:
268,126,93945,1,0,0:0:0:0:
225,119,94020,1,0,0:0:0:0:
225,119,94620,6,0,L|337:103,1,98.75
457,203,94920,2,0,L|359:217,1,98.75
109,260,95220,2,0,L|221:244,1,98.75
341,344,95520,2,0,L|243:358,1,98.75
144,169,95820,5,0,0:0:0:0:
289,254,95970,1,0,0:0:0:0:
108,344,96120,1,0,0:0:0:0:
204,236,96270,1,0,0:0:0:0:
341,344,96420,1,0,0:0:0:0:
193,320,96570,1,0,0:0:0:0:
193,320,96645,1,0,0:0:0:0:
193,320,96720,2,0,L|256:318,1,49.375
371,262,96870,2,0,L|425:274,1,49.375
484,175,97020,6,0,P|501:134|498:77,1,98.75
378,173,97320,2,0,P|361:131|318:93,1,98.75
289,254,97620,2,0,P|248:236|190:240,1,98.75
435,325,97920,1,0,0:0:0:0:
378,173,98070,1,0,0:0:0:0:
341,344,98220,1,0,0:0:0:0:
486,255,98370,5,0,0:0:0:0:
486,255,98445,1,0,0:0:0:0:
486,255,98520,1,0,0:0:0:0:
423,95,98670,1,0,0:0:0:0:
366,259,98820,1,0,0:0:0:0:
491,172,98970,5,0,0:0:0:0:
491,172,99045,1,0,0:0:0:0:
491,172,99120,2,0,L|498:121,1,49.375
359,210,99270,2,0,L|366:261,1,49.375
240,158,99420,6,0,L|136:150,1,98.75
37,278,99720,2,0,B|83:277|83:277|137:298,1,98.75
307,335,100020,2,0,B|283:295|283:295|275:243,1,98.75
204,77,100321,2,0,B|181:117|181:117|140:150,1,98.75
376,123,100620,6,0,L|368:18,1,98.75
196,245,100920,2,0,L|203:343,1,98.75
204,77,101220,2,0,L|105:84,1,98.75
390,262,101519,2,0,L|488:254,1,98.75
280,198,101820,6,0,P|226:159|112:208,1,197.5
307,335,102270,1,0,0:0:0:0:
481,227,102420,2,0,L|477:334,1,98.75
477,325,102645,1,0,0:0:0:0:
477,325,102720,1,0,0:0:0:0:
347,148,102870,1,0,0:0:0:0:
240,275,103020,5,0,0:0:0:0:
429,155,103170,1,0,0:0:0:0:
429,155,103245,1,0,0:0:0:0:
429,155,103320,1,0,0:0:0:0:
267,118,103470,1,0,0:0:0:0:
390,263,103620,5,0,0:0:0:0:
193,205,103770,1,0,0:0:0:0:
193,205,103845,1,0,0:0:0:0:
193,205,103920,2,0,L|255:196,1,49.375
317,350,104070,2,0,L|265:349,1,49.375
113,252,104220,6,0,P|99:203|116:150,1,98.75
337,67,104520,2,0,P|351:116|334:169,1,98.75
278,382,104820,2,0,P|264:333|281:280,1,98.75
502,224,105120,2,0,P|516:273|499:326,1,98.75
267,118,105420,1,0,0:0:0:0:
390,263,105570,1,0,0:0:0:0:
180,325,105720,1,0,0:0:0:0:
302,213,105870,1,0,0:0:0:0:
378,364,106020,5,0,0:0:0:0:
223,243,106170,1,0,0:0:0:0:
223,243,106245,1,0,0:0:0:0:
223,243,106320,1,0,0:0:0:0:
373,139,106470,1,0,0:0:0:0:
434,332,106620,6,0,P|384:346|334:325,1,98.75
221,37,106920,2,0,P|258:73|264:127,1,98.75
63,349,107220,2,0,P|75:298|119:265,1,98.75
110,269,107445,1,0,0:0:0:0:
110,269,107520,1,0,0:0:0:0:
255,384,107670,1,0,0:0:0:0:
268,153,107820,6,0,L|66:114,1,197.5
345,303,108270,1,0,0:0:0:0:
457,101,108420,1,0,0:0:0:0:
338,28,108570,5,0,0:0:0:0:
338,28,108645,1,0,0:0:0:0:
338,28,108720,2,0,L|343:87,1,49.375
454,192,108870,2,0,L|442:250,1,49.375
272,270,109020,2,0,P|225:245|168:242,1,98.75
364,381,109320,2,0,L|474:363,1,98.75
201,322,109620,2,0,P|147:323|96:349,1,98.75
345,303,109920,2,0,L|359:189,1,98.75
122,116,110220,6,0,P|143:169|265:166,1,197.5
44,222,110670,1,0,0:0:0:0:
201,322,110820,2,0,B|151:310|151:310|74:323,1,98.75
357,204,111120,2,0,B|407:216|407:216|484:203,1,98.75
238,80,111420,6,0,L|248:247,1,148.125
246,227,111720,1,0,0:0:0:0:
363,92,111870,1,0,0:0:0:0:
363,92,111945,1,0,0:0:0:0:
363,92,112020,1,0,0:0:0:0:
436,306,112170,5,0,0:0:0:0:
436,306,112245,1,0,0:0:0:0:
436,306,112320,1,0,0:0:0:0:
174,274,112470,5,0,0:0:0:0:
174,274,112545,1,0,0:0:0:0:
174,274,112620,1,0,0:0:0:0:
340,173,112770,5,0,0:0:0:0:
380,203,112845,1,0,0:0:0:0:
421,228,112920,2,0,L|488:213,1,49.375
512,370,113070,2,0,L|463:380,1,49.375
289,157,113220,6,0,L|340:173,1,53.3250002034187
257,367,113370,2,0,L|206:348,1,53.3250002034187
468,85,113520,6,0,L|464:163,1,57.2750017478943
174,274,113670,2,0,L|161:198,1,57.2750017478943
323,32,113820,6,0,B|351:158|280:131|331:255,1,213.299993490601
362,334,114120,1,0,0:0:0:0:
174,214,114270,2,0,L|168:128,1,71.0999978302003
225,82,114420,1,0,0:0:0:0:
136,352,114570,1,0,0:0:0:0:
199,11,114720,1,0,0:0:0:0:
310,270,114870,1,0,0:0:0:0:
25,228,115020,5,0,0:0:0:0:
289,157,115170,1,0,0:0:0:0:
336,188,115245,1,0,0:0:0:0:
392,192,115320,1,0,0:0:0:0:
444,169,115395,1,0,0:0:0:0:
465,116,115470,1,0,0:0:0:0:
459,59,115545,1,0,0:0:0:0:
422,15,115620,6,0,L|333:18,1,71.0999978302003
217,159,115770,2,0,L|288:156,1,71.0999978302003
507,272,115920,2,0,L|418:275,1,71.0999978302003
207,349,116070,2,0,L|136:352,1,71.0999978302003
391,381,116220,5,0,0:0:0:0:
218,243,116370,1,0,0:0:0:0:
162,229,116445,1,0,0:0:0:0:
106,215,116520,1,0,0:0:0:0:
0,384,116670,1,0,0:0:0:0:
310,270,116820,5,0,0:0:0:0:
54,72,116970,1,0,0:0:0:0:
116,384,117120,1,0,0:0:0:0:
127,26,117270,1,0,0:0:0:0:
116,384,117420,1,0,0:0:0:0:
298,190,117570,1,0,0:0:0:0:
298,190,117645,1,0,0:0:0:0:
298,190,117720,1,0,0:0:0:0:
66,300,117870,1,0,0:0:0:0:
378,329,118020,5,0,0:0:0:0:
334,116,118170,1,0,0:0:0:0:
277,107,118245,1,0,0:0:0:0:
226,132,118320,1,0,0:0:0:0:
213,187,118395,1,0,0:0:0:0:
235,239,118470,1,0,0:0:0:0:
243,295,118545,1,0,0:0:0:0:
212,343,118620,6,0,B|159:358|159:358|59:330|69:220,1,213.299993490601
99,153,118920,1,0,0:0:0:0:
362,248,119070,2,0,L|439:237,1,71.0999978302003
499,288,119220,5,0,0:0:0:0:
334,116,119370,1,0,0:0:0:0:
212,343,119520,1,0,0:0:0:0:
499,288,119670,1,0,0:0:0:0:
226,132,119820,1,0,0:0:0:0:
395,359,119970,5,0,0:0:0:0:
395,299,120045,1,0,0:0:0:0:
362,248,120120,1,0,0:0:0:0:
314,217,120195,1,0,0:0:0:0:
257,211,120270,1,0,0:0:0:0:
202,227,120345,1,0,0:0:0:0:
150,251,120420,6,0,L|53:242,1,71.0999978302003
318,128,120570,2,0,L|388:134,1,71.0999978302003
301,340,120720,2,0,L|230:333,1,71.0999978302003
181,60,120870,1,0,0:0:0:0:
438,200,121020,5,0,0:0:0:0:
226,132,121170,1,0,0:0:0:0:
171,146,121245,1,0,0:0:0:0:
116,161,121320,1,0,0:0:0:0:
438,200,121470,1,0,0:0:0:0:
259,53,121620,5,0,0:0:0:0:
390,365,121770,1,0,0:0:0:0:
445,87,121920,1,0,0:0:0:0:
204,332,122070,1,0,0:0:0:0:
506,253,122220,1,0,0:0:0:0:
361,29,122370,1,0,0:0:0:0:
361,29,122445,1,0,0:0:0:0:
361,29,122520,1,0,0:0:0:0:
211,246,122670,1,0,0:0:0:0:
424,180,122820,5,0,0:0:0:0:
211,246,122970,1,0,0:0:0:0:
260,218,123045,1,0,0:0:0:0:
316,218,123120,1,0,0:0:0:0:
366,244,123195,1,0,0:0:0:0:
405,285,123270,1,0,0:0:0:0:
461,288,123345,1,0,0:0:0:0:
506,253,123420,6,0,B|498:84|498:84|462:124,1,213.299993490601
424,180,123720,1,0,0:0:0:0:
239,355,123870,2,0,L|318:348,1,71.0999978302003
385,361,124020,1,0,0:0:0:0:
258,139,124170,1,0,0:0:0:0:
114,319,124320,1,0,0:0:0:0:
466,372,124470,1,0,0:0:0:0:
337,118,124620,1,0,0:0:0:0:
187,277,124770,21,0,0:0:0:0:
255,314,124845,1,0,0:0:0:0:
321,273,124920,1,0,0:0:0:0:
311,195,124995,1,0,0:0:0:0:
239,163,125070,1,0,0:0:0:0:
213,88,125145,1,0,0:0:0:0:
233,12,125220,6,0,L|319:7,1,71.0999978302003
424,180,125370,2,0,L|338:175,1,71.0999978302003
116,281,125520,2,0,L|202:276,1,71.0999978302003
386,86,125670,1,0,0:0:0:0:
385,361,125820,5,0,0:0:0:0:
156,198,125970,1,0,0:0:0:0:
156,198,126045,1,0,0:0:0:0:
156,198,126120,1,0,0:0:0:0:
467,104,126270,1,0,0:0:0:0:
321,273,126420,5,8,0:0:0:0:
321,13,126570,1,0,0:0:0:0:
296,365,126720,1,8,0:0:0:0:
286,90,126870,1,0,0:0:0:0:
488,237,127020,1,0,0:0:0:0:
243,296,127170,1,0,0:0:0:0:
243,296,127245,1,0,0:0:0:0:
243,296,127320,1,0,0:0:0:0:
367,80,127470,1,0,0:0:0:0:
385,361,127620,5,0,0:0:0:0:
166,257,127770,1,0,0:0:0:0:
200,211,127845,1,0,0:0:0:0:
203,154,127920,1,0,0:0:0:0:
175,104,127995,1,0,0:0:0:0:
121,84,128070,1,0,0:0:0:0:
66,100,128145,1,0,0:0:0:0:
31,145,128220,6,0,B|40:220|40:220|78:261|78:261|97:342,1,213.299993490601
0,311,128520,1,0,0:0:0:0:
120,179,128670,1,0,0:0:0:0:
194,364,128820,5,0,0:0:0:0:
263,85,128970,1,0,0:0:0:0:
385,361,129120,1,0,0:0:0:0:
367,80,129270,1,0,0:0:0:0:
512,216,129420,1,0,0:0:0:0:
322,203,129570,5,0,0:0:0:0:
273,263,129645,1,0,0:0:0:0:
197,281,129720,1,0,0:0:0:0:
124,252,129795,1,0,0:0:0:0:
89,181,129870,1,0,0:0:0:0:
99,103,129945,1,0,0:0:0:0:
147,41,130020,6,0,L|224:36,1,71.0999978302003
392,198,130170,2,0,L|321:202,1,71.0999978302003
34,339,130320,2,0,L|111:334,1,71.0999978302003
469,329,130470,1,0,0:0:0:0:
89,181,130620,1,0,0:0:0:0:
423,46,130770,1,0,0:0:0:0:
407,122,130845,1,0,0:0:0:0:
392,198,130920,1,0,0:0:0:0:
230,19,131070,1,0,0:0:0:0:
473,182,131220,5,0,0:0:0:0:
197,281,131370,1,0,0:0:0:0:
473,182,131520,1,0,0:0:0:0:
197,281,131670,1,0,0:0:0:0:
168,79,131820,5,0,0:0:0:0:
316,240,131970,1,0,0:0:0:0:
109,374,132120,1,0,0:0:0:0:
399,277,132270,1,0,0:0:0:0:
140,0,132420,1,0,0:0:0:0:
256,192,132495,12,0,133170,0:0:0:0:
