osu file format v14

[General]
AudioFilename: 04.Kara.mp3
AudioLeadIn: 0
PreviewTime: 65515
Countdown: 0
SampleSet: Normal
StackLeniency: 0.7
Mode: 0
LetterboxInBreaks: 1
WidescreenStoryboard: 0

[Editor]
Bookmarks: 30515
DistanceSpacing: 1
BeatDivisor: 8
GridSize: 4
TimelineZoom: 1

[Metadata]
Title:Kara
TitleUnicode:殻
Artist:otetsu
ArtistUnicode:otetsu
Creator:neonat
Version:Hard
Source:
Tags:Megurine Luka Vocaloid 巡音ルカ Child's Garden UNDER
BeatmapID:682750
BeatmapSetID:95052

[Difficulty]
HPDrainRate:5.5
CircleSize:4
OverallDifficulty:6
ApproachRate:7.5
SliderMultiplier:2.4
SliderTickRate:1

[Events]
//Background and Video events
0,0,"Megurine Luka.jpg",0,0
//Break Periods
2,97715,118023
2,188381,195356
2,263048,272689
//Storyboard Layer 0 (Background)
//Storyboard Layer 1 (Fail)
//Storyboard Layer 2 (Pass)
//Storyboard Layer 3 (Foreground)
//Storyboard Sound Samples

[TimingPoints]
1515.27970729517,666.666666666667,4,2,1,70,1,0
22515,-100,4,2,2,70,0,0
22681,-100,4,2,1,70,0,0
33181,-100,4,2,2,70,0,0
33348,-100,4,2,1,70,0,0
65515,-83.3333333333333,4,2,1,70,0,1
78515,-83.3333333333333,4,2,2,70,0,1
78681,-83.3333333333333,4,2,1,70,0,1
86848,-100,4,2,1,70,0,0
94848,-100,4,2,1,40,0,0
97181,-100,4,2,0,70,0,0
97515,-100,4,2,1,70,0,0
118848,666.666666666667,3,2,1,70,1,0
122514,-100,3,2,2,70,0,0
122848,-100,3,2,1,70,0,0
126514,-100,3,2,2,70,0,0
126681,-100,3,2,1,70,0,0
130514,-100,3,2,2,70,0,0
130848,-100,3,2,1,70,0,0
134514,-100,3,2,2,70,0,0
134681,-100,3,2,1,70,0,0
147514,-100,3,2,2,70,0,0
147681,-100,3,2,1,70,0,0
163514,-100,3,2,2,70,0,0
163681,-100,3,2,1,70,0,0
164848,-100,3,2,1,40,0,0
166848,666.666666666667,4,2,1,70,1,1
188181,-100,4,2,1,70,0,0
198181,-100,4,2,1,20,0,0
198848,-76.9230769230769,4,1,1,80,0,1
217514,-76.9230769230769,4,1,1,80,0,0
220181,-76.9230769230769,4,1,1,80,0,1
246848,-76.9230769230769,4,1,1,80,0,0
262848,-100,4,2,1,70,0,0
283848,-100,4,2,2,70,0,0

[Colours]
Combo1 : 132,141,204
Combo2 : 200,206,179
Combo3 : 217,26,15
Combo4 : 104,215,211

[HitObjects]
148,244,12181,6,0,P|172:304|224:332,1,120,2|0,0:0|0:0,0:0:0:0:
324,276,12848,1,8,0:0:0:0:
432,328,13181,2,0,P|488:296|464:136,1,240,2|0,0:0|0:0,0:0:0:0:
352,124,14181,2,0,L|224:124,1,120,8|0,0:0|0:0,0:0:0:0:
112,144,14848,6,0,P|84:212|108:272,1,120,2|0,0:0|0:0,0:0:0:0:
216,240,15515,2,0,L|296:224,1,60,8|0,0:0|0:0,0:0:0:0:
320,240,15848,2,0,P|348:308|324:364,1,120,2|0,0:0|0:0,0:0:0:0:
216,340,16515,1,0,0:0:0:0:
96,320,16848,1,8,0:0:0:0:
72,280,17015,1,0,0:0:0:0:
72,232,17181,1,0,0:0:0:0:
88,188,17348,1,0,0:0:0:0:
128,164,17515,6,0,P|200:184|312:156,1,180,2|0,0:0|0:0,0:0:0:0:
336,132,18181,1,8,0:0:0:0:
420,44,18515,2,0,P|456:128|368:252,1,240,2|0,0:0|0:0,0:0:0:0:
336,132,19515,1,8,0:0:0:0:
180,72,19848,1,0,0:0:0:0:
196,224,20181,5,2,0:0:0:0:
196,224,20348,2,0,P|260:256|324:248,1,120,2|2,0:0|0:0,0:0:0:0:
348,228,20848,2,0,P|416:228|464:264,1,120,8|2,0:0|0:0,0:0:0:0:
368,336,21515,2,0,L|296:352,2,60,0|0|0,0:0|0:0|0:0,0:0:0:0:
504,224,22181,2,0,L|512:160,1,60,8|0,0:0|0:0,0:0:0:0:
448,120,22515,2,0,L|440:60,1,60,4|0,0:0|0:0,0:0:0:0:
500,12,22848,5,2,0:0:0:0:
364,136,23181,1,0,0:0:0:0:
216,80,23515,2,0,P|140:72|96:84,2,120,8|2|0,0:0|0:0|0:0,0:0:0:0:
284,220,24515,1,0,0:0:0:0:
172,328,24848,2,0,P|100:328|64:288,1,120,8|0,0:0|0:0,0:0:0:0:
108,144,25515,6,0,P|120:72|92:24,2,120,2|0|8,0:0|0:0|0:0,0:0:0:0:
132,300,26515,2,0,P|200:308|264:296,1,120,2|0,0:0|0:0,0:0:0:0:
288,280,27015,1,0,0:0:0:0:
324,260,27181,1,0,0:0:0:0:
368,260,27348,1,0,0:0:0:0:
404,276,27515,2,0,P|472:280|516:232,1,120,8|0,0:0|0:0,0:0:0:0:
404,128,28181,6,0,P|372:72|484:88,1,240,2|8,0:0|0:0,0:0:0:0:
400,208,29181,2,0,B|332:188|316:148|304:120|304:120|240:152|168:112,1,240,2|0,0:0|0:0,0:0:0:0:
48,116,30181,2,0,L|32:48,2,60,8|0|0,0:0|0:0|0:0,0:0:0:0:
60,164,30681,1,0,0:0:0:0:
72,212,30848,6,0,L|85:270,2,60,2|2|0,0:0|0:0|0:0,0:0:0:0:
60,164,31348,2,0,P|100:112|192:112,1,120,2|0,0:0|0:0,0:0:0:0:
192,124,31848,2,0,P|236:128|308:76,1,120,2|0,0:0|0:0,0:0:0:0:
444,36,32515,1,0,0:0:0:0:
468,80,32681,1,0,0:0:0:0:
472,128,32848,1,8,0:0:0:0:
464,176,33015,1,0,0:0:0:0:
436,216,33181,2,0,P|424:240|424:284,1,60,4|0,0:0|0:0,0:0:0:0:
424,320,33515,6,0,P|340:356|200:324,1,240,2|8,0:0|0:0,0:0:0:0:
212,168,34515,2,0,P|144:152|88:172,1,120,2|0,0:0|0:0,0:0:0:0:
8,292,35181,1,0,0:0:0:0:
8,292,35348,1,0,0:0:0:0:
8,292,35515,2,0,P|76:308|132:288,1,120,8|0,0:0|0:0,0:0:0:0:
260,220,36181,6,0,B|304:192|384:248|444:200,1,180,2|0,0:0|0:0,0:0:0:0:
476,180,36848,2,0,P|492:148|468:72,1,120,8|2,0:0|0:0,0:0:0:0:
312,88,37515,1,0,0:0:0:0:
156,108,37848,2,0,P|80:72|60:40,2,120,0|8|0,0:0|0:0|0:0,0:0:0:0:
292,188,38848,6,0,P|308:260|240:352,1,180,2|0,0:0|0:0,0:0:0:0:
208,332,39515,2,0,P|164:316|88:328,1,120,8|2,0:0|0:0,0:0:0:0:
24,184,40181,2,0,L|48:64,1,120,0|0,0:0|0:0,0:0:0:0:
204,44,40848,2,0,P|268:64|328:36,1,120,8|0,0:0|0:0,0:0:0:0:
360,28,41348,1,0,0:0:0:0:
408,28,41515,6,0,B|512:68|468:168|468:168|368:208|368:208|312:312|436:360,1,480,2|0,0:0|0:0,0:0:0:0:
392,120,43515,1,8,0:0:0:0:
92,208,44181,6,0,P|52:152|56:100,2,120,2|0|8,0:0|0:0|0:0,0:0:0:0:
248,232,45181,2,0,P|320:212|368:236,1,120,2|0,0:0|0:0,0:0:0:0:
472,336,45848,1,0,0:0:0:0:
504,184,46181,2,0,P|508:112|460:56,1,120,8|0,0:0|0:0,0:0:0:0:
436,68,46681,1,0,0:0:0:0:
388,76,46848,6,0,P|308:88|264:76,1,120,2|0,0:0|0:0,0:0:0:0:
228,60,47348,2,0,P|160:48|104:64,1,120,0|2,0:0|0:0,0:0:0:0:
84,100,47848,2,0,B|96:164|96:164|72:232,1,120,2|0,0:0|0:0,0:0:0:0:
196,316,48515,2,0,L|244:184,1,120,0|8,0:0|0:0,0:0:0:0:
268,168,49015,1,0,0:0:0:0:
316,156,49181,1,0,0:0:0:0:
364,156,49348,1,0,0:0:0:0:
408,176,49515,6,0,P|440:236|396:340,1,180,2|2,0:0|0:0,0:0:0:0:
356,328,50181,2,0,P|280:312|236:336,1,120,8|2,0:0|0:0,0:0:0:0:
88,352,50848,1,0,0:0:0:0:
212,256,51181,1,0,0:0:0:0:
64,204,51515,2,0,L|-8:224,2,60,8|0|0,0:0|0:0|0:0,0:0:0:0:
100,168,52015,1,0,0:0:0:0:
136,136,52181,6,0,L|216:140,2,60,2|2|0,0:0|0:0|0:0,0:0:0:0:
112,92,52681,2,0,P|144:36|208:32,1,120,2|2,0:0|0:0,0:0:0:0:
240,44,53181,2,0,P|316:60|368:36,1,120,2|0,0:0|0:0,0:0:0:0:
400,40,53681,2,0,L|456:84,1,60,0|0,0:0|0:0,0:0:0:0:
344,196,54181,2,0,L|360:324,1,120,8|0,0:0|0:0,0:0:0:0:
396,344,54681,1,2,0:0:0:0:
444,348,54848,6,0,P|492:300|488:240,1,120,2|0,0:0|0:0,0:0:0:0:
360,168,55515,2,0,P|360:104|408:56,1,120,8|2,0:0|0:0,0:0:0:0:
436,212,56181,2,0,P|376:256|312:244,1,120,0|0,0:0|0:0,0:0:0:0:
192,188,56848,2,0,P|128:176|72:204,1,120,8|0,0:0|0:0,0:0:0:0:
52,236,57348,1,0,0:0:0:0:
48,284,57515,6,0,B|64:340|64:340|104:332|152:348,1,120,2|0,0:0|0:0,0:0:0:0:
172,352,58015,1,2,0:0:0:0:
220,356,58181,1,8,0:0:0:0:
268,348,58348,1,2,0:0:0:0:
312,332,58515,2,0,P|380:320|436:336,1,120,2|0,0:0|0:0,0:0:0:0:
460,180,59181,1,0,0:0:0:0:
320,112,59515,2,0,L|188:112,1,120,8|0,0:0|0:0,0:0:0:0:
160,264,60181,6,0,L|28:264,2,120,2|0|8,0:0|0:0|0:0,0:0:0:0:
296,344,61181,2,0,P|352:320|356:208,1,180,2|0,0:0|0:0,0:0:0:0:
328,176,61848,2,0,P|312:112|336:64,1,120,0|8,0:0|0:0,0:0:0:0:
476,132,62515,1,0,0:0:0:0:
476,132,62681,1,0,0:0:0:0:
476,132,62848,6,0,P|504:196|384:292,1,240,2|8,0:0|0:0,0:0:0:0:
476,132,63848,1,2,0:0:0:0:
336,196,64181,2,0,L|224:136,1,120,0|0,0:0|0:0,0:0:0:0:
100,52,64848,1,8,0:0:0:0:
68,88,65015,1,0,0:0:0:0:
56,136,65181,1,2,0:0:0:0:
60,184,65348,1,2,0:0:0:0:
72,224,65515,6,0,P|132:284|200:276,1,143.999995605469,4|0,0:0|0:0,0:0:0:0:
300,196,66181,2,0,P|384:196|436:244,1,143.999995605469,8|2,0:0|0:0,0:0:0:0:
472,92,66848,2,0,P|392:56|368:8,1,143.999995605469,0|0,0:0|0:0,0:0:0:0:
300,32,67348,2,0,B|248:56|204:32|204:32|180:112|112:112,1,215.999993408203,0|0,0:0|0:0,0:0:0:0:
80,128,68015,1,0,0:0:0:0:
52,168,68181,6,0,P|48:252|88:288,1,143.999995605469,2|0,0:0|0:0,0:0:0:0:
228,324,68848,2,0,P|232:240|192:204,1,143.999995605469,8|2,0:0|0:0,0:0:0:0:
148,192,69348,1,0,0:0:0:0:
116,164,69515,2,0,P|104:92|152:40,1,143.999995605469,0|0,0:0|0:0,0:0:0:0:
203,87,70015,2,0,P|263:99|351:79,1,143.999995605469,0|0,0:0|0:0,0:0:0:0:
400,40,70515,2,0,L|448:104,1,71.9999978027344,0|2,0:0|0:0,0:0:0:0:
412,160,70848,6,0,P|388:244|440:304,1,143.999995605469,2|0,0:0|0:0,0:0:0:0:
486,162,71515,2,0,L|314:134,1,143.999995605469,8|2,0:0|0:0,0:0:0:0:
300,136,72015,1,0,0:0:0:0:
256,136,72181,2,0,L|113:159,1,143.999995605469,0|0,0:0|0:0,0:0:0:0:
44,144,72681,2,0,P|24:72|84:24,1,143.999995605469,0|0,0:0|0:0,0:0:0:0:
140,32,73181,1,0,0:0:0:0:
284,56,73515,6,0,P|364:44|428:60,1,143.999995605469,2|0,0:0|0:0,0:0:0:0:
472,196,74181,2,0,P|392:208|328:192,1,143.999995605469,8|2,0:0|0:0,0:0:0:0:
268,156,74681,2,0,P|192:148|160:272,1,215.999993408203,0|0,0:0|0:0,0:0:0:0:
280,332,75515,1,8,0:0:0:0:
324,324,75681,1,0,0:0:0:0:
360,300,75848,1,2,0:0:0:0:
376,260,76015,1,2,0:0:0:0:
376,216,76181,6,0,P|336:148|264:144,1,143.999995605469,4|0,0:0|0:0,0:0:0:0:
180,244,76848,2,0,P|111:229|80:167,1,143.999995605469,8|2,0:0|0:0,0:0:0:0:
116,104,77348,2,0,B|168:52|168:52|208:68|252:48,1,143.999995605469
280,40,77848,1,0,0:0:0:0:
324,40,78015,1,0,0:0:0:0:
388,72,78181,2,0,P|412:84|456:80,1,71.9999978027344,8|2,0:0|0:0,0:0:0:0:
512,128,78515,2,0,P|516:168|488:216,1,71.9999978027344,4|0,0:0|0:0,0:0:0:0:
436,212,78848,6,0,L|292:236,2,143.999995605469,2|0|8,0:0|0:0|0:0,0:0:0:0:
488,324,79848,1,2,0:0:0:0:
488,324,80015,2,0,P|400:352|320:320,1,143.999995605469,0|0,0:0|0:0,0:0:0:0:
320,312,80515,1,0,0:0:0:0:
280,292,80681,1,0,0:0:0:0:
236,296,80848,2,0,P|152:304|100:272,1,143.999995605469,8|0,0:0|0:0,0:0:0:0:
84,236,81348,1,0,0:0:0:0:
72,196,81515,6,0,P|116:133|188:144,1,143.999995605469,2|0,0:0|0:0,0:0:0:0:
308,200,82181,2,0,P|360:137|336:57,1,143.999995605469,8|2,0:0|0:0,0:0:0:0:
206,96,82848,2,0,P|144:95|82:40,1,143.999995605469,0|0,0:0|0:0,0:0:0:0:
101,186,83515,1,8,0:0:0:0:
101,186,83848,1,0,0:0:0:0:
107,228,84015,1,2,0:0:0:0:
114,270,84181,6,0,P|152:319|287:288,1,215.999993408203,2|2,0:0|0:0,0:0:0:0:
313,238,84848,1,8,0:0:0:0:
318,180,85015,2,0,L|308:98,1,71.9999978027344,2|2,0:0|0:0,0:0:0:0:
165,66,85515,2,0,L|173:137,1,71.9999978027344,0|0,0:0|0:0,0:0:0:0:
103,188,85848,2,0,L|94:116,1,71.9999978027344,0|0,0:0|0:0,0:0:0:0:
30,82,86181,2,0,P|16:112|8:156,1,71.9999978027344,8|2,0:0|0:0,0:0:0:0:
4,224,86515,2,0,P|10:259|25:291,1,71.9999978027344,0|2,0:0|0:0,0:0:0:0:
80,340,86848,1,4,0:0:0:0:
256,192,87015,12,0,89515,0:0:0:0:
355,193,90181,6,0,L|373:73,2,120,8|2|0,0:0|0:0|0:0,0:0:0:0:
254,296,91181,2,0,P|171:302|118:263,1,120,0|8,0:0|0:0,0:0:0:0:
68,160,91848,1,0,0:0:0:0:
201,106,92181,6,0,L|380:136,2,180,2|0|2,0:0|0:0|0:0,0:0:0:0:
152,106,93348,1,0,0:0:0:0:
108,126,93515,2,0,P|84:154|84:240,1,120,0|0,0:0|0:0,0:0:0:0:
186,331,94181,2,0,P|210:303|210:217,1,120,8|0,0:0|0:0,0:0:0:0:
108,126,94848,5,2,0:0:0:0:
108,126,95015,2,0,P|104:56|160:24,1,120,2|2,0:0|0:0,0:0:0:0:
188,36,95515,2,0,L|312:44,1,120,8|2,0:0|0:0,0:0:0:0:
307,43,96515,5,0,0:0:0:0:
404,148,96848,2,0,L|384:272,1,120,8|2,0:0|0:0,0:0:0:0:
260,336,97515,1,4,0:0:0:0:
164,192,118848,6,0,P|152:224|172:320,2,120,2|0|0,0:0|0:0|0:0,0:0:0:0:
268,168,119848,2,0,L|404:184,2,120,8|0|0,0:0|0:0|0:0,0:0:0:0:
208,116,120681,2,0,L|184:84,1,30
168,72,120848,2,0,P|122:87|77:151,2,120,2|0|0,0:0|0:0|0:0,0:0:0:0:
192,224,121848,2,0,P|188:288|228:348,1,120,8|0,0:0|0:0,0:0:0:0:
320,352,122514,1,4,0:0:0:0:
456,272,122848,6,0,P|488:220|472:132,2,120,2|0|0,0:0|0:0|0:0,0:0:0:0:
348,252,123848,2,0,P|276:236|212:260,1,120,8|0,0:0|0:0,0:0:0:0:
136,292,124514,1,0,0:0:0:0:
64,260,124681,1,0,0:0:0:0:
64,260,124764,1,0,0:0:0:0:
64,260,124847,2,0,P|64:328|112:368,1,120,2|0,0:0|0:0,0:0:0:0:
152,368,125348,1,0,0:0:0:0:
204,356,125514,2,0,P|276:348|352:360,1,120,0|8,0:0|0:0,0:0:0:0:
432,336,126181,1,0,0:0:0:0:
440,228,126514,1,4,0:0:0:0:
292,184,126848,6,0,P|264:120|288:56,2,120,2|0|0,0:0|0:0|0:0,0:0:0:0:
364,264,127848,2,0,P|360:336|316:380,1,120,8|0,0:0|0:0,0:0:0:0:
224,348,128514,1,0,0:0:0:0:
156,312,128681,1,0,0:0:0:0:
156,312,128764,1,0,0:0:0:0:
156,312,128848,2,0,P|100:300|40:312,2,120,2|0|0,0:0|0:0|0:0,0:0:0:0:
256,272,129848,2,0,P|284:208|264:144,1,120,8|0,0:0|0:0,0:0:0:0:
188,96,130514,1,4,0:0:0:0:
128,244,130848,6,0,L|140:368,2,120,2|0|0,0:0|0:0|0:0,0:0:0:0:
48,172,131848,2,0,P|36:108|64:44,1,120,8|0,0:0|0:0,0:0:0:0:
160,60,132514,1,0,0:0:0:0:
236,28,132681,1,0,0:0:0:0:
236,28,132764,1,0,0:0:0:0:
236,28,132848,2,0,L|360:44,1,120,2|0,0:0|0:0,0:0:0:0:
392,80,133348,1,0,0:0:0:0:
408,132,133514,2,0,P|412:168|376:264,1,120,0|8,0:0|0:0,0:0:0:0:
280,244,134181,1,0,0:0:0:0:
180,280,134514,1,4,0:0:0:0:
36,260,134848,6,0,P|32:152|148:92,1,240,2|0,0:0|0:0,0:0:0:0:
180,104,135681,1,0,0:0:0:0:
228,92,135848,2,0,B|272:80|308:108|368:84,2,120,8|0|2,0:0|0:0|0:0,0:0:0:0:
204,260,136848,2,0,P|296:300|436:248,1,240,2|0,0:0|0:0,0:0:0:0:
456,224,137681,1,0,0:0:0:0:
472,180,137848,2,0,L|472:48,2,120,8|2|2,0:0|0:0|0:0,0:0:0:0:
304,176,138848,6,0,B|240:172|216:140|216:84|216:84|168:100|108:80,1,240,2|0,0:0|0:0,0:0:0:0:
76,76,139681,1,0,0:0:0:0:
36,104,139848,2,0,P|24:168|48:240,1,120,8|0,0:0|0:0,0:0:0:0:
60,264,140348,2,0,L|64:316,2,30,0|0|2,0:0|0:0|0:0,0:0:0:0:
200,168,140848,2,0,P|260:152|448:172,1,240,2|0,0:0|0:0,0:0:0:0:
480,188,141681,1,0,0:0:0:0:
472,236,141848,2,0,P|460:280|488:352,2,120,8|2|2,0:0|0:0|0:0,0:0:0:0:
476,56,142848,6,0,B|372:36|372:36|216:56,1,240,2|0,0:0|0:0,0:0:0:0:
192,64,143681,1,0,0:0:0:0:
152,92,143848,2,0,P|136:128|136:176,1,60,8|0,0:0|0:0,0:0:0:0:
144,196,144181,1,0,0:0:0:0:
164,240,144348,2,0,L|168:288,2,30,0|0|2,0:0|0:0|0:0,0:0:0:0:
300,164,144848,2,0,B|352:168|388:140|388:140|388:204|448:240|512:220,1,240,2|0,0:0|0:0,0:0:0:0:
376,336,145848,2,0,B|332:284|264:284|264:284|228:352|136:328,1,240,8|2,0:0|0:0,0:0:0:0:
84,204,146848,6,0,P|152:156|312:180,1,240,2|4,0:0|0:0,0:0:0:0:
192,60,147848,2,0,P|184:132|264:296,1,240,8|2,0:0|0:0,0:0:0:0:
404,280,148848,2,0,P|462:176|461:57,1,240,2|0,0:0|0:0,0:0:0:0:
296,128,149848,2,0,B|232:144|188:96|188:96|112:76|68:136,1,240,8|2,0:0|0:0,0:0:0:0:
68,160,150681,1,2,0:0:0:0:
72,196,150848,6,0,P|92:264|72:316,2,120,6|0|0,0:0|0:0|0:0,0:0:0:0:
192,184,151848,2,0,P|264:188|328:184,1,120,8|0,0:0|0:0,0:0:0:0:
424,140,152514,1,2,0:0:0:0:
492,236,152848,2,0,P|500:312|468:360,1,120,2|0,0:0|0:0,0:0:0:0:
364,324,153514,1,0,0:0:0:0:
364,324,153848,2,0,B|312:308|280:348|220:312,1,120,8|2,0:0|0:0,0:0:0:0:
96,240,154514,1,2,0:0:0:0:
95,196,154681,1,0,0:0:0:0:
98,155,154848,6,0,P|109:103|171:63,1,120,2|0,0:0|0:0,0:0:0:0:
276,96,155514,2,0,P|296:104|344:100,1,60,0|0,0:0|0:0,0:0:0:0:
380,84,155848,2,0,P|444:96|484:160,1,120,8|0,0:0|0:0,0:0:0:0:
404,164,156348,1,0,0:0:0:0:
404,164,156431,1,0,0:0:0:0:
404,164,156514,2,0,P|384:204|384:244,1,60,2|0,0:0|0:0,0:0:0:0:
388,292,156848,2,0,P|368:356|292:360,1,120,2|0,0:0|0:0,0:0:0:0:
276,360,157348,1,0,0:0:0:0:
228,348,157514,1,0,0:0:0:0:
180,352,157681,1,0,0:0:0:0:
136,372,157848,2,0,P|72:360|36:292,1,120,8|2,0:0|0:0,0:0:0:0:
96,136,158514,1,2,0:0:0:0:
96,136,158681,1,0,0:0:0:0:
96,136,158848,6,0,P|164:152|224:120,1,120,2|0,0:0|0:0,0:0:0:0:
120,56,159514,1,0,0:0:0:0:
20,120,159848,2,0,P|40:192|76:212,1,120,8|0,0:0|0:0,0:0:0:0:
156,212,160348,1,0,0:0:0:0:
156,212,160431,1,0,0:0:0:0:
156,212,160514,2,0,P|192:212|248:208,1,60,2|0,0:0|0:0,0:0:0:0:
288,212,160848,2,0,P|335:177|344:119,2,120,2|0|0,0:0|0:0|0:0,0:0:0:0:
168,296,161848,1,8,0:0:0:0:
220,164,162181,1,2,0:0:0:0:
308,276,162514,1,2,0:0:0:0:
124,228,162848,6,0,P|80:172|80:104,1,120,2|0,0:0|0:0,0:0:0:0:
80,76,163348,1,0,0:0:0:0:
104,36,163514,1,4,0:0:0:0:
264,164,163848,2,0,P|332:168|384:140,1,120,8|0,0:0|0:0,0:0:0:0:
412,112,164348,1,0,0:0:0:0:
428,68,164514,1,2,0:0:0:0:
256,192,164848,12,0,166181,0:0:0:0:
184,128,166848,6,0,P|252:120|308:128,1,120,6|0,0:0|0:0,0:0:0:0:
376,220,167514,2,0,P|436:192|456:136,1,120,8|2,0:0|0:0,0:0:0:0:
364,64,168181,2,0,P|308:72|240:64,1,120,0|0,0:0|0:0,0:0:0:0:
176,32,168681,1,0,0:0:0:0:
100,44,168848,2,0,P|80:60|64:104,1,60,8|0,0:0|0:0,0:0:0:0:
48,160,169181,2,0,P|48:192|68:228,1,60
116,264,169514,6,0,B|108:316|108:316|92:332|92:332|84:384,1,120,2|0,0:0|0:0,0:0:0:0:
204,376,170181,2,0,B|210:331|210:331|226:315|226:315|234:263,1,120,8|2,0:0|0:0,0:0:0:0:
228,136,170848,2,0,P|296:104|360:112,1,120,0|0,0:0|0:0,0:0:0:0:
400,156,171348,2,0,P|480:140|508:40,1,180,0|0,0:0|0:0,0:0:0:0:
440,28,172014,1,2,0:0:0:0:
364,48,172181,6,0,B|320:68|280:28|228:60,1,120,2|0,0:0|0:0,0:0:0:0:
109,133,172848,2,0,B|153:149|189:117|241:141,1,120,8|2,0:0|0:0,0:0:0:0:
268,164,173348,1,0,0:0:0:0:
316,172,173514,2,0,P|380:164|428:104,1,120,0|0,0:0|0:0,0:0:0:0:
496,120,174014,2,0,L|500:256,1,120,0|0,0:0|0:0,0:0:0:0:
468,312,174514,2,0,L|392:292,1,60,0|2,0:0|0:0,0:0:0:0:
332,288,174848,6,0,B|280:300|280:300|248:288|208:296,2,120,2|0|8,0:0|0:0|0:0,0:0:0:0:
424,120,175848,1,2,0:0:0:0:
424,120,176014,2,0,B|380:120|352:96|352:52|352:52|320:64|280:60,1,180,2|0,0:0|0:0,0:0:0:0:
104,128,176848,1,8,0:0:0:0:
88,172,177014,1,0,0:0:0:0:
92,220,177181,1,2,0:0:0:0:
120,260,177348,1,2,0:0:0:0:
164,280,177514,6,0,P|228:264|296:296,1,120,4|0,0:0|0:0,0:0:0:0:
388,324,178181,2,0,P|464:292|472:240,1,120,8|2,0:0|0:0,0:0:0:0:
468,184,178681,2,0,P|428:136|324:196,1,180,0|0,0:0|0:0,0:0:0:0:
300,212,179348,1,0,0:0:0:0:
224,232,179514,2,0,P|188:228|156:204,1,60,8|2,0:0|0:0,0:0:0:0:
124,152,179848,2,0,P|112:124|114:94,1,60
180,52,180181,6,0,P|138:20|64:38,1,120,2|0,0:0|0:0,0:0:0:0:
64,216,180848,2,0,B|76:264|76:264|144:296,1,120,8|2,0:0|0:0,0:0:0:0:
216,292,181348,2,0,P|288:272|336:284,1,120,0|0,0:0|0:0,0:0:0:0:
376,300,181848,1,0,0:0:0:0:
424,300,182014,1,0,0:0:0:0:
464,276,182181,2,0,P|496:240|496:160,1,120,8|0,0:0|0:0,0:0:0:0:
460,144,182681,1,0,0:0:0:0:
416,128,182848,6,0,L|284:144,2,120,2|0|8,0:0|0:0|0:0,0:0:0:0:
512,4,183848,1,2,0:0:0:0:
468,20,184014,1,0,0:0:0:0:
420,32,184181,2,0,L|288:28,2,120,0|0|8,0:0|0:0|0:0,0:0:0:0:
468,180,185181,1,0,0:0:0:0:
468,180,185348,1,2,0:0:0:0:
468,180,185514,6,0,P|464:248|392:280,1,120,2|0,0:0|0:0,0:0:0:0:
272,252,186181,2,0,P|208:232|144:244,1,120,8|2,0:0|0:0,0:0:0:0:
84,272,186681,2,0,P|40:232|56:144,1,120,0|0,0:0|0:0,0:0:0:0:
80,112,187181,2,0,L|152:104,1,60,0|0,0:0|0:0,0:0:0:0:
216,124,187514,2,0,P|280:136|336:120,1,120,8|2,0:0|0:0,0:0:0:0:
468,44,188181,1,4,0:0:0:0:
256,192,196181,12,0,198181,0:0:0:0:
300,120,198848,6,0,P|324:168|296:272,1,155.999992858887,4|0,0:0|0:0,0:0:0:0:
116,236,199514,1,8,0:0:0:0:
228,88,199848,1,0,0:0:0:0:
332,244,200181,2,0,P|384:240|440:156,1,155.999992858887,0|0,0:0|0:0,0:0:0:0:
436,112,200681,1,0,0:0:0:0:
408,76,200848,1,8,0:0:0:0:
364,64,201014,1,0,0:0:0:0:
316,68,201181,1,0,0:0:0:0:
272,80,201348,1,0,0:0:0:0:
228,96,201514,6,0,P|136:88|84:52,2,155.999992858887,0|0|8,0:0|0:0|0:0,0:0:0:0:
360,228,202514,1,0,0:0:0:0:
360,228,202681,1,0,0:0:0:0:
360,228,202848,2,0,P|356:304|264:316,1,155.999992858887,0|0,0:0|0:0,0:0:0:0:
228,256,203348,2,0,P|200:240|68:256,1,155.999992858887,0|0,0:0|0:0,0:0:0:0:
48,280,203848,1,0,0:0:0:0:
36,324,204014,1,0,0:0:0:0:
48,368,204181,6,0,B|128:364|128:364|236:368,1,155.999992858887,0|0,0:0|0:0,0:0:0:0:
388,328,204848,2,0,B|432:264|432:264|432:168,1,155.999992858887,8|0,0:0|0:0,0:0:0:0:
360,124,205348,2,0,P|332:100|412:80,1,155.999992858887,0|0,0:0|0:0,0:0:0:0:
480,104,205848,1,0,0:0:0:0:
348,236,206181,2,0,B|296:252|244:216|180:240,1,155.999992858887,8|0,0:0|0:0,0:0:0:0:
156,260,206681,1,0,0:0:0:0:
108,264,206848,6,0,P|64:192|96:116,1,155.999992858887,0|8,0:0|0:0,0:0:0:0:
272,124,207514,2,0,P|328:136|408:64,1,155.999992858887,8|0,0:0|0:0,0:0:0:0:
318,39,208014,2,0,L|322:211,1,155.999992858887,8|0,0:0|0:0,0:0:0:0:
268,272,208514,1,0,0:0:0:0:
48,240,208848,1,8,0:0:0:0:
36,196,209014,1,0,0:0:0:0:
40,148,209181,1,0,0:0:0:0:
60,104,209348,1,0,0:0:0:0:
104,84,209514,6,0,B|144:76|184:96|184:96|224:108|256:88,1,155.999992858887,4|0,0:0|0:0,0:0:0:0:
436,36,210181,2,0,P|480:112|456:184,1,155.999992858887,8|0,0:0|0:0,0:0:0:0:
368,180,210681,2,0,L|192:208,1,155.999992858887,0|0,0:0|0:0,0:0:0:0:
140,260,211181,1,0,0:0:0:0:
92,256,211348,1,0,0:0:0:0:
52,232,211514,2,0,L|40:144,1,77.9999964294435,8|0,0:0|0:0,0:0:0:0:
136,156,211848,2,0,L|140:60,1,77.9999964294435,0|0,0:0|0:0,0:0:0:0:
224,40,212181,6,0,B|296:48|296:48|380:40,2,155.999992858887,0|0|8,0:0|0:0|0:0,0:0:0:0:
60,128,213181,1,0,0:0:0:0:
60,128,213348,2,0,P|40:208|72:288,1,155.999992858887,0|0,0:0|0:0,0:0:0:0:
104,296,213848,1,0,0:0:0:0:
152,296,214014,1,0,0:0:0:0:
196,280,214181,2,0,P|236:272|372:284,1,155.999992858887,8|0,0:0|0:0,0:0:0:0:
396,296,214681,1,0,0:0:0:0:
440,304,214848,6,0,P|480:228|452:144,1,155.999992858887,4|0,0:0|0:0,0:0:0:0:
280,132,215514,2,0,P|232:148|140:84,1,155.999992858887,8|0,0:0|0:0,0:0:0:0:
228,52,216014,2,0,L|252:232,1,155.999992858887
320,268,216514,1,0,0:0:0:0:
484,180,216848,1,8,0:0:0:0:
344,56,217181,1,0,0:0:0:0:
296,56,217348,1,8,0:0:0:0:
248,60,217514,6,0,L|156:68,1,77.9999964294435,12|0,0:0|0:0,0:0:0:0:
124,72,217848,1,8,0:0:0:0:
48,244,218181,2,0,P|104:284|200:272,1,155.999992858887,8|0,0:0|0:0,0:0:0:0:
252,212,218681,2,0,P|300:192|408:220,1,155.999992858887,8|0,0:0|0:0,0:0:0:0:
464,280,219181,1,12,0:0:0:0:
232,344,219514,1,8,0:0:0:0:
188,312,219681,1,0,0:0:0:0:
164,264,219848,1,8,0:0:0:0:
160,208,220014,1,0,0:0:0:0:
180,156,220181,6,0,B|224:120|224:120|268:144|320:124,1,155.999992858887,4|0,0:0|0:0,0:0:0:0:
300,312,220848,2,0,B|256:348|256:348|212:324|160:344,1,155.999992858887,8|0,0:0|0:0,0:0:0:0:
12,232,221514,2,0,P|0:160|40:80,1,155.999992858887,0|0,0:0|0:0,0:0:0:0:
128,84,222014,2,0,P|176:100|280:84,1,155.999992858887,0|0,0:0|0:0,0:0:0:0:
356,32,222514,1,0,0:0:0:0:
280,204,222848,6,0,P|296:288|364:320,1,155.999992858887
504,212,223514,2,0,P|488:128|420:96,1,155.999992858887,8|0,0:0|0:0,0:0:0:0:
280,204,224181,2,0,P|192:232|128:200,1,155.999992858887,0|0,0:0|0:0,0:0:0:0:
124,124,224681,2,0,L|76:280,1,155.999992858887,0|0,0:0|0:0,0:0:0:0:
72,360,225181,2,0,P|108:356|160:372,1,77.9999964294435,0|0,0:0|0:0,0:0:0:0:
240,372,225514,6,0,P|312:328|320:248,1,155.999992858887,0|0,0:0|0:0,0:0:0:0:
152,184,226181,2,0,B|168:144|208:132|208:132|256:116|268:72,1,155.999992858887,8|0,0:0|0:0,0:0:0:0:
84,128,226848,2,0,P|72:220|123:267,1,155.999992858887,0|0,0:0|0:0,0:0:0:0:
188,268,227348,2,0,B|248:244|284:288|344:256,1,155.999992858887,0|0,0:0|0:0,0:0:0:0:
404,216,227848,2,0,L|416:136,1,77.9999964294435,0|0,0:0|0:0,0:0:0:0:
388,64,228181,5,0,0:0:0:0:
212,124,228514,1,8,0:0:0:0:
360,240,228848,2,0,P|368:280|360:320,2,77.9999964294435,8|0|0,0:0|0:0|0:0,0:0:0:0:
284,220,229348,2,0,P|236:240|132:220,1,155.999992858887,8|0,0:0|0:0,0:0:0:0:
92,156,229848,1,0,0:0:0:0:
232,36,230181,1,12,0:0:0:0:
284,48,230348,1,0,0:0:0:0:
340,52,230514,1,0,0:0:0:0:
396,44,230681,1,0,0:0:0:0:
448,28,230848,6,0,P|504:100|472:176,1,155.999992858887,4|0,0:0|0:0,0:0:0:0:
376,308,231514,2,0,P|320:236|352:160,1,155.999992858887,8|0,0:0|0:0,0:0:0:0:
404,144,232014,2,0,P|272:156|228:128,1,155.999992858887,0|0,0:0|0:0,0:0:0:0:
192,100,232514,2,0,P|152:100|100:128,1,77.9999964294435
84,188,232848,2,0,B|92:272|92:272|72:348,1,155.999992858887,8|0,0:0|0:0,0:0:0:0:
260,364,233514,6,0,B|280:288|280:288|336:216,1,155.999992858887
432,112,234181,2,0,P|388:32|296:52,1,155.999992858887,8|0,0:0|0:0,0:0:0:0:
268,88,234681,2,0,B|224:96|192:68|192:68|172:116|120:116,1,155.999992858887,0|0,0:0|0:0,0:0:0:0:
92,120,235181,1,0,0:0:0:0:
52,144,235348,1,0,0:0:0:0:
32,188,235514,2,0,P|40:260|128:296,1,155.999992858887,8|0,0:0|0:0,0:0:0:0:
152,288,236014,1,0,0:0:0:0:
196,276,236181,6,0,P|240:264|360:276,1,155.999992858887,4|0,0:0|0:0,0:0:0:0:
432,120,236848,2,0,P|388:132|268:120,1,155.999992858887,8|0,0:0|0:0,0:0:0:0:
236,104,237348,1,0,0:0:0:0:
192,88,237514,2,0,P|160:88|120:192,1,155.999992858887,0|0,0:0|0:0,0:0:0:0:
260,280,238181,1,8,0:0:0:0:
412,200,238514,2,0,L|424:108,1,77.9999964294435,0|8,0:0|0:0,0:0:0:0:
440,40,238848,6,0,L|516:24,2,77.9999964294435,8|0|8,0:0|0:0|0:0,0:0:0:0:
260,92,239514,1,8,0:0:0:0:
76,48,239848,2,0,P|60:72|56:140,1,77.9999964294435,0|8,0:0|0:0,0:0:0:0:
64,180,240181,1,0,0:0:0:0:
108,224,240348,1,0,0:0:0:0:
168,232,240514,1,4,0:0:0:0:
228,212,240681,1,0,0:0:0:0:
292,212,240848,1,8,0:0:0:0:
344,244,241014,1,0,0:0:0:0:
372,300,241181,2,0,P|412:324|524:280,1,155.999992858887,8|4,0:0|0:0,0:0:0:0:
256,192,241681,12,8,246181,0:0:0:0:
256,108,246848,6,0,P|312:96|424:112,2,155.999992858887,0|0|8,0:0|0:0|0:0,0:0:0:0:
212,256,247848,1,0,0:0:0:0:
212,256,248014,1,0,0:0:0:0:
212,256,248181,2,0,P|156:268|44:252,2,155.999992858887,0|0|8,0:0|0:0|0:0,0:0:0:0:
352,192,249181,1,0,0:0:0:0:
352,192,249348,1,0,0:0:0:0:
352,192,249514,6,0,P|404:232|388:328,1,155.999992858887,0|8,0:0|0:0,0:0:0:0:
244,296,250181,2,0,L|152:288,1,77.9999964294435,8|0,0:0|0:0,0:0:0:0:
92,308,250514,2,0,L|36:224,1,77.9999964294435,0|8,0:0|0:0,0:0:0:0:
80,172,250848,2,0,P|100:124|52:32,1,155.999992858887,0|0,0:0|0:0,0:0:0:0:
4,180,251514,2,0,L|176:196,1,155.999992858887,12|0,0:0|0:0,0:0:0:0:
212,196,252014,1,0,0:0:0:0:
268,196,252181,6,0,L|423:181,1,155.999992858887,4|0,0:0|0:0,0:0:0:0:
488,40,252848,2,0,L|332:54,1,155.999992858887,8|0,0:0|0:0,0:0:0:0:
280,64,253348,1,0,0:0:0:0:
228,48,253514,2,0,P|164:32|72:64,2,155.999992858887,0|0|8,0:0|0:0|0:0,0:0:0:0:
256,200,254514,1,0,0:0:0:0:
376,300,254848,6,0,P|436:232|432:156,2,155.999992858887,0|0|8,0:0|0:0|0:0,0:0:0:0:
220,276,255848,1,0,0:0:0:0:
220,276,256014,1,0,0:0:0:0:
220,276,256181,2,0,P|168:256|88:304,1,155.999992858887,0|0,0:0|0:0,0:0:0:0:
72,356,256681,1,0,0:0:0:0:
124,348,256848,2,0,L|92:180,1,155.999992858887,8|0,0:0|0:0,0:0:0:0:
160,52,257514,6,0,B|208:40|244:64|244:64|292:72|316:40,2,155.999992858887,4|0|8,0:0|0:0|0:0,0:0:0:0:
132,208,258514,1,0,0:0:0:0:
132,208,258681,1,0,0:0:0:0:
132,208,258848,2,0,B|120:264|72:280|72:280|48:316|68:352,2,155.999992858887,0|0|8,0:0|0:0|0:0,0:0:0:0:
172,168,259681,1,8,0:0:0:0:
224,156,259848,1,0,0:0:0:0:
276,168,260014,1,8,0:0:0:0:
324,192,260181,6,0,L|424:196,2,77.9999964294435,12|0|8,0:0|0:0|0:0,0:0:0:0:
168,88,260848,2,0,L|80:88,2,77.9999964294435,8|0|0,0:0|0:0|0:0,0:0:0:0:
224,88,261348,1,8,0:0:0:0:
276,96,261514,2,0,P|304:100|356:88,1,77.9999964294435,0|0,0:0|0:0,0:0:0:0:
400,64,261848,1,12,0:0:0:0:
492,192,262181,1,8,0:0:0:0:
496,248,262348,1,0,0:0:0:0:
472,296,262514,1,8,0:0:0:0:
420,316,262681,1,0,0:0:0:0:
364,312,262848,1,2,0:0:0:0:
256,232,273514,6,0,L|256:104,2,120,2|0|8,0:0|0:0|0:0,0:0:0:0:
296,344,274514,2,0,P|380:340|424:200,1,240,2|0,0:0|0:0,0:0:0:0:
356,112,275514,1,8,0:0:0:0:
240,148,275848,2,0,L|172:136,1,60,0|0,0:0|0:0,0:0:0:0:
120,128,276181,6,0,P|80:160|68:248,1,120,2|0,0:0|0:0,0:0:0:0:
88,340,276848,1,8,0:0:0:0:
188,276,277181,2,0,P|240:244|396:324,1,240,2|0,0:0|0:0,0:0:0:0:
280,356,278181,1,8,0:0:0:0:
188,276,278514,1,0,0:0:0:0:
224,160,278848,6,0,P|240:120|208:44,1,120,2|0,0:0|0:0,0:0:0:0:
96,28,279514,1,8,0:0:0:0:
28,128,279848,2,0,P|16:176|120:260,1,180,2|0,0:0|0:0,0:0:0:0:
156,244,280514,2,0,L|288:232,1,120,0|8,0:0|0:0,0:0:0:0:
384,180,281181,2,0,P|416:184|452:208,1,60,0|0,0:0|0:0,0:0:0:0:
488,264,281514,5,2,0:0:0:0:
488,264,281681,2,0,B|440:288|440:288|396:280|360:304,1,120,2|2,0:0|0:0,0:0:0:0:
324,324,282181,2,0,P|276:324|236:260,1,120,8|2,0:0|0:0,0:0:0:0:
268,152,282848,1,0,0:0:0:0:
156,84,283181,1,0,0:0:0:0:
108,92,283348,1,0,0:0:0:0:
80,128,283514,1,8,0:0:0:0:
64,172,283681,1,0,0:0:0:0:
68,220,283848,2,0,L|88:288,1,60,4|0,0:0|0:0,0:0:0:0:
