osu file format v14

[General]
AudioFilename: -resolve-.mp3
AudioLeadIn: 0
PreviewTime: 18066
Countdown: 0
SampleSet: None
StackLeniency: 0.7
Mode: 3
LetterboxInBreaks: 0
SpecialStyle: 0
WidescreenStoryboard: 0

[Editor]
DistanceSpacing: 0.8
BeatDivisor: 4
GridSize: 4
TimelineZoom: 2.799999

[Metadata]
Title:#3
TitleUnicode:#3
Artist:osu!speedmapping Challenge
ArtistUnicode:osu!speedmapping Challenge
Creator:_dog
Version:G-Nivrad00
Source:
Tags:Yu_Asahina 音楽 -resolve- Ongaku -resolve- fort nivrad00 blocko side xexxar faan dorothy3242 tehdragonguy
BeatmapID:737469
BeatmapSetID:333209

[Difficulty]
HPDrainRate:8
CircleSize:7
OverallDifficulty:8
ApproachRate:9
SliderMultiplier:1.4
SliderTickRate:1

[Events]
//Background and Video events
0,0,"1346144424.png",0,0
//Break Periods
//Storyboard Layer 0 (Background)
//Storyboard Layer 1 (Fail)
//Storyboard Layer 2 (Pass)
//Storyboard Layer 3 (Foreground)
//Storyboard Sound Samples

[TimingPoints]
0,363.636363636364,4,3,0,0,1,0
2545,500,3,3,0,0,1,0
10097,394.736842105263,3,3,0,0,1,0
15320,500,3,3,0,0,1,0
16733,444.444444444444,3,3,0,0,1,0
18062,413.793103448276,3,3,0,0,1,0
18461,400,3,3,0,0,1,0
18966,387.096774193548,3,3,0,0,1,0
21288,384.615384615385,3,3,0,0,1,0
22436,379.746835443038,3,3,0,0,1,0
23580,375,3,3,0,0,1,0
28830,379.746835443038,3,3,0,0,1,0
29589,387.096774193548,4,3,0,0,1,0
32715,382.165605095541,4,3,0,0,1,0
41886,375,4,3,0,0,1,0
44886,363.636363636364,4,3,0,0,1,0
55067,400,4,3,0,0,1,0
55867,413.793103448276,4,3,0,0,1,0
56280,444.444444444444,4,3,0,0,1,0
56724,387.096774193548,4,3,0,0,1,0
57498,375,4,3,0,0,1,0
58248,370.37037037037,4,3,0,0,1,0
59729,365.853658536585,4,3,0,0,1,0
61192,363.636363636364,4,3,0,0,1,0
63373,361.44578313253,4,3,0,0,1,0
64095,359.281437125748,4,3,0,0,1,0
64813,357.142857142857,4,3,0,0,1,0
65170,355.029585798817,4,3,0,0,1,0
65525,352.941176470588,4,3,0,0,1,0
68348,363.636363636364,4,3,0,0,1,0
72711,361.44578313253,4,3,0,0,1,0
73433,359.281437125748,4,3,0,0,1,0
74151,357.142857142857,4,3,0,0,1,0
74865,355.029585798817,4,3,0,0,1,0
75575,352.941176470588,4,3,0,0,1,0
75927,363.636363636364,4,3,0,0,1,0
76290,375,4,3,0,0,1,0
76665,387.096774193548,4,3,0,0,1,0
77052,451.127819548872,4,3,0,0,1,0
78856,461.538461538462,4,3,0,0,1,0
79779,444.444444444444,4,3,0,0,1,0
80667,472.44094488189,4,3,0,0,1,0
81139,526.315789473684,4,3,0,0,1,0
81665,363.636363636364,4,3,0,0,1,0
82028,361.44578313253,4,3,0,0,1,0
82389,359.281437125748,4,3,0,0,1,0
82748,363.636363636364,4,3,0,0,1,0
83111,352.941176470588,4,3,0,0,1,0
100052,350.877192982456,4,3,0,0,1,0
100402,348.837209302326,4,3,0,0,1,0
100750,346.820809248555,4,3,0,0,1,0
101096,344.827586206897,4,3,0,0,1,0
101440,342.857142857143,4,3,0,0,1,0
102811,352.941176470588,4,3,0,0,1,0
103516,350.877192982456,4,3,0,0,1,0
104217,348.837209302326,4,3,0,0,1,0
104914,346.820809248555,4,3,0,0,1,0
105607,344.827586206897,4,3,0,0,1,0
106296,342.857142857143,4,3,0,0,1,0
106981,340.909090909091,4,3,0,0,1,0
107662,338.983050847458,4,3,0,0,1,0
108339,337.078651685393,4,3,0,0,1,0
109013,335.195530726257,4,3,0,0,1,0
109683,333.333333333333,3,3,0,0,1,0
112683,331.491712707182,4,3,0,0,1,0
113014,329.67032967033,4,3,0,0,1,0
113343,327.868852459016,4,3,0,0,1,0
113670,326.086956521739,4,3,0,0,1,0
114322,324.324324324324,4,3,0,0,1,0
114970,322.58064516129,4,3,0,0,1,0
115615,320.855614973262,4,3,0,0,1,0
116256,319.148936170213,4,3,0,0,1,0
116894,317.460317460317,4,3,0,0,1,0
117528,315.789473684211,4,3,0,0,1,0
118159,333.333333333333,4,3,0,0,1,0
118492,352.941176470588,4,3,0,0,1,0
118844,272.727272727273,4,3,0,0,1,0
119934,363.636363636364,4,3,0,0,1,0

[HitObjects]
402,192,2545,5,0,0:0:0:0:
256,192,2545,1,0,0:0:0:0:
182,192,2545,1,0,0:0:0:0:
475,192,2795,1,0,0:0:0:0:
182,192,3045,1,0,0:0:0:0:
329,192,3295,1,0,0:0:0:0:
109,192,3295,1,0,0:0:0:0:
402,192,3326,1,0,0:0:0:0:
475,192,3357,1,0,0:0:0:0:
36,192,4045,1,0,0:0:0:0:
402,192,4045,1,0,0:0:0:0:
256,192,4045,1,0,0:0:0:0:
182,192,4211,1,0,0:0:0:0:
329,192,4295,1,0,0:0:0:0:
329,192,4461,1,0,0:0:0:0:
182,192,4545,1,0,0:0:0:0:
402,192,4711,1,0,0:0:0:0:
256,192,4795,1,0,0:0:0:0:
182,192,4795,1,0,0:0:0:0:
109,192,4795,1,0,0:0:0:0:
36,192,4961,1,0,0:0:0:0:
256,192,5045,1,0,0:0:0:0:
182,192,5128,1,0,0:0:0:0:
109,192,5170,1,0,0:0:0:0:
402,192,5211,1,0,0:0:0:0:
475,192,5263,1,0,0:0:0:0:
329,192,5295,1,0,0:0:0:0:
402,192,5545,1,0,0:0:0:0:
109,192,5545,1,0,0:0:0:0:
256,192,5545,1,0,0:0:0:0:
475,192,5795,1,0,0:0:0:0:
182,192,6045,1,0,0:0:0:0:
182,192,6295,1,0,0:0:0:0:
402,192,6295,1,0,0:0:0:0:
36,192,6295,1,0,0:0:0:0:
256,192,6545,1,0,0:0:0:0:
329,192,6711,1,0,0:0:0:0:
182,192,6795,1,0,0:0:0:0:
109,192,6795,1,0,0:0:0:0:
182,192,7045,1,0,0:0:0:0:
36,192,7045,1,0,0:0:0:0:
256,192,7045,1,0,0:0:0:0:
36,192,7857,1,0,0:0:0:0:
182,192,7878,1,0,0:0:0:0:
256,192,7920,1,0,0:0:0:0:
109,192,7920,1,0,0:0:0:0:
329,192,8003,1,0,0:0:0:0:
475,192,8045,1,0,0:0:0:0:
475,192,10045,128,0,11281:0:0:0:0:
36,192,10097,128,0,11281:0:0:0:0:
182,192,10097,128,0,11281:0:0:0:0:
256,192,10097,128,0,11281:0:0:0:0:
256,192,11379,1,0,0:0:0:0:
329,192,11478,1,0,0:0:0:0:
402,192,11577,1,0,0:0:0:0:
475,192,11675,1,0,0:0:0:0:
329,192,11675,1,0,0:0:0:0:
109,192,11675,1,0,0:0:0:0:
36,192,11675,1,0,0:0:0:0:
182,192,11774,1,0,0:0:0:0:
402,192,11873,1,0,0:0:0:0:
256,192,11873,1,0,0:0:0:0:
475,192,11972,1,0,0:0:0:0:
329,192,12070,1,0,0:0:0:0:
182,192,12070,1,0,0:0:0:0:
109,192,12169,1,0,0:0:0:0:
256,192,12268,1,0,0:0:0:0:
402,192,12268,1,0,0:0:0:0:
182,192,12366,1,0,0:0:0:0:
36,192,12366,1,0,0:0:0:0:
329,192,12465,1,0,0:0:0:0:
475,192,12465,1,0,0:0:0:0:
256,192,12564,1,0,0:0:0:0:
109,192,12564,1,0,0:0:0:0:
402,192,12662,1,0,0:0:0:0:
36,192,12662,1,0,0:0:0:0:
182,192,12761,1,0,0:0:0:0:
329,192,12761,1,0,0:0:0:0:
475,192,12860,1,0,0:0:0:0:
109,192,12860,1,0,0:0:0:0:
402,192,12909,1,0,0:0:0:0:
329,192,12958,1,0,0:0:0:0:
256,192,13008,1,0,0:0:0:0:
182,192,13057,1,0,0:0:0:0:
109,192,13106,1,0,0:0:0:0:
36,192,13156,1,0,0:0:0:0:
256,192,13205,1,0,0:0:0:0:
329,192,13254,1,0,0:0:0:0:
475,192,13254,1,0,0:0:0:0:
182,192,13254,1,0,0:0:0:0:
36,192,13353,1,0,0:0:0:0:
109,192,13452,1,0,0:0:0:0:
182,192,13452,1,0,0:0:0:0:
475,192,13452,1,0,0:0:0:0:
402,192,13550,1,0,0:0:0:0:
329,192,13550,1,0,0:0:0:0:
182,192,13649,1,0,0:0:0:0:
36,192,13649,1,0,0:0:0:0:
256,192,13748,1,0,0:0:0:0:
402,192,13748,1,0,0:0:0:0:
475,192,13846,1,0,0:0:0:0:
109,192,13846,1,0,0:0:0:0:
182,192,13945,1,0,0:0:0:0:
329,192,13945,1,0,0:0:0:0:
36,192,14044,1,0,0:0:0:0:
256,192,14044,1,0,0:0:0:0:
182,192,14110,1,0,0:0:0:0:
402,192,14143,1,0,0:0:0:0:
109,192,14175,1,0,0:0:0:0:
329,192,14241,1,0,0:0:0:0:
256,192,14307,1,0,0:0:0:0:
475,192,14340,1,0,0:0:0:0:
182,192,14373,1,0,0:0:0:0:
36,192,14439,1,0,0:0:0:0:
329,192,14439,1,0,0:0:0:0:
402,192,14504,1,0,0:0:0:0:
329,192,14570,1,0,0:0:0:0:
182,192,14636,1,0,0:0:0:0:
256,192,14735,1,0,0:0:0:0:
329,192,14735,1,0,0:0:0:0:
475,192,14735,1,0,0:0:0:0:
109,192,14735,1,0,0:0:0:0:
36,192,14735,1,0,0:0:0:0:
402,192,15320,1,0,0:0:0:0:
329,192,15320,1,0,0:0:0:0:
182,192,15320,1,0,0:0:0:0:
109,192,15320,1,0,0:0:0:0:
36,192,15320,1,0,0:0:0:0:
109,192,16320,1,0,0:0:0:0:
36,192,16320,1,0,0:0:0:0:
475,192,18966,1,0,0:0:0:0:
402,192,18966,1,0,0:0:0:0:
329,192,18966,1,0,0:0:0:0:
182,192,18966,1,0,0:0:0:0:
36,192,18966,1,0,0:0:0:0:
256,192,19353,1,0,0:0:0:0:
402,192,19353,1,0,0:0:0:0:
182,192,19611,1,0,0:0:0:0:
329,192,19740,1,0,0:0:0:0:
475,192,19740,1,0,0:0:0:0:
109,192,19740,1,0,0:0:0:0:
36,192,19740,1,0,0:0:0:0:
402,192,20127,1,0,0:0:0:0:
256,192,20127,1,0,0:0:0:0:
182,192,20256,1,0,0:0:0:0:
109,192,20385,1,0,0:0:0:0:
36,192,20514,1,0,0:0:0:0:
256,192,20514,1,0,0:0:0:0:
402,192,20514,1,0,0:0:0:0:
182,192,20901,1,0,0:0:0:0:
329,192,20901,1,0,0:0:0:0:
36,192,21159,1,0,0:0:0:0:
256,192,21288,1,0,0:0:0:0:
109,192,21288,1,0,0:0:0:0:
329,192,21480,1,0,0:0:0:0:
475,192,21480,1,0,0:0:0:0:
182,192,21576,1,0,0:0:0:0:
256,192,21672,1,0,0:0:0:0:
402,192,21672,1,0,0:0:0:0:
109,192,21768,1,0,0:0:0:0:
182,192,21864,1,0,0:0:0:0:
329,192,21864,1,0,0:0:0:0:
36,192,21961,1,0,0:0:0:0:
256,192,22057,1,0,0:0:0:0:
402,192,22057,1,0,0:0:0:0:
329,192,22436,1,0,0:0:0:0:
36,192,22436,1,0,0:0:0:0:
109,192,22815,1,0,0:0:0:0:
402,192,22815,1,0,0:0:0:0:
36,192,22815,1,0,0:0:0:0:
256,192,22815,1,0,0:0:0:0:
329,192,23005,1,0,0:0:0:0:
182,192,23005,1,0,0:0:0:0:
109,192,23195,1,0,0:0:0:0:
256,192,23195,1,0,0:0:0:0:
329,192,23385,1,0,0:0:0:0:
475,192,23385,1,0,0:0:0:0:
475,192,23575,1,0,0:0:0:0:
329,192,23575,1,0,0:0:0:0:
109,192,23575,1,0,0:0:0:0:
36,192,23575,1,0,0:0:0:0:
182,192,23767,1,0,0:0:0:0:
402,192,23955,1,0,0:0:0:0:
256,192,23955,1,0,0:0:0:0:
182,192,23955,1,0,0:0:0:0:
329,192,24142,1,0,0:0:0:0:
329,192,24330,1,0,0:0:0:0:
475,192,24330,1,0,0:0:0:0:
182,192,24330,1,0,0:0:0:0:
36,192,24330,1,0,0:0:0:0:
256,192,24517,1,0,0:0:0:0:
256,192,24705,1,0,0:0:0:0:
402,192,24705,1,0,0:0:0:0:
475,192,24705,1,0,0:0:0:0:
109,192,24705,1,0,0:0:0:0:
182,192,24892,1,0,0:0:0:0:
182,192,25080,1,0,0:0:0:0:
36,192,25080,1,0,0:0:0:0:
256,192,25080,1,0,0:0:0:0:
329,192,25080,1,0,0:0:0:0:
475,192,25080,1,0,0:0:0:0:
402,192,25267,1,0,0:0:0:0:
329,192,25455,1,0,0:0:0:0:
182,192,25455,1,0,0:0:0:0:
402,192,25455,1,0,0:0:0:0:
109,192,25642,1,0,0:0:0:0:
36,192,25830,1,0,0:0:0:0:
109,192,25830,1,0,0:0:0:0:
256,192,25830,1,0,0:0:0:0:
475,192,25830,1,0,0:0:0:0:
402,192,26017,1,0,0:0:0:0:
256,192,26017,1,0,0:0:0:0:
329,192,26205,1,0,0:0:0:0:
182,192,26205,1,0,0:0:0:0:
256,192,26392,1,0,0:0:0:0:
109,192,26392,1,0,0:0:0:0:
36,192,26580,1,0,0:0:0:0:
329,192,26580,1,0,0:0:0:0:
475,192,26580,1,0,0:0:0:0:
256,192,26580,1,0,0:0:0:0:
36,192,26955,1,0,0:0:0:0:
182,192,26955,1,0,0:0:0:0:
329,192,26955,1,0,0:0:0:0:
36,192,27330,1,0,0:0:0:0:
256,192,27517,1,0,0:0:0:0:
475,192,27517,1,0,0:0:0:0:
36,192,27705,1,0,0:0:0:0:
182,192,27705,1,0,0:0:0:0:
402,192,27705,1,0,0:0:0:0:
329,192,27892,1,0,0:0:0:0:
109,192,27892,1,0,0:0:0:0:
36,192,28080,1,0,0:0:0:0:
182,192,28080,1,0,0:0:0:0:
402,192,28080,1,0,0:0:0:0:
329,192,28205,1,0,0:0:0:0:
256,192,28330,1,0,0:0:0:0:
36,192,28455,1,0,0:0:0:0:
182,192,28455,1,0,0:0:0:0:
475,192,28455,1,0,0:0:0:0:
402,192,28580,1,0,0:0:0:0:
329,192,28705,1,0,0:0:0:0:
109,192,28736,1,0,0:0:0:0:
36,192,28830,1,0,0:0:0:0:
256,192,28830,1,0,0:0:0:0:
182,192,28830,1,0,0:0:0:0:
329,192,28877,1,0,0:0:0:0:
402,192,28901,1,0,0:0:0:0:
475,192,28924,1,0,0:0:0:0:
36,192,29019,1,0,0:0:0:0:
36,192,29209,1,0,0:0:0:0:
182,192,29209,1,0,0:0:0:0:
329,192,29209,1,0,0:0:0:0:
402,192,29209,1,0,0:0:0:0:
36,192,29399,1,0,0:0:0:0:
36,192,29589,1,0,0:0:0:0:
402,192,29589,1,0,0:0:0:0:
475,192,29589,1,0,0:0:0:0:
256,192,29589,1,0,0:0:0:0:
109,192,29589,1,0,0:0:0:0:
109,192,29782,1,0,0:0:0:0:
182,192,29782,1,0,0:0:0:0:
329,192,29782,1,0,0:0:0:0:
402,192,29782,1,0,0:0:0:0:
256,192,29879,1,0,0:0:0:0:
475,192,29976,1,0,0:0:0:0:
182,192,30072,1,0,0:0:0:0:
402,192,30169,1,0,0:0:0:0:
109,192,30266,1,0,0:0:0:0:
329,192,30363,1,0,0:0:0:0:
36,192,30459,1,0,0:0:0:0:
109,192,30556,1,0,0:0:0:0:
182,192,30605,1,0,0:0:0:0:
256,192,30653,1,0,0:0:0:0:
329,192,30701,1,0,0:0:0:0:
475,192,30750,1,0,0:0:0:0:
36,192,30750,1,0,0:0:0:0:
182,192,30847,1,0,0:0:0:0:
329,192,30943,1,0,0:0:0:0:
475,192,31040,1,0,0:0:0:0:
256,192,31137,1,0,0:0:0:0:
109,192,31137,1,0,0:0:0:0:
36,192,31137,1,0,0:0:0:0:
36,192,31330,1,0,0:0:0:0:
182,192,31330,1,0,0:0:0:0:
329,192,31330,1,0,0:0:0:0:
402,192,31330,1,0,0:0:0:0:
329,192,31524,1,0,0:0:0:0:
475,192,31621,1,0,0:0:0:0:
329,192,31718,1,0,0:0:0:0:
36,192,31718,1,0,0:0:0:0:
182,192,31814,1,0,0:0:0:0:
256,192,31911,1,0,0:0:0:0:
402,192,32008,1,0,0:0:0:0:
109,192,32105,1,0,0:0:0:0:
182,192,32153,1,0,0:0:0:0:
256,192,32201,1,0,0:0:0:0:
329,192,32250,1,0,0:0:0:0:
475,192,32298,1,0,0:0:0:0:
36,192,32298,1,0,0:0:0:0:
182,192,32395,1,0,0:0:0:0:
329,192,32492,1,0,0:0:0:0:
329,192,32685,1,0,0:0:0:0:
182,192,32685,1,0,0:0:0:0:
109,192,32685,1,0,0:0:0:0:
36,192,32685,1,0,0:0:0:0:
256,192,32906,1,0,0:0:0:0:
109,192,32906,1,0,0:0:0:0:
475,192,33097,1,0,0:0:0:0:
256,192,33097,1,0,0:0:0:0:
402,192,33097,1,0,0:0:0:0:
182,192,33288,1,0,0:0:0:0:
329,192,33288,1,0,0:0:0:0:
475,192,33479,1,0,0:0:0:0:
36,192,33479,1,0,0:0:0:0:
329,192,33479,1,0,0:0:0:0:
402,192,33670,1,0,0:0:0:0:
256,192,33670,1,0,0:0:0:0:
109,192,33861,1,0,0:0:0:0:
402,192,33861,1,0,0:0:0:0:
256,192,33861,1,0,0:0:0:0:
329,192,34052,1,0,0:0:0:0:
36,192,34052,1,0,0:0:0:0:
182,192,34052,1,0,0:0:0:0:
36,192,34243,1,0,0:0:0:0:
402,192,34243,1,0,0:0:0:0:
256,192,34243,1,0,0:0:0:0:
256,192,34434,1,0,0:0:0:0:
109,192,34434,1,0,0:0:0:0:
475,192,34625,1,0,0:0:0:0:
256,192,34625,1,0,0:0:0:0:
402,192,34625,1,0,0:0:0:0:
329,192,34816,1,0,0:0:0:0:
182,192,34816,1,0,0:0:0:0:
36,192,34912,1,0,0:0:0:0:
36,192,35007,1,0,0:0:0:0:
256,192,35007,1,0,0:0:0:0:
402,192,35007,1,0,0:0:0:0:
256,192,35199,1,0,0:0:0:0:
109,192,35199,1,0,0:0:0:0:
36,192,35199,1,0,0:0:0:0:
182,192,35390,1,0,0:0:0:0:
329,192,35390,1,0,0:0:0:0:
109,192,35453,1,0,0:0:0:0:
182,192,35517,1,0,0:0:0:0:
256,192,35581,1,0,0:0:0:0:
402,192,35581,1,0,0:0:0:0:
36,192,35581,1,0,0:0:0:0:
256,192,35772,1,0,0:0:0:0:
329,192,35772,1,0,0:0:0:0:
36,192,35772,1,0,0:0:0:0:
475,192,35772,128,0,35867:0:0:0:0:
402,192,35963,1,0,0:0:0:0:
475,192,35963,1,0,0:0:0:0:
182,192,35963,128,0,36345:0:0:0:0:
109,192,36154,1,0,0:0:0:0:
256,192,36345,1,0,0:0:0:0:
329,192,36409,1,0,0:0:0:0:
402,192,36472,1,0,0:0:0:0:
36,192,36536,1,0,0:0:0:0:
475,192,36536,128,0,36632:0:0:0:0:
402,192,36727,1,0,0:0:0:0:
475,192,36727,1,0,0:0:0:0:
256,192,36727,128,0,37109:0:0:0:0:
109,192,36918,1,0,0:0:0:0:
36,192,37300,1,0,0:0:0:0:
475,192,37300,1,0,0:0:0:0:
329,192,37300,128,0,37396:0:0:0:0:
256,192,37492,1,0,0:0:0:0:
329,192,37492,1,0,0:0:0:0:
109,192,37492,128,0,37874:0:0:0:0:
182,192,37683,1,0,0:0:0:0:
182,192,37874,1,0,0:0:0:0:
256,192,37937,1,0,0:0:0:0:
329,192,38001,1,0,0:0:0:0:
36,192,38065,1,0,0:0:0:0:
402,192,38065,128,0,38160:0:0:0:0:
182,192,38256,1,0,0:0:0:0:
329,192,38256,1,0,0:0:0:0:
109,192,38256,1,0,0:0:0:0:
329,192,38351,1,0,0:0:0:0:
475,192,38447,1,0,0:0:0:0:
36,192,38447,1,0,0:0:0:0:
182,192,38543,1,0,0:0:0:0:
329,192,38543,1,0,0:0:0:0:
36,192,38638,1,0,0:0:0:0:
475,192,38638,1,0,0:0:0:0:
182,192,38734,1,0,0:0:0:0:
329,192,38734,1,0,0:0:0:0:
36,192,38829,1,0,0:0:0:0:
256,192,38829,1,0,0:0:0:0:
475,192,38829,1,0,0:0:0:0:
402,192,38829,128,0,38925:0:0:0:0:
109,192,39020,1,0,0:0:0:0:
182,192,39020,128,0,39593:0:0:0:0:
36,192,39211,1,0,0:0:0:0:
36,192,39593,1,0,0:0:0:0:
182,192,39785,1,0,0:0:0:0:
329,192,39785,1,0,0:0:0:0:
256,192,39976,1,0,0:0:0:0:
402,192,39976,1,0,0:0:0:0:
36,192,39976,1,0,0:0:0:0:
329,192,40167,1,0,0:0:0:0:
475,192,40167,1,0,0:0:0:0:
256,192,40358,1,0,0:0:0:0:
109,192,40358,1,0,0:0:0:0:
36,192,40358,1,0,0:0:0:0:
402,192,40358,1,0,0:0:0:0:
329,192,40485,1,0,0:0:0:0:
182,192,40485,1,0,0:0:0:0:
182,192,40613,1,0,0:0:0:0:
329,192,40613,1,0,0:0:0:0:
475,192,40740,1,0,0:0:0:0:
109,192,40740,1,0,0:0:0:0:
36,192,40740,1,0,0:0:0:0:
329,192,40740,1,0,0:0:0:0:
402,192,40867,1,0,0:0:0:0:
256,192,40867,1,0,0:0:0:0:
256,192,40995,1,0,0:0:0:0:
402,192,40995,1,0,0:0:0:0:
475,192,41122,1,0,0:0:0:0:
402,192,41122,1,0,0:0:0:0:
109,192,41122,1,0,0:0:0:0:
36,192,41122,1,0,0:0:0:0:
182,192,41250,1,0,0:0:0:0:
329,192,41250,1,0,0:0:0:0:
182,192,41377,1,0,0:0:0:0:
329,192,41377,1,0,0:0:0:0:
475,192,41504,1,0,0:0:0:0:
402,192,41504,1,0,0:0:0:0:
36,192,41504,1,0,0:0:0:0:
256,192,41504,1,0,0:0:0:0:
109,192,41568,1,0,0:0:0:0:
182,192,41632,1,0,0:0:0:0:
256,192,41695,1,0,0:0:0:0:
329,192,41759,1,0,0:0:0:0:
402,192,41823,1,0,0:0:0:0:
475,192,41886,1,0,0:0:0:0:
36,192,41886,1,0,0:0:0:0:
109,192,41886,1,0,0:0:0:0:
182,192,41886,1,0,0:0:0:0:
402,192,42261,1,0,0:0:0:0:
109,192,42261,1,0,0:0:0:0:
329,192,42354,1,0,0:0:0:0:
256,192,42448,1,0,0:0:0:0:
182,192,42542,1,0,0:0:0:0:
402,192,42636,1,0,0:0:0:0:
109,192,42636,1,0,0:0:0:0:
329,192,42729,1,0,0:0:0:0:
256,192,42823,1,0,0:0:0:0:
182,192,42917,1,0,0:0:0:0:
402,192,43011,1,0,0:0:0:0:
109,192,43011,1,0,0:0:0:0:
329,192,43104,1,0,0:0:0:0:
256,192,43198,1,0,0:0:0:0:
182,192,43292,1,0,0:0:0:0:
329,192,43386,1,0,0:0:0:0:
475,192,43386,1,0,0:0:0:0:
109,192,43386,1,0,0:0:0:0:
36,192,43386,1,0,0:0:0:0:
256,192,43479,1,0,0:0:0:0:
182,192,43573,1,0,0:0:0:0:
109,192,43667,1,0,0:0:0:0:
329,192,43761,1,0,0:0:0:0:
36,192,43761,1,0,0:0:0:0:
256,192,43854,1,0,0:0:0:0:
182,192,43948,1,0,0:0:0:0:
109,192,44042,1,0,0:0:0:0:
36,192,44136,1,0,0:0:0:0:
329,192,44136,1,0,0:0:0:0:
109,192,44182,1,0,0:0:0:0:
182,192,44229,1,0,0:0:0:0:
256,192,44276,1,0,0:0:0:0:
329,192,44323,1,0,0:0:0:0:
182,192,44323,1,0,0:0:0:0:
402,192,44370,1,0,0:0:0:0:
109,192,44417,1,0,0:0:0:0:
475,192,44417,1,0,0:0:0:0:
36,192,44511,1,0,0:0:0:0:
256,192,44511,1,0,0:0:0:0:
402,192,44511,1,0,0:0:0:0:
475,192,44511,1,0,0:0:0:0:
36,192,44886,1,0,0:0:0:0:
109,192,44886,1,0,0:0:0:0:
256,192,44886,1,0,0:0:0:0:
475,192,44886,1,0,0:0:0:0:
329,192,44886,1,0,0:0:0:0:
36,192,45249,1,0,0:0:0:0:
109,192,45249,1,0,0:0:0:0:
402,192,45249,1,0,0:0:0:0:
475,192,45249,1,0,0:0:0:0:
329,192,45249,1,0,0:0:0:0:
256,192,45340,1,0,0:0:0:0:
182,192,45431,1,0,0:0:0:0:
475,192,45522,1,0,0:0:0:0:
109,192,45522,1,0,0:0:0:0:
402,192,45522,1,0,0:0:0:0:
36,192,45613,1,0,0:0:0:0:
256,192,45613,1,0,0:0:0:0:
475,192,45704,1,0,0:0:0:0:
182,192,45704,1,0,0:0:0:0:
402,192,45704,1,0,0:0:0:0:
109,192,45795,1,0,0:0:0:0:
329,192,45886,1,0,0:0:0:0:
182,192,45886,1,0,0:0:0:0:
256,192,45976,1,0,0:0:0:0:
402,192,45976,1,0,0:0:0:0:
109,192,45976,1,0,0:0:0:0:
36,192,45976,1,0,0:0:0:0:
329,192,46158,1,0,0:0:0:0:
475,192,46158,1,0,0:0:0:0:
475,192,46340,1,0,0:0:0:0:
182,192,46340,1,0,0:0:0:0:
36,192,46340,1,0,0:0:0:0:
256,192,46340,1,0,0:0:0:0:
402,192,46431,1,0,0:0:0:0:
329,192,46522,1,0,0:0:0:0:
182,192,46613,1,0,0:0:0:0:
109,192,46613,1,0,0:0:0:0:
402,192,46613,1,0,0:0:0:0:
475,192,46704,1,0,0:0:0:0:
182,192,46795,1,0,0:0:0:0:
109,192,46795,1,0,0:0:0:0:
329,192,46795,1,0,0:0:0:0:
402,192,46886,1,0,0:0:0:0:
109,192,46976,1,0,0:0:0:0:
182,192,46976,1,0,0:0:0:0:
329,192,46976,1,0,0:0:0:0:
475,192,47067,1,0,0:0:0:0:
182,192,47158,1,0,0:0:0:0:
109,192,47158,1,0,0:0:0:0:
402,192,47158,1,0,0:0:0:0:
329,192,47249,1,0,0:0:0:0:
36,192,47340,1,0,0:0:0:0:
109,192,47340,1,0,0:0:0:0:
402,192,47340,1,0,0:0:0:0:
109,192,47431,1,0,0:0:0:0:
256,192,47431,1,0,0:0:0:0:
475,192,47431,1,0,0:0:0:0:
182,192,47613,1,0,0:0:0:0:
36,192,47613,1,0,0:0:0:0:
402,192,47613,1,0,0:0:0:0:
256,192,47795,1,0,0:0:0:0:
475,192,47795,1,0,0:0:0:0:
36,192,47795,1,0,0:0:0:0:
182,192,47886,1,0,0:0:0:0:
329,192,47976,1,0,0:0:0:0:
402,192,47976,1,0,0:0:0:0:
109,192,47976,1,0,0:0:0:0:
329,192,48067,1,0,0:0:0:0:
402,192,48067,1,0,0:0:0:0:
36,192,48067,1,0,0:0:0:0:
182,192,48158,1,0,0:0:0:0:
329,192,48249,1,0,0:0:0:0:
402,192,48249,1,0,0:0:0:0:
109,192,48249,1,0,0:0:0:0:
36,192,48340,1,0,0:0:0:0:
329,192,48431,1,0,0:0:0:0:
402,192,48431,1,0,0:0:0:0:
109,192,48431,1,0,0:0:0:0:
182,192,48522,1,0,0:0:0:0:
329,192,48613,1,0,0:0:0:0:
402,192,48613,1,0,0:0:0:0:
36,192,48613,1,0,0:0:0:0:
109,192,48704,1,0,0:0:0:0:
329,192,48795,1,0,0:0:0:0:
402,192,48795,1,0,0:0:0:0:
182,192,48795,1,0,0:0:0:0:
329,192,48886,1,0,0:0:0:0:
475,192,48886,1,0,0:0:0:0:
36,192,48886,1,0,0:0:0:0:
109,192,48976,1,0,0:0:0:0:
256,192,49067,1,0,0:0:0:0:
402,192,49067,1,0,0:0:0:0:
182,192,49067,1,0,0:0:0:0:
109,192,49158,1,0,0:0:0:0:
36,192,49249,1,0,0:0:0:0:
256,192,49249,1,0,0:0:0:0:
329,192,49249,1,0,0:0:0:0:
475,192,49249,1,0,0:0:0:0:
109,192,49340,1,0,0:0:0:0:
182,192,49431,1,0,0:0:0:0:
256,192,49522,1,0,0:0:0:0:
109,192,49613,1,0,0:0:0:0:
36,192,49613,1,0,0:0:0:0:
329,192,49613,1,0,0:0:0:0:
402,192,49613,1,0,0:0:0:0:
475,192,49704,1,0,0:0:0:0:
329,192,49795,1,0,0:0:0:0:
256,192,49886,1,0,0:0:0:0:
36,192,49976,1,0,0:0:0:0:
402,192,49976,1,0,0:0:0:0:
475,192,49976,1,0,0:0:0:0:
182,192,49976,128,0,50704:0:0:0:0:
256,192,50158,1,0,0:0:0:0:
109,192,50340,1,0,0:0:0:0:
36,192,50340,1,0,0:0:0:0:
329,192,50340,1,0,0:0:0:0:
475,192,50340,1,0,0:0:0:0:
256,192,50522,1,0,0:0:0:0:
36,192,50704,1,0,0:0:0:0:
402,192,50704,1,0,0:0:0:0:
475,192,50704,1,0,0:0:0:0:
109,192,50704,1,0,0:0:0:0:
109,192,50886,128,0,51431:0:0:0:0:
402,192,50886,128,0,51431:0:0:0:0:
36,192,50886,1,0,0:0:0:0:
475,192,50886,1,0,0:0:0:0:
329,192,51067,1,0,0:0:0:0:
182,192,51067,1,0,0:0:0:0:
36,192,51431,1,0,0:0:0:0:
475,192,51431,1,0,0:0:0:0:
329,192,51431,1,0,0:0:0:0:
182,192,51431,1,0,0:0:0:0:
36,192,51613,1,0,0:0:0:0:
182,192,51613,128,0,52158:0:0:0:0:
329,192,51613,128,0,52158:0:0:0:0:
475,192,51613,1,0,0:0:0:0:
256,192,51795,1,0,0:0:0:0:
109,192,51795,1,0,0:0:0:0:
402,192,51795,1,0,0:0:0:0:
36,192,52158,1,0,0:0:0:0:
109,192,52158,1,0,0:0:0:0:
402,192,52158,1,0,0:0:0:0:
475,192,52158,1,0,0:0:0:0:
36,192,52340,128,0,52886:0:0:0:0:
475,192,52340,128,0,52886:0:0:0:0:
109,192,52340,1,0,0:0:0:0:
402,192,52340,1,0,0:0:0:0:
256,192,52522,1,0,0:0:0:0:
182,192,52522,1,0,0:0:0:0:
329,192,52522,1,0,0:0:0:0:
109,192,52886,1,0,0:0:0:0:
182,192,52886,1,0,0:0:0:0:
329,192,52886,1,0,0:0:0:0:
402,192,52886,1,0,0:0:0:0:
402,192,53067,1,0,0:0:0:0:
109,192,53067,1,0,0:0:0:0:
182,192,53067,128,0,53613:0:0:0:0:
329,192,53067,128,0,53613:0:0:0:0:
256,192,53249,1,0,0:0:0:0:
36,192,53249,1,0,0:0:0:0:
475,192,53249,1,0,0:0:0:0:
256,192,53613,1,0,0:0:0:0:
109,192,53613,1,0,0:0:0:0:
36,192,53613,1,0,0:0:0:0:
256,192,53795,128,0,54340:0:0:0:0:
402,192,53795,128,0,54340:0:0:0:0:
475,192,53795,1,0,0:0:0:0:
36,192,53795,1,0,0:0:0:0:
109,192,53795,1,0,0:0:0:0:
36,192,53976,1,0,0:0:0:0:
182,192,53976,1,0,0:0:0:0:
109,192,54340,128,0,54522:0:0:0:0:
36,192,54340,1,0,0:0:0:0:
329,192,54340,1,0,0:0:0:0:
475,192,54340,1,0,0:0:0:0:
182,192,54522,128,0,54704:0:0:0:0:
36,192,54522,1,0,0:0:0:0:
402,192,54522,1,0,0:0:0:0:
256,192,54522,1,0,0:0:0:0:
475,192,54613,1,0,0:0:0:0:
256,192,54704,128,0,54886:0:0:0:0:
109,192,54704,1,0,0:0:0:0:
329,192,54704,1,0,0:0:0:0:
182,192,54886,128,0,55067:0:0:0:0:
402,192,54886,1,0,0:0:0:0:
36,192,54886,1,0,0:0:0:0:
475,192,54976,1,0,0:0:0:0:
109,192,55067,1,0,0:0:0:0:
36,192,55067,1,0,0:0:0:0:
402,192,55067,1,0,0:0:0:0:
329,192,55067,1,0,0:0:0:0:
329,192,55367,1,0,0:0:0:0:
256,192,55367,1,0,0:0:0:0:
256,192,55467,1,0,0:0:0:0:
329,192,55467,1,0,0:0:0:0:
475,192,55467,1,0,0:0:0:0:
109,192,55467,1,0,0:0:0:0:
402,192,55667,1,0,0:0:0:0:
475,192,55667,1,0,0:0:0:0:
182,192,55867,1,0,0:0:0:0:
36,192,55867,1,0,0:0:0:0:
402,192,55867,128,0,56724:0:0:0:0:
329,192,56073,128,0,56724:0:0:0:0:
182,192,56280,128,0,56724:0:0:0:0:
109,192,56502,128,0,56724:0:0:0:0:
36,192,56724,1,0,0:0:0:0:
256,192,56724,1,0,0:0:0:0:
475,192,56724,1,0,0:0:0:0:
109,192,56820,1,0,0:0:0:0:
182,192,56917,1,0,0:0:0:0:
256,192,57014,1,0,0:0:0:0:
329,192,57111,1,0,0:0:0:0:
182,192,57111,1,0,0:0:0:0:
109,192,57304,1,0,0:0:0:0:
402,192,57304,1,0,0:0:0:0:
256,192,57304,1,0,0:0:0:0:
475,192,57498,1,0,0:0:0:0:
329,192,57498,1,0,0:0:0:0:
182,192,57498,1,0,0:0:0:0:
36,192,57498,1,0,0:0:0:0:
256,192,57498,1,0,0:0:0:0:
109,192,57591,1,0,0:0:0:0:
182,192,57685,1,0,0:0:0:0:
256,192,57779,1,0,0:0:0:0:
329,192,57873,1,0,0:0:0:0:
475,192,57873,1,0,0:0:0:0:
109,192,58060,1,0,0:0:0:0:
182,192,58060,1,0,0:0:0:0:
36,192,58060,1,0,0:0:0:0:
182,192,58248,1,0,0:0:0:0:
36,192,58248,1,0,0:0:0:0:
475,192,58248,1,0,0:0:0:0:
256,192,58248,1,0,0:0:0:0:
402,192,58340,1,0,0:0:0:0:
329,192,58433,1,0,0:0:0:0:
256,192,58525,1,0,0:0:0:0:
182,192,58618,1,0,0:0:0:0:
36,192,58618,1,0,0:0:0:0:
329,192,58803,1,0,0:0:0:0:
402,192,58803,1,0,0:0:0:0:
256,192,58803,1,0,0:0:0:0:
329,192,58988,1,0,0:0:0:0:
475,192,58988,1,0,0:0:0:0:
182,192,58988,1,0,0:0:0:0:
36,192,58988,1,0,0:0:0:0:
109,192,59081,1,0,0:0:0:0:
256,192,59173,1,0,0:0:0:0:
402,192,59266,1,0,0:0:0:0:
475,192,59359,1,0,0:0:0:0:
256,192,59359,1,0,0:0:0:0:
182,192,59359,1,0,0:0:0:0:
36,192,59359,1,0,0:0:0:0:
329,192,59544,1,0,0:0:0:0:
256,192,59729,1,0,0:0:0:0:
109,192,59729,1,0,0:0:0:0:
36,192,59729,1,0,0:0:0:0:
475,192,59729,1,0,0:0:0:0:
402,192,59729,1,0,0:0:0:0:
182,192,59820,1,0,0:0:0:0:
256,192,59911,1,0,0:0:0:0:
329,192,60003,1,0,0:0:0:0:
402,192,60094,1,0,0:0:0:0:
329,192,60186,1,0,0:0:0:0:
256,192,60277,1,0,0:0:0:0:
36,192,60277,1,0,0:0:0:0:
182,192,60369,1,0,0:0:0:0:
109,192,60460,1,0,0:0:0:0:
402,192,60460,1,0,0:0:0:0:
475,192,60460,1,0,0:0:0:0:
36,192,60460,1,0,0:0:0:0:
329,192,60460,1,0,0:0:0:0:
182,192,60552,1,0,0:0:0:0:
256,192,60643,1,0,0:0:0:0:
402,192,60735,1,0,0:0:0:0:
475,192,60826,1,0,0:0:0:0:
402,192,60918,1,0,0:0:0:0:
256,192,61009,1,0,0:0:0:0:
36,192,61009,1,0,0:0:0:0:
182,192,61100,1,0,0:0:0:0:
109,192,61192,1,0,0:0:0:0:
36,192,61192,1,0,0:0:0:0:
329,192,61192,1,0,0:0:0:0:
402,192,61192,1,0,0:0:0:0:
475,192,61192,1,0,0:0:0:0:
475,192,61373,1,0,0:0:0:0:
329,192,61434,1,0,0:0:0:0:
475,192,61495,1,0,0:0:0:0:
329,192,61555,1,0,0:0:0:0:
182,192,61555,1,0,0:0:0:0:
109,192,61555,1,0,0:0:0:0:
36,192,61555,1,0,0:0:0:0:
475,192,61616,1,0,0:0:0:0:
329,192,61676,1,0,0:0:0:0:
475,192,61737,1,0,0:0:0:0:
329,192,61798,1,0,0:0:0:0:
182,192,61858,1,0,0:0:0:0:
256,192,61919,1,0,0:0:0:0:
109,192,61919,1,0,0:0:0:0:
36,192,61919,1,0,0:0:0:0:
402,192,61919,1,0,0:0:0:0:
475,192,61919,1,0,0:0:0:0:
182,192,62101,1,0,0:0:0:0:
109,192,62101,1,0,0:0:0:0:
329,192,62192,1,0,0:0:0:0:
402,192,62192,1,0,0:0:0:0:
182,192,62282,1,0,0:0:0:0:
109,192,62282,1,0,0:0:0:0:
329,192,62373,1,0,0:0:0:0:
402,192,62373,1,0,0:0:0:0:
182,192,62464,1,0,0:0:0:0:
109,192,62464,1,0,0:0:0:0:
329,192,62555,1,0,0:0:0:0:
402,192,62555,1,0,0:0:0:0:
256,192,62646,1,0,0:0:0:0:
109,192,62646,1,0,0:0:0:0:
36,192,62646,1,0,0:0:0:0:
329,192,63192,128,0,63373:0:0:0:0:
182,192,63192,128,0,63373:0:0:0:0:
36,192,63373,1,0,0:0:0:0:
109,192,63373,1,0,0:0:0:0:
256,192,63373,1,0,0:0:0:0:
402,192,63373,1,0,0:0:0:0:
475,192,63373,1,0,0:0:0:0:
329,192,63915,128,0,64095:0:0:0:0:
475,192,63915,128,0,64095:0:0:0:0:
402,192,64095,1,0,0:0:0:0:
182,192,64095,1,0,0:0:0:0:
36,192,64095,1,0,0:0:0:0:
256,192,64095,1,0,0:0:0:0:
109,192,64095,128,0,64454:0:0:0:0:
36,192,64454,1,0,0:0:0:0:
256,192,64454,1,0,0:0:0:0:
402,192,64454,1,0,0:0:0:0:
475,192,64454,1,0,0:0:0:0:
182,192,64454,128,0,64813:0:0:0:0:
475,192,64813,1,0,0:0:0:0:
256,192,64813,1,0,0:0:0:0:
36,192,64813,1,0,0:0:0:0:
109,192,64813,1,0,0:0:0:0:
329,192,64813,128,0,65170:0:0:0:0:
256,192,65170,1,0,0:0:0:0:
475,192,65170,1,0,0:0:0:0:
109,192,65170,1,0,0:0:0:0:
36,192,65170,1,0,0:0:0:0:
402,192,65170,128,0,65525:0:0:0:0:
36,192,65525,1,0,0:0:0:0:
256,192,65525,1,0,0:0:0:0:
329,192,65525,1,0,0:0:0:0:
475,192,65525,1,0,0:0:0:0:
109,192,65525,1,0,0:0:0:0:
182,192,65613,1,0,0:0:0:0:
402,192,65701,1,0,0:0:0:0:
329,192,65789,1,0,0:0:0:0:
36,192,65877,1,0,0:0:0:0:
182,192,65877,1,0,0:0:0:0:
402,192,65877,1,0,0:0:0:0:
475,192,65877,1,0,0:0:0:0:
256,192,65877,1,0,0:0:0:0:
109,192,65966,1,0,0:0:0:0:
256,192,66054,1,0,0:0:0:0:
182,192,66142,1,0,0:0:0:0:
109,192,66230,1,0,0:0:0:0:
36,192,66230,1,0,0:0:0:0:
256,192,66230,1,0,0:0:0:0:
475,192,66230,1,0,0:0:0:0:
329,192,66230,1,0,0:0:0:0:
402,192,66319,1,0,0:0:0:0:
256,192,66407,1,0,0:0:0:0:
329,192,66495,1,0,0:0:0:0:
36,192,66583,1,0,0:0:0:0:
182,192,66583,1,0,0:0:0:0:
256,192,66583,1,0,0:0:0:0:
402,192,66583,1,0,0:0:0:0:
475,192,66583,1,0,0:0:0:0:
109,192,66672,1,0,0:0:0:0:
256,192,66760,1,0,0:0:0:0:
182,192,66848,1,0,0:0:0:0:
36,192,66936,1,0,0:0:0:0:
109,192,66936,1,0,0:0:0:0:
329,192,66936,1,0,0:0:0:0:
475,192,66936,1,0,0:0:0:0:
402,192,66936,1,0,0:0:0:0:
256,192,67025,1,0,0:0:0:0:
36,192,67113,1,0,0:0:0:0:
402,192,67113,1,0,0:0:0:0:
329,192,67201,1,0,0:0:0:0:
36,192,67289,1,0,0:0:0:0:
182,192,67289,1,0,0:0:0:0:
109,192,67289,1,0,0:0:0:0:
256,192,67377,1,0,0:0:0:0:
475,192,67466,1,0,0:0:0:0:
109,192,67466,1,0,0:0:0:0:
402,192,67554,1,0,0:0:0:0:
182,192,67642,1,0,0:0:0:0:
256,192,67642,1,0,0:0:0:0:
36,192,67642,1,0,0:0:0:0:
329,192,67730,1,0,0:0:0:0:
182,192,67819,1,0,0:0:0:0:
475,192,67819,1,0,0:0:0:0:
402,192,67907,1,0,0:0:0:0:
109,192,67907,1,0,0:0:0:0:
475,192,67995,1,0,0:0:0:0:
256,192,67995,1,0,0:0:0:0:
36,192,67995,1,0,0:0:0:0:
109,192,68083,1,0,0:0:0:0:
182,192,68083,1,0,0:0:0:0:
402,192,68172,1,0,0:0:0:0:
329,192,68172,1,0,0:0:0:0:
182,192,68260,1,0,0:0:0:0:
109,192,68260,1,0,0:0:0:0:
36,192,68348,128,0,68711:0:0:0:0:
256,192,68348,128,0,68711:0:0:0:0:
329,192,68348,128,0,68711:0:0:0:0:
475,192,68348,128,0,68711:0:0:0:0:
109,192,68711,1,0,0:0:0:0:
182,192,68711,1,0,0:0:0:0:
402,192,68711,1,0,0:0:0:0:
182,192,68893,1,0,0:0:0:0:
329,192,68893,1,0,0:0:0:0:
109,192,69075,128,0,69438:0:0:0:0:
36,192,69075,128,0,69438:0:0:0:0:
256,192,69075,128,0,69438:0:0:0:0:
475,192,69075,128,0,69438:0:0:0:0:
329,192,69438,1,0,0:0:0:0:
402,192,69438,1,0,0:0:0:0:
182,192,69438,1,0,0:0:0:0:
256,192,69620,1,0,0:0:0:0:
402,192,69620,1,0,0:0:0:0:
36,192,69802,128,0,69984:0:0:0:0:
109,192,69802,128,0,69984:0:0:0:0:
182,192,69802,128,0,69984:0:0:0:0:
329,192,69802,128,0,69984:0:0:0:0:
475,192,69802,128,0,69984:0:0:0:0:
256,192,69984,1,0,0:0:0:0:
402,192,69984,1,0,0:0:0:0:
36,192,70166,128,0,70348:0:0:0:0:
109,192,70166,128,0,70348:0:0:0:0:
402,192,70166,128,0,70348:0:0:0:0:
475,192,70166,128,0,70348:0:0:0:0:
256,192,70166,128,0,70348:0:0:0:0:
182,192,70348,1,0,0:0:0:0:
329,192,70348,1,0,0:0:0:0:
182,192,70529,128,0,70711:0:0:0:0:
36,192,70529,128,0,70711:0:0:0:0:
329,192,70529,128,0,70711:0:0:0:0:
402,192,70529,128,0,70711:0:0:0:0:
475,192,70529,128,0,70711:0:0:0:0:
109,192,70711,1,0,0:0:0:0:
256,192,70711,1,0,0:0:0:0:
109,192,70893,128,0,71075:0:0:0:0:
256,192,70893,128,0,71075:0:0:0:0:
402,192,70893,128,0,71075:0:0:0:0:
329,192,70893,128,0,71075:0:0:0:0:
475,192,70893,128,0,71075:0:0:0:0:
182,192,71075,1,0,0:0:0:0:
36,192,71075,1,0,0:0:0:0:
256,192,71135,1,0,0:0:0:0:
329,192,71196,1,0,0:0:0:0:
402,192,71257,1,0,0:0:0:0:
475,192,71257,1,0,0:0:0:0:
182,192,71257,1,0,0:0:0:0:
109,192,71257,1,0,0:0:0:0:
36,192,71257,1,0,0:0:0:0:
182,192,71438,1,0,0:0:0:0:
329,192,71438,1,0,0:0:0:0:
329,192,71620,1,0,0:0:0:0:
475,192,71620,1,0,0:0:0:0:
256,192,71620,1,0,0:0:0:0:
109,192,71620,1,0,0:0:0:0:
36,192,71620,1,0,0:0:0:0:
256,192,71802,1,0,0:0:0:0:
402,192,71802,1,0,0:0:0:0:
329,192,71984,1,0,0:0:0:0:
256,192,71984,1,0,0:0:0:0:
475,192,71984,1,0,0:0:0:0:
182,192,71984,1,0,0:0:0:0:
36,192,71984,1,0,0:0:0:0:
109,192,72166,1,0,0:0:0:0:
329,192,72166,1,0,0:0:0:0:
36,192,72348,1,0,0:0:0:0:
109,192,72348,1,0,0:0:0:0:
182,192,72348,1,0,0:0:0:0:
256,192,72348,1,0,0:0:0:0:
475,192,72348,1,0,0:0:0:0:
402,192,72438,1,0,0:0:0:0:
329,192,72529,1,0,0:0:0:0:
256,192,72620,1,0,0:0:0:0:
182,192,72711,1,0,0:0:0:0:
402,192,72711,1,0,0:0:0:0:
475,192,72711,1,0,0:0:0:0:
36,192,72711,1,0,0:0:0:0:
329,192,72891,1,0,0:0:0:0:
329,192,73072,1,0,0:0:0:0:
475,192,73072,1,0,0:0:0:0:
109,192,73072,1,0,0:0:0:0:
36,192,73072,1,0,0:0:0:0:
402,192,73072,1,0,0:0:0:0:
329,192,73253,1,0,0:0:0:0:
182,192,73253,1,0,0:0:0:0:
256,192,73343,1,0,0:0:0:0:
402,192,73343,1,0,0:0:0:0:
475,192,73433,1,0,0:0:0:0:
36,192,73433,128,0,74953:0:0:0:0:
329,192,73433,1,0,0:0:0:0:
109,192,73433,1,0,0:0:0:0:
182,192,73612,1,0,0:0:0:0:
329,192,73792,1,0,0:0:0:0:
402,192,73792,1,0,0:0:0:0:
109,192,73792,1,0,0:0:0:0:
256,192,73792,1,0,0:0:0:0:
182,192,73971,1,0,0:0:0:0:
329,192,73971,1,0,0:0:0:0:
402,192,74061,1,0,0:0:0:0:
256,192,74061,1,0,0:0:0:0:
475,192,74151,128,0,74953:0:0:0:0:
109,192,74151,1,0,0:0:0:0:
329,192,74151,1,0,0:0:0:0:
182,192,74329,1,0,0:0:0:0:
109,192,74508,1,0,0:0:0:0:
402,192,74508,1,0,0:0:0:0:
182,192,74508,1,0,0:0:0:0:
329,192,74508,1,0,0:0:0:0:
256,192,74686,1,0,0:0:0:0:
109,192,74686,1,0,0:0:0:0:
182,192,74776,1,0,0:0:0:0:
329,192,74776,1,0,0:0:0:0:
109,192,74865,128,0,74953:0:0:0:0:
256,192,74865,128,0,74953:0:0:0:0:
402,192,74865,128,0,74953:0:0:0:0:
36,192,75042,128,0,75131:0:0:0:0:
182,192,75042,128,0,75131:0:0:0:0:
256,192,75042,128,0,75131:0:0:0:0:
329,192,75042,128,0,75131:0:0:0:0:
402,192,75220,128,0,75308:0:0:0:0:
329,192,75220,128,0,75308:0:0:0:0:
256,192,75220,128,0,75308:0:0:0:0:
109,192,75220,128,0,75308:0:0:0:0:
182,192,75397,128,0,75486:0:0:0:0:
256,192,75397,128,0,75486:0:0:0:0:
402,192,75397,128,0,75486:0:0:0:0:
475,192,75397,128,0,75486:0:0:0:0:
36,192,75575,1,0,0:0:0:0:
329,192,75575,1,0,0:0:0:0:
182,192,75575,1,0,0:0:0:0:
256,192,75692,1,0,0:0:0:0:
402,192,75692,1,0,0:0:0:0:
109,192,75692,1,0,0:0:0:0:
329,192,75810,1,0,0:0:0:0:
475,192,75810,1,0,0:0:0:0:
182,192,75810,1,0,0:0:0:0:
182,192,75927,1,0,0:0:0:0:
402,192,75927,1,0,0:0:0:0:
36,192,75927,1,0,0:0:0:0:
329,192,75927,1,0,0:0:0:0:
109,192,76048,1,0,0:0:0:0:
256,192,76048,1,0,0:0:0:0:
475,192,76048,1,0,0:0:0:0:
182,192,76169,1,0,0:0:0:0:
402,192,76169,1,0,0:0:0:0:
329,192,76169,1,0,0:0:0:0:
36,192,76290,1,0,0:0:0:0:
182,192,76290,1,0,0:0:0:0:
329,192,76290,1,0,0:0:0:0:
109,192,76415,1,0,0:0:0:0:
256,192,76415,1,0,0:0:0:0:
402,192,76415,1,0,0:0:0:0:
182,192,76540,1,0,0:0:0:0:
329,192,76540,1,0,0:0:0:0:
475,192,76540,1,0,0:0:0:0:
36,192,76665,1,0,0:0:0:0:
329,192,76665,1,0,0:0:0:0:
109,192,76665,1,0,0:0:0:0:
256,192,76665,1,0,0:0:0:0:
109,192,76794,1,0,0:0:0:0:
182,192,76794,1,0,0:0:0:0:
329,192,76794,1,0,0:0:0:0:
402,192,76794,1,0,0:0:0:0:
256,192,76923,1,0,0:0:0:0:
182,192,76923,1,0,0:0:0:0:
402,192,76923,1,0,0:0:0:0:
475,192,76923,1,0,0:0:0:0:
36,192,77052,1,0,0:0:0:0:
109,192,77052,1,0,0:0:0:0:
256,192,77052,1,0,0:0:0:0:
475,192,77052,1,0,0:0:0:0:
329,192,77052,1,0,0:0:0:0:
182,192,77277,1,0,0:0:0:0:
256,192,77333,1,0,0:0:0:0:
329,192,77390,1,0,0:0:0:0:
402,192,77446,1,0,0:0:0:0:
36,192,77503,128,0,78856:0:0:0:0:
182,192,77503,128,0,78856:0:0:0:0:
256,192,77503,128,0,78856:0:0:0:0:
475,192,77503,128,0,78856:0:0:0:0:
109,192,78179,1,0,0:0:0:0:
329,192,78405,1,0,0:0:0:0:
402,192,78630,1,0,0:0:0:0:
329,192,78856,1,0,0:0:0:0:
402,192,78856,1,0,0:0:0:0:
109,192,78856,1,0,0:0:0:0:
182,192,79317,1,0,0:0:0:0:
329,192,79317,1,0,0:0:0:0:
329,192,79779,1,0,0:0:0:0:
475,192,79779,1,0,0:0:0:0:
36,192,79779,1,0,0:0:0:0:
256,192,79779,1,0,0:0:0:0:
109,192,79853,1,0,0:0:0:0:
182,192,79927,1,0,0:0:0:0:
256,192,80001,1,0,0:0:0:0:
329,192,80075,1,0,0:0:0:0:
109,192,80112,1,0,0:0:0:0:
402,192,80149,1,0,0:0:0:0:
475,192,80223,1,0,0:0:0:0:
256,192,80223,1,0,0:0:0:0:
36,192,80223,1,0,0:0:0:0:
109,192,80279,1,0,0:0:0:0:
182,192,80334,1,0,0:0:0:0:
256,192,80390,1,0,0:0:0:0:
329,192,80445,1,0,0:0:0:0:
402,192,80501,1,0,0:0:0:0:
109,192,80556,1,0,0:0:0:0:
36,192,80556,1,0,0:0:0:0:
475,192,80556,1,0,0:0:0:0:
475,192,80667,1,0,0:0:0:0:
182,192,80667,1,0,0:0:0:0:
36,192,80667,1,0,0:0:0:0:
329,192,80667,1,0,0:0:0:0:
402,192,80785,1,0,0:0:0:0:
329,192,80903,1,0,0:0:0:0:
182,192,81021,1,0,0:0:0:0:
256,192,81139,1,0,0:0:0:0:
402,192,81139,1,0,0:0:0:0:
36,192,81139,1,0,0:0:0:0:
109,192,81204,1,0,0:0:0:0:
475,192,81270,1,0,0:0:0:0:
182,192,81270,1,0,0:0:0:0:
256,192,81336,1,0,0:0:0:0:
329,192,81402,1,0,0:0:0:0:
109,192,81402,1,0,0:0:0:0:
182,192,81467,1,0,0:0:0:0:
256,192,81533,1,0,0:0:0:0:
329,192,81599,1,0,0:0:0:0:
475,192,81665,1,0,0:0:0:0:
36,192,81665,1,0,0:0:0:0:
402,192,81665,1,0,0:0:0:0:
182,192,81665,1,0,0:0:0:0:
256,192,81846,1,0,0:0:0:0:
109,192,81846,1,0,0:0:0:0:
329,192,81937,1,0,0:0:0:0:
402,192,82028,1,0,0:0:0:0:
36,192,82028,1,0,0:0:0:0:
109,192,82028,1,0,0:0:0:0:
256,192,82118,1,0,0:0:0:0:
329,192,82208,1,0,0:0:0:0:
182,192,82208,1,0,0:0:0:0:
402,192,82299,1,0,0:0:0:0:
475,192,82389,1,0,0:0:0:0:
182,192,82389,1,0,0:0:0:0:
36,192,82389,1,0,0:0:0:0:
109,192,82478,1,0,0:0:0:0:
182,192,82568,1,0,0:0:0:0:
402,192,82568,1,0,0:0:0:0:
256,192,82658,1,0,0:0:0:0:
329,192,82748,1,0,0:0:0:0:
475,192,82748,1,0,0:0:0:0:
36,192,82748,1,0,0:0:0:0:
109,192,82808,1,0,0:0:0:0:
182,192,82869,1,0,0:0:0:0:
256,192,82929,1,0,0:0:0:0:
36,192,82929,1,0,0:0:0:0:
329,192,82990,1,0,0:0:0:0:
109,192,82990,1,0,0:0:0:0:
402,192,83051,1,0,0:0:0:0:
182,192,83051,1,0,0:0:0:0:
475,192,83111,1,0,0:0:0:0:
256,192,83111,1,0,0:0:0:0:
36,192,83111,1,0,0:0:0:0:
402,192,83199,1,0,0:0:0:0:
329,192,83287,1,0,0:0:0:0:
182,192,83287,1,0,0:0:0:0:
402,192,83375,1,0,0:0:0:0:
475,192,83463,1,0,0:0:0:0:
182,192,83463,1,0,0:0:0:0:
36,192,83463,1,0,0:0:0:0:
402,192,83552,1,0,0:0:0:0:
329,192,83640,1,0,0:0:0:0:
109,192,83640,1,0,0:0:0:0:
402,192,83728,1,0,0:0:0:0:
475,192,83816,1,0,0:0:0:0:
36,192,83816,1,0,0:0:0:0:
109,192,83816,1,0,0:0:0:0:
256,192,83816,1,0,0:0:0:0:
329,192,83905,1,0,0:0:0:0:
182,192,83993,1,0,0:0:0:0:
256,192,84081,1,0,0:0:0:0:
329,192,84169,1,0,0:0:0:0:
402,192,84169,1,0,0:0:0:0:
182,192,84169,1,0,0:0:0:0:
36,192,84169,1,0,0:0:0:0:
475,192,84258,1,0,0:0:0:0:
256,192,84346,1,0,0:0:0:0:
329,192,84434,1,0,0:0:0:0:
402,192,84522,1,0,0:0:0:0:
475,192,84522,1,0,0:0:0:0:
256,192,84522,1,0,0:0:0:0:
109,192,84522,1,0,0:0:0:0:
36,192,84611,1,0,0:0:0:0:
109,192,84699,1,0,0:0:0:0:
329,192,84699,1,0,0:0:0:0:
182,192,84787,1,0,0:0:0:0:
329,192,84875,1,0,0:0:0:0:
475,192,84875,1,0,0:0:0:0:
256,192,84875,1,0,0:0:0:0:
182,192,84963,1,0,0:0:0:0:
109,192,85052,1,0,0:0:0:0:
402,192,85052,1,0,0:0:0:0:
36,192,85140,1,0,0:0:0:0:
402,192,85228,1,0,0:0:0:0:
256,192,85228,1,0,0:0:0:0:
475,192,85228,1,0,0:0:0:0:
109,192,85228,1,0,0:0:0:0:
475,192,85405,1,0,0:0:0:0:
182,192,85405,1,0,0:0:0:0:
402,192,85493,1,0,0:0:0:0:
182,192,85581,1,0,0:0:0:0:
36,192,85581,1,0,0:0:0:0:
329,192,85581,1,0,0:0:0:0:
402,192,85669,1,0,0:0:0:0:
329,192,85758,1,0,0:0:0:0:
109,192,85758,1,0,0:0:0:0:
256,192,85846,1,0,0:0:0:0:
36,192,85934,1,0,0:0:0:0:
475,192,85934,1,0,0:0:0:0:
109,192,85934,1,0,0:0:0:0:
182,192,86022,1,0,0:0:0:0:
256,192,86111,1,0,0:0:0:0:
402,192,86111,1,0,0:0:0:0:
182,192,86199,1,0,0:0:0:0:
256,192,86287,1,0,0:0:0:0:
402,192,86287,1,0,0:0:0:0:
475,192,86287,1,0,0:0:0:0:
36,192,86287,1,0,0:0:0:0:
182,192,86375,1,0,0:0:0:0:
109,192,86463,1,0,0:0:0:0:
329,192,86463,1,0,0:0:0:0:
36,192,86552,1,0,0:0:0:0:
329,192,86640,1,0,0:0:0:0:
475,192,86640,1,0,0:0:0:0:
402,192,86640,1,0,0:0:0:0:
182,192,86640,1,0,0:0:0:0:
256,192,86728,1,0,0:0:0:0:
329,192,86816,1,0,0:0:0:0:
109,192,86816,1,0,0:0:0:0:
402,192,86905,1,0,0:0:0:0:
36,192,86993,1,0,0:0:0:0:
109,192,86993,1,0,0:0:0:0:
256,192,86993,1,0,0:0:0:0:
475,192,86993,1,0,0:0:0:0:
402,192,87081,1,0,0:0:0:0:
329,192,87169,1,0,0:0:0:0:
182,192,87169,1,0,0:0:0:0:
256,192,87258,1,0,0:0:0:0:
109,192,87258,1,0,0:0:0:0:
182,192,87346,1,0,0:0:0:0:
475,192,87346,1,0,0:0:0:0:
36,192,87346,1,0,0:0:0:0:
402,192,87434,1,0,0:0:0:0:
109,192,87522,1,0,0:0:0:0:
329,192,87522,1,0,0:0:0:0:
402,192,87611,1,0,0:0:0:0:
36,192,87699,128,0,88405:0:0:0:0:
256,192,87699,128,0,88405:0:0:0:0:
475,192,87699,128,0,88405:0:0:0:0:
109,192,87699,1,0,0:0:0:0:
329,192,87875,1,0,0:0:0:0:
109,192,88052,1,0,0:0:0:0:
329,192,88228,1,0,0:0:0:0:
182,192,88405,1,0,0:0:0:0:
109,192,88405,1,0,0:0:0:0:
329,192,88405,1,0,0:0:0:0:
402,192,88493,1,0,0:0:0:0:
109,192,88581,1,0,0:0:0:0:
256,192,88581,1,0,0:0:0:0:
329,192,88669,1,0,0:0:0:0:
402,192,88758,1,0,0:0:0:0:
475,192,88758,1,0,0:0:0:0:
109,192,88758,1,0,0:0:0:0:
36,192,88758,1,0,0:0:0:0:
256,192,88846,1,0,0:0:0:0:
329,192,88934,1,0,0:0:0:0:
182,192,88934,1,0,0:0:0:0:
402,192,89022,1,0,0:0:0:0:
475,192,89111,1,0,0:0:0:0:
182,192,89111,1,0,0:0:0:0:
36,192,89111,1,0,0:0:0:0:
402,192,89199,1,0,0:0:0:0:
329,192,89287,1,0,0:0:0:0:
109,192,89287,1,0,0:0:0:0:
256,192,89375,1,0,0:0:0:0:
109,192,89463,1,0,0:0:0:0:
36,192,89463,1,0,0:0:0:0:
475,192,89463,1,0,0:0:0:0:
402,192,89552,1,0,0:0:0:0:
329,192,89640,1,0,0:0:0:0:
182,192,89640,1,0,0:0:0:0:
256,192,89728,1,0,0:0:0:0:
36,192,89816,1,0,0:0:0:0:
182,192,89816,1,0,0:0:0:0:
475,192,89816,1,0,0:0:0:0:
402,192,89905,1,0,0:0:0:0:
329,192,89993,1,0,0:0:0:0:
109,192,89993,1,0,0:0:0:0:
256,192,90081,1,0,0:0:0:0:
402,192,90169,1,0,0:0:0:0:
475,192,90169,1,0,0:0:0:0:
109,192,90169,1,0,0:0:0:0:
182,192,90258,1,0,0:0:0:0:
256,192,90346,1,0,0:0:0:0:
36,192,90346,1,0,0:0:0:0:
329,192,90434,1,0,0:0:0:0:
402,192,90522,1,0,0:0:0:0:
109,192,90522,1,0,0:0:0:0:
36,192,90522,1,0,0:0:0:0:
182,192,90611,1,0,0:0:0:0:
256,192,90699,1,0,0:0:0:0:
475,192,90699,1,0,0:0:0:0:
329,192,90787,1,0,0:0:0:0:
402,192,90875,1,0,0:0:0:0:
475,192,90875,1,0,0:0:0:0:
182,192,90875,1,0,0:0:0:0:
36,192,90875,1,0,0:0:0:0:
256,192,90963,1,0,0:0:0:0:
329,192,91052,1,0,0:0:0:0:
182,192,91140,1,0,0:0:0:0:
36,192,91228,1,0,0:0:0:0:
109,192,91228,128,0,91581:0:0:0:0:
329,192,91228,128,0,91581:0:0:0:0:
402,192,91250,1,0,0:0:0:0:
475,192,91272,1,0,0:0:0:0:
256,192,91581,1,0,0:0:0:0:
182,192,91581,1,0,0:0:0:0:
36,192,91581,1,0,0:0:0:0:
402,192,91581,1,0,0:0:0:0:
475,192,91581,1,0,0:0:0:0:
109,192,91758,128,0,92287:0:0:0:0:
256,192,91758,128,0,92287:0:0:0:0:
329,192,91758,128,0,92287:0:0:0:0:
402,192,91758,128,0,92287:0:0:0:0:
475,192,91934,1,0,0:0:0:0:
182,192,91934,1,0,0:0:0:0:
36,192,91934,1,0,0:0:0:0:
36,192,92287,1,0,0:0:0:0:
182,192,92287,1,0,0:0:0:0:
475,192,92287,1,0,0:0:0:0:
36,192,92463,128,0,92993:0:0:0:0:
109,192,92463,128,0,92993:0:0:0:0:
256,192,92463,128,0,92993:0:0:0:0:
475,192,92463,128,0,92993:0:0:0:0:
402,192,92640,1,0,0:0:0:0:
329,192,92640,1,0,0:0:0:0:
182,192,92640,1,0,0:0:0:0:
182,192,92993,1,0,0:0:0:0:
329,192,92993,1,0,0:0:0:0:
402,192,92993,1,0,0:0:0:0:
182,192,93169,128,0,93699:0:0:0:0:
256,192,93169,128,0,93699:0:0:0:0:
402,192,93169,128,0,93699:0:0:0:0:
475,192,93169,128,0,93699:0:0:0:0:
329,192,93346,1,0,0:0:0:0:
109,192,93346,1,0,0:0:0:0:
36,192,93346,1,0,0:0:0:0:
36,192,93699,1,0,0:0:0:0:
109,192,93699,1,0,0:0:0:0:
329,192,93699,1,0,0:0:0:0:
475,192,93787,1,0,0:0:0:0:
256,192,93875,1,0,0:0:0:0:
109,192,93875,1,0,0:0:0:0:
402,192,93963,1,0,0:0:0:0:
329,192,94052,1,0,0:0:0:0:
36,192,94052,1,0,0:0:0:0:
109,192,94052,1,0,0:0:0:0:
182,192,94052,1,0,0:0:0:0:
256,192,94140,1,0,0:0:0:0:
182,192,94228,1,0,0:0:0:0:
402,192,94228,1,0,0:0:0:0:
109,192,94316,1,0,0:0:0:0:
256,192,94405,1,0,0:0:0:0:
402,192,94405,1,0,0:0:0:0:
36,192,94405,128,0,95111:0:0:0:0:
475,192,94405,128,0,95111:0:0:0:0:
329,192,94493,1,0,0:0:0:0:
182,192,94581,1,0,0:0:0:0:
256,192,94669,1,0,0:0:0:0:
329,192,94758,1,0,0:0:0:0:
109,192,94758,1,0,0:0:0:0:
256,192,94846,1,0,0:0:0:0:
182,192,94934,1,0,0:0:0:0:
402,192,94934,1,0,0:0:0:0:
329,192,94993,1,0,0:0:0:0:
256,192,95052,1,0,0:0:0:0:
402,192,95111,1,0,0:0:0:0:
182,192,95111,1,0,0:0:0:0:
109,192,95111,1,0,0:0:0:0:
182,192,95287,1,0,0:0:0:0:
256,192,95287,1,0,0:0:0:0:
36,192,95287,1,0,0:0:0:0:
402,192,95375,1,0,0:0:0:0:
329,192,95463,1,0,0:0:0:0:
256,192,95463,1,0,0:0:0:0:
109,192,95463,1,0,0:0:0:0:
475,192,95552,1,0,0:0:0:0:
182,192,95640,1,0,0:0:0:0:
256,192,95640,1,0,0:0:0:0:
402,192,95640,1,0,0:0:0:0:
36,192,95728,1,0,0:0:0:0:
182,192,95816,1,0,0:0:0:0:
329,192,95816,1,0,0:0:0:0:
475,192,95816,1,0,0:0:0:0:
109,192,95816,1,0,0:0:0:0:
36,192,96169,1,0,0:0:0:0:
182,192,96169,1,0,0:0:0:0:
329,192,96228,1,0,0:0:0:0:
475,192,96228,1,0,0:0:0:0:
36,192,96287,1,0,0:0:0:0:
182,192,96287,1,0,0:0:0:0:
329,192,96346,1,0,0:0:0:0:
475,192,96346,1,0,0:0:0:0:
36,192,96405,1,0,0:0:0:0:
182,192,96405,1,0,0:0:0:0:
329,192,96463,1,0,0:0:0:0:
475,192,96463,1,0,0:0:0:0:
36,192,96522,1,0,0:0:0:0:
182,192,96522,1,0,0:0:0:0:
329,192,96581,1,0,0:0:0:0:
475,192,96581,1,0,0:0:0:0:
36,192,96640,1,0,0:0:0:0:
182,192,96640,1,0,0:0:0:0:
329,192,96699,1,0,0:0:0:0:
475,192,96699,1,0,0:0:0:0:
36,192,96758,1,0,0:0:0:0:
182,192,96758,1,0,0:0:0:0:
329,192,96816,1,0,0:0:0:0:
475,192,96816,1,0,0:0:0:0:
36,192,96875,1,0,0:0:0:0:
109,192,96875,1,0,0:0:0:0:
109,192,97228,1,0,0:0:0:0:
182,192,97228,1,0,0:0:0:0:
256,192,97228,1,0,0:0:0:0:
402,192,97228,1,0,0:0:0:0:
475,192,97228,1,0,0:0:0:0:
109,192,97581,1,0,0:0:0:0:
182,192,97581,1,0,0:0:0:0:
329,192,97640,1,0,0:0:0:0:
475,192,97640,1,0,0:0:0:0:
182,192,97699,1,0,0:0:0:0:
109,192,97699,1,0,0:0:0:0:
329,192,97758,1,0,0:0:0:0:
475,192,97758,1,0,0:0:0:0:
109,192,97816,1,0,0:0:0:0:
182,192,97816,1,0,0:0:0:0:
329,192,97875,1,0,0:0:0:0:
475,192,97875,1,0,0:0:0:0:
109,192,97934,1,0,0:0:0:0:
182,192,97934,1,0,0:0:0:0:
475,192,97993,1,0,0:0:0:0:
329,192,97993,1,0,0:0:0:0:
109,192,98052,1,0,0:0:0:0:
182,192,98052,1,0,0:0:0:0:
329,192,98110,1,0,0:0:0:0:
475,192,98110,1,0,0:0:0:0:
182,192,98169,1,0,0:0:0:0:
109,192,98169,1,0,0:0:0:0:
475,192,98228,1,0,0:0:0:0:
329,192,98228,1,0,0:0:0:0:
36,192,98287,1,0,0:0:0:0:
109,192,98287,1,0,0:0:0:0:
182,192,98640,1,0,0:0:0:0:
402,192,98640,1,0,0:0:0:0:
256,192,98640,1,0,0:0:0:0:
329,192,98640,1,0,0:0:0:0:
36,192,98640,1,0,0:0:0:0:
182,192,98993,1,0,0:0:0:0:
36,192,98993,1,0,0:0:0:0:
402,192,99052,1,0,0:0:0:0:
329,192,99052,1,0,0:0:0:0:
36,192,99110,1,0,0:0:0:0:
182,192,99110,1,0,0:0:0:0:
402,192,99169,1,0,0:0:0:0:
329,192,99169,1,0,0:0:0:0:
182,192,99228,1,0,0:0:0:0:
36,192,99228,1,0,0:0:0:0:
402,192,99287,1,0,0:0:0:0:
329,192,99287,1,0,0:0:0:0:
182,192,99346,1,0,0:0:0:0:
36,192,99346,1,0,0:0:0:0:
329,192,99405,1,0,0:0:0:0:
402,192,99405,1,0,0:0:0:0:
182,192,99463,1,0,0:0:0:0:
36,192,99463,1,0,0:0:0:0:
402,192,99522,1,0,0:0:0:0:
329,192,99522,1,0,0:0:0:0:
36,192,99581,1,0,0:0:0:0:
182,192,99581,1,0,0:0:0:0:
329,192,99640,1,0,0:0:0:0:
402,192,99640,1,0,0:0:0:0:
109,192,99699,1,0,0:0:0:0:
36,192,99699,1,0,0:0:0:0:
329,192,99875,1,0,0:0:0:0:
256,192,99934,1,0,0:0:0:0:
329,192,99993,1,0,0:0:0:0:
402,192,100052,1,0,0:0:0:0:
475,192,100052,1,0,0:0:0:0:
36,192,100052,1,0,0:0:0:0:
182,192,100052,1,0,0:0:0:0:
109,192,100168,1,0,0:0:0:0:
182,192,100285,1,0,0:0:0:0:
256,192,100402,1,0,0:0:0:0:
109,192,100402,1,0,0:0:0:0:
36,192,100402,1,0,0:0:0:0:
329,192,100402,1,0,0:0:0:0:
475,192,100402,1,0,0:0:0:0:
329,192,100576,1,0,0:0:0:0:
182,192,100663,1,0,0:0:0:0:
109,192,100663,1,0,0:0:0:0:
402,192,100663,1,0,0:0:0:0:
36,192,100750,1,0,0:0:0:0:
182,192,100750,1,0,0:0:0:0:
475,192,100750,1,0,0:0:0:0:
256,192,100750,1,0,0:0:0:0:
109,192,100923,1,0,0:0:0:0:
182,192,100923,1,0,0:0:0:0:
329,192,100923,1,0,0:0:0:0:
256,192,101096,1,0,0:0:0:0:
402,192,101096,1,0,0:0:0:0:
36,192,101096,1,0,0:0:0:0:
475,192,101096,1,0,0:0:0:0:
109,192,101182,1,0,0:0:0:0:
182,192,101268,1,0,0:0:0:0:
182,192,101440,1,0,0:0:0:0:
36,192,101440,1,0,0:0:0:0:
256,192,101440,1,0,0:0:0:0:
329,192,101440,1,0,0:0:0:0:
475,192,101440,128,0,104217:0:0:0:0:
402,192,101954,128,0,102811:0:0:0:0:
256,192,101954,1,0,0:0:0:0:
182,192,102125,1,0,0:0:0:0:
329,192,102125,128,0,103163:0:0:0:0:
256,192,102468,128,0,103516:0:0:0:0:
109,192,102468,1,0,0:0:0:0:
36,192,102811,128,0,104217:0:0:0:0:
109,192,102811,128,0,104217:0:0:0:0:
182,192,102811,128,0,103866:0:0:0:0:
402,192,103163,128,0,103281:0:0:0:0:
329,192,103281,128,0,103399:0:0:0:0:
402,192,103399,128,0,104217:0:0:0:0:
329,192,103516,128,0,104217:0:0:0:0:
256,192,103866,128,0,104217:0:0:0:0:
182,192,104217,1,0,0:0:0:0:
329,192,104478,1,0,0:0:0:0:
402,192,104478,1,0,0:0:0:0:
182,192,104478,1,0,0:0:0:0:
109,192,104478,1,0,0:0:0:0:
329,192,104740,1,0,0:0:0:0:
36,192,104740,1,0,0:0:0:0:
109,192,104740,1,0,0:0:0:0:
182,192,104740,1,0,0:0:0:0:
109,192,104914,128,0,105607:0:0:0:0:
402,192,104914,128,0,105607:0:0:0:0:
475,192,104914,1,0,0:0:0:0:
36,192,104914,1,0,0:0:0:0:
256,192,104914,1,0,0:0:0:0:
36,192,105260,1,0,0:0:0:0:
475,192,105260,1,0,0:0:0:0:
256,192,105260,1,0,0:0:0:0:
36,192,105607,1,0,0:0:0:0:
256,192,105607,1,0,0:0:0:0:
329,192,105607,1,0,0:0:0:0:
475,192,105607,1,0,0:0:0:0:
182,192,105607,1,0,0:0:0:0:
256,192,105865,1,0,0:0:0:0:
329,192,105865,1,0,0:0:0:0:
402,192,105865,1,0,0:0:0:0:
109,192,105865,1,0,0:0:0:0:
329,192,106124,1,0,0:0:0:0:
36,192,106124,1,0,0:0:0:0:
256,192,106124,1,0,0:0:0:0:
182,192,106124,1,0,0:0:0:0:
36,192,106296,128,0,106981:0:0:0:0:
475,192,106296,128,0,106981:0:0:0:0:
109,192,106296,1,0,0:0:0:0:
256,192,106296,1,0,0:0:0:0:
402,192,106296,1,0,0:0:0:0:
109,192,106638,1,0,0:0:0:0:
256,192,106638,1,0,0:0:0:0:
402,192,106638,1,0,0:0:0:0:
182,192,106810,1,0,0:0:0:0:
256,192,106896,1,0,0:0:0:0:
109,192,106981,1,0,0:0:0:0:
182,192,106981,1,0,0:0:0:0:
329,192,106981,1,0,0:0:0:0:
402,192,106981,1,0,0:0:0:0:
329,192,107236,1,0,0:0:0:0:
402,192,107236,1,0,0:0:0:0:
475,192,107236,1,0,0:0:0:0:
182,192,107236,1,0,0:0:0:0:
36,192,107236,1,0,0:0:0:0:
256,192,107492,1,0,0:0:0:0:
402,192,107492,1,0,0:0:0:0:
182,192,107492,1,0,0:0:0:0:
109,192,107492,1,0,0:0:0:0:
36,192,107662,1,0,0:0:0:0:
109,192,107662,1,0,0:0:0:0:
329,192,107662,128,0,108170:0:0:0:0:
475,192,107662,128,0,108170:0:0:0:0:
109,192,108000,1,0,0:0:0:0:
36,192,108000,1,0,0:0:0:0:
256,192,108170,1,0,0:0:0:0:
402,192,108170,1,0,0:0:0:0:
36,192,108339,128,0,108844:0:0:0:0:
109,192,108339,128,0,108844:0:0:0:0:
182,192,108339,1,0,0:0:0:0:
329,192,108339,1,0,0:0:0:0:
402,192,108339,128,0,108844:0:0:0:0:
475,192,108339,128,0,108844:0:0:0:0:
182,192,108591,1,0,0:0:0:0:
329,192,108591,1,0,0:0:0:0:
182,192,108844,1,0,0:0:0:0:
329,192,108844,1,0,0:0:0:0:
36,192,109013,128,0,109683:0:0:0:0:
182,192,109013,128,0,109683:0:0:0:0:
402,192,109013,1,0,0:0:0:0:
475,192,109013,1,0,0:0:0:0:
402,192,109180,1,0,0:0:0:0:
329,192,109180,1,0,0:0:0:0:
402,192,109348,1,0,0:0:0:0:
475,192,109348,1,0,0:0:0:0:
329,192,109515,1,0,0:0:0:0:
402,192,109599,1,0,0:0:0:0:
329,192,109683,128,0,109933:0:0:0:0:
109,192,109683,128,0,109933:0:0:0:0:
256,192,109683,128,0,109933:0:0:0:0:
475,192,109683,128,0,109933:0:0:0:0:
402,192,109933,1,0,0:0:0:0:
182,192,109933,1,0,0:0:0:0:
36,192,109933,1,0,0:0:0:0:
402,192,110183,1,0,0:0:0:0:
329,192,110183,1,0,0:0:0:0:
256,192,110183,1,0,0:0:0:0:
109,192,110183,1,0,0:0:0:0:
36,192,110349,128,0,111016:0:0:0:0:
256,192,110349,128,0,111016:0:0:0:0:
475,192,110349,128,0,111016:0:0:0:0:
182,192,110349,1,0,0:0:0:0:
329,192,110349,1,0,0:0:0:0:
109,192,110349,1,0,0:0:0:0:
182,192,110516,1,0,0:0:0:0:
329,192,110516,1,0,0:0:0:0:
402,192,110516,1,0,0:0:0:0:
329,192,110683,1,0,0:0:0:0:
182,192,110683,1,0,0:0:0:0:
109,192,110683,1,0,0:0:0:0:
109,192,111016,1,0,0:0:0:0:
182,192,111016,1,0,0:0:0:0:
329,192,111016,1,0,0:0:0:0:
402,192,111016,1,0,0:0:0:0:
329,192,111266,1,0,0:0:0:0:
182,192,111266,1,0,0:0:0:0:
475,192,111266,1,0,0:0:0:0:
36,192,111266,1,0,0:0:0:0:
256,192,111516,1,0,0:0:0:0:
402,192,111516,1,0,0:0:0:0:
109,192,111516,1,0,0:0:0:0:
329,192,111683,1,0,0:0:0:0:
182,192,111683,1,0,0:0:0:0:
36,192,111683,1,0,0:0:0:0:
109,192,111683,1,0,0:0:0:0:
402,192,111683,1,0,0:0:0:0:
475,192,111683,1,0,0:0:0:0:
256,192,111933,1,0,0:0:0:0:
402,192,111933,1,0,0:0:0:0:
109,192,111933,1,0,0:0:0:0:
36,192,112183,1,0,0:0:0:0:
182,192,112183,1,0,0:0:0:0:
329,192,112183,1,0,0:0:0:0:
475,192,112183,1,0,0:0:0:0:
109,192,112349,1,0,0:0:0:0:
36,192,112349,1,0,0:0:0:0:
256,192,112349,1,0,0:0:0:0:
402,192,112349,1,0,0:0:0:0:
475,192,112349,1,0,0:0:0:0:
329,192,112599,1,0,0:0:0:0:
182,192,112599,1,0,0:0:0:0:
109,192,112683,1,0,0:0:0:0:
36,192,112683,1,0,0:0:0:0:
256,192,112683,1,0,0:0:0:0:
402,192,112683,1,0,0:0:0:0:
475,192,112683,1,0,0:0:0:0:
109,192,112848,1,0,0:0:0:0:
256,192,112848,1,0,0:0:0:0:
402,192,112848,1,0,0:0:0:0:
182,192,113014,1,0,0:0:0:0:
256,192,113014,1,0,0:0:0:0:
329,192,113014,1,0,0:0:0:0:
36,192,113014,1,0,0:0:0:0:
475,192,113014,1,0,0:0:0:0:
182,192,113178,1,0,0:0:0:0:
109,192,113178,1,0,0:0:0:0:
256,192,113261,1,0,0:0:0:0:
329,192,113261,1,0,0:0:0:0:
475,192,113261,1,0,0:0:0:0:
109,192,113343,1,0,0:0:0:0:
36,192,113343,1,0,0:0:0:0:
329,192,113424,1,0,0:0:0:0:
402,192,113424,1,0,0:0:0:0:
182,192,113506,1,0,0:0:0:0:
109,192,113506,1,0,0:0:0:0:
329,192,113588,1,0,0:0:0:0:
402,192,113588,1,0,0:0:0:0:
256,192,113670,1,0,0:0:0:0:
475,192,113670,1,0,0:0:0:0:
182,192,113670,1,0,0:0:0:0:
36,192,113670,1,0,0:0:0:0:
256,192,113778,1,0,0:0:0:0:
475,192,113778,1,0,0:0:0:0:
475,192,113887,1,0,0:0:0:0:
256,192,113887,1,0,0:0:0:0:
182,192,113996,1,0,0:0:0:0:
402,192,113996,1,0,0:0:0:0:
182,192,114104,1,0,0:0:0:0:
402,192,114104,1,0,0:0:0:0:
182,192,114213,1,0,0:0:0:0:
402,192,114213,1,0,0:0:0:0:
329,192,114322,1,0,0:0:0:0:
109,192,114322,1,0,0:0:0:0:
329,192,114430,1,0,0:0:0:0:
109,192,114430,1,0,0:0:0:0:
329,192,114538,1,0,0:0:0:0:
109,192,114538,1,0,0:0:0:0:
256,192,114646,1,0,0:0:0:0:
36,192,114646,1,0,0:0:0:0:
36,192,114754,1,0,0:0:0:0:
256,192,114754,1,0,0:0:0:0:
256,192,114862,1,0,0:0:0:0:
36,192,114862,1,0,0:0:0:0:
109,192,114970,1,0,0:0:0:0:
182,192,114970,1,0,0:0:0:0:
329,192,114970,1,0,0:0:0:0:
402,192,114970,1,0,0:0:0:0:
256,192,115077,1,0,0:0:0:0:
475,192,115077,1,0,0:0:0:0:
475,192,115185,1,0,0:0:0:0:
256,192,115185,1,0,0:0:0:0:
182,192,115292,1,0,0:0:0:0:
402,192,115292,1,0,0:0:0:0:
36,192,115292,1,0,0:0:0:0:
182,192,115400,1,0,0:0:0:0:
402,192,115400,1,0,0:0:0:0:
182,192,115507,1,0,0:0:0:0:
402,192,115507,1,0,0:0:0:0:
329,192,115615,1,0,0:0:0:0:
109,192,115615,1,0,0:0:0:0:
475,192,115615,1,0,0:0:0:0:
329,192,115721,1,0,0:0:0:0:
109,192,115721,1,0,0:0:0:0:
329,192,115828,1,0,0:0:0:0:
109,192,115828,1,0,0:0:0:0:
256,192,115935,1,0,0:0:0:0:
36,192,115935,1,0,0:0:0:0:
475,192,115935,1,0,0:0:0:0:
36,192,116042,1,0,0:0:0:0:
256,192,116042,1,0,0:0:0:0:
402,192,116096,1,0,0:0:0:0:
256,192,116149,1,0,0:0:0:0:
36,192,116149,1,0,0:0:0:0:
329,192,116256,1,0,0:0:0:0:
182,192,116256,1,0,0:0:0:0:
109,192,116256,1,0,0:0:0:0:
475,192,116256,1,0,0:0:0:0:
109,192,116415,1,0,0:0:0:0:
36,192,116415,1,0,0:0:0:0:
329,192,116468,1,0,0:0:0:0:
475,192,116468,1,0,0:0:0:0:
109,192,116575,1,0,0:0:0:0:
36,192,116575,1,0,0:0:0:0:
256,192,116575,1,0,0:0:0:0:
402,192,116575,1,0,0:0:0:0:
109,192,116734,1,0,0:0:0:0:
36,192,116734,1,0,0:0:0:0:
402,192,116787,1,0,0:0:0:0:
256,192,116787,1,0,0:0:0:0:
36,192,116894,1,0,0:0:0:0:
182,192,116894,1,0,0:0:0:0:
475,192,116894,1,0,0:0:0:0:
329,192,116894,1,0,0:0:0:0:
36,192,116999,1,0,0:0:0:0:
182,192,116999,1,0,0:0:0:0:
329,192,116999,1,0,0:0:0:0:
475,192,116999,1,0,0:0:0:0:
256,192,117105,1,0,0:0:0:0:
475,192,117211,1,0,0:0:0:0:
36,192,117211,1,0,0:0:0:0:
109,192,117211,1,0,0:0:0:0:
402,192,117211,1,0,0:0:0:0:
475,192,117317,1,0,0:0:0:0:
36,192,117317,1,0,0:0:0:0:
109,192,117317,1,0,0:0:0:0:
402,192,117317,1,0,0:0:0:0:
256,192,117423,1,0,0:0:0:0:
182,192,117528,1,0,0:0:0:0:
36,192,117528,1,0,0:0:0:0:
475,192,117528,1,0,0:0:0:0:
329,192,117528,1,0,0:0:0:0:
182,192,117633,1,0,0:0:0:0:
36,192,117633,1,0,0:0:0:0:
36,192,117738,1,0,0:0:0:0:
182,192,117738,1,0,0:0:0:0:
36,192,117843,1,0,0:0:0:0:
109,192,117843,1,0,0:0:0:0:
256,192,117843,1,0,0:0:0:0:
329,192,117843,1,0,0:0:0:0:
475,192,117843,1,0,0:0:0:0:
329,192,117949,1,0,0:0:0:0:
475,192,117949,1,0,0:0:0:0:
329,192,118054,1,0,0:0:0:0:
475,192,118054,1,0,0:0:0:0:
109,192,118054,1,0,0:0:0:0:
402,192,118159,1,0,0:0:0:0:
475,192,118159,1,0,0:0:0:0:
256,192,118159,1,0,0:0:0:0:
182,192,118159,1,0,0:0:0:0:
36,192,118159,1,0,0:0:0:0:
182,192,118270,1,0,0:0:0:0:
36,192,118270,1,0,0:0:0:0:
36,192,118381,1,0,0:0:0:0:
182,192,118381,1,0,0:0:0:0:
402,192,118381,1,0,0:0:0:0:
109,192,118492,1,0,0:0:0:0:
256,192,118492,1,0,0:0:0:0:
329,192,118492,1,0,0:0:0:0:
475,192,118492,1,0,0:0:0:0:
182,192,118550,1,0,0:0:0:0:
36,192,118609,1,0,0:0:0:0:
329,192,118609,1,0,0:0:0:0:
475,192,118609,1,0,0:0:0:0:
109,192,118668,1,0,0:0:0:0:
182,192,118727,1,0,0:0:0:0:
329,192,118727,1,0,0:0:0:0:
475,192,118727,1,0,0:0:0:0:
475,192,118844,1,0,0:0:0:0:
402,192,118844,1,0,0:0:0:0:
256,192,118844,1,0,0:0:0:0:
109,192,118844,1,0,0:0:0:0:
36,192,118844,1,0,0:0:0:0:
475,192,119389,128,0,119525:0:0:0:0:
36,192,119934,128,0,123752:0:0:0:0:
182,192,119934,128,0,123752:0:0:0:0:
329,192,119934,128,0,123752:0:0:0:0:
256,192,119934,128,0,123752:0:0:0:0:
475,192,119934,128,0,123752:0:0:0:0:
