osu file format v14

[General]
AudioFilename: -resolve-.mp3
AudioLeadIn: 0
PreviewTime: 18066
Countdown: 0
SampleSet: Soft
StackLeniency: 0.7
Mode: 0
LetterboxInBreaks: 0
WidescreenStoryboard: 0

[Editor]
Bookmarks: 10097,23580,77052,83111,91581,104217
DistanceSpacing: 1
BeatDivisor: 2
GridSize: 4
TimelineZoom: 1

[Metadata]
Title:#3
TitleUnicode:#3
Artist:osu!speedmapping Challenge
ArtistUnicode:osu!speedmapping Challenge
Creator:_dog
Version:F-dorothy3242
Source:
Tags:Yu_Asahina 音楽 -resolve- Ongaku -resolve- fort nivrad00 blocko side xexxar faan dorothy3242 tehdragonguy
BeatmapID:737468
BeatmapSetID:333209

[Difficulty]
HPDrainRate:6
CircleSize:4.3
OverallDifficulty:6
ApproachRate:8
SliderMultiplier:1.4
SliderTickRate:1

[Events]
//Background and Video events
0,0,"1346144424.png",0,0
//Break Periods
2,77252,82361
//Storyboard Layer 0 (Background)
//Storyboard Layer 1 (Fail)
//Storyboard Layer 2 (Pass)
//Storyboard Layer 3 (Foreground)
//Storyboard Sound Samples

[TimingPoints]
0,363.636363636364,4,2,0,58,1,0
2545,500,3,2,0,58,1,0
10097,394.736842105263,3,2,0,58,1,0
15320,500,3,2,0,58,1,0
16733,444.444444444444,3,2,0,58,1,0
18062,413.793103448276,3,2,0,58,1,0
18461,400,3,2,0,58,1,0
18966,387.096774193548,3,2,0,58,1,0
21288,384.615384615385,3,2,0,58,1,0
22436,379.746835443038,3,2,0,58,1,0
23580,375,3,2,0,58,1,0
28830,379.746835443038,3,2,0,58,1,0
29589,387.096774193548,4,2,0,58,1,0
32715,382.165605095541,4,2,0,58,1,0
41886,375,4,2,0,58,1,0
44886,363.636363636364,4,2,0,58,1,0
55067,400,4,2,0,58,1,0
55867,413.793103448276,4,2,0,58,1,0
56280,444.444444444444,4,2,0,58,1,0
56724,387.096774193548,4,2,0,58,1,0
57498,375,4,2,0,58,1,0
58248,370.37037037037,4,2,0,58,1,0
59729,365.853658536585,4,2,0,58,1,0
61192,363.636363636364,4,2,0,58,1,0
63373,361.44578313253,4,2,0,58,1,0
64095,359.281437125748,4,2,0,58,1,0
64813,357.142857142857,4,2,0,58,1,0
65170,355.029585798817,4,2,0,58,1,0
65525,352.941176470588,4,2,0,58,1,0
68348,363.636363636364,4,2,0,58,1,0
72711,361.44578313253,4,2,0,58,1,0
73433,359.281437125748,4,2,0,58,1,0
74151,357.142857142857,4,2,0,58,1,0
74865,355.029585798817,4,2,0,58,1,0
75575,352.941176470588,4,2,0,58,1,0
75927,363.636363636364,4,2,0,58,1,0
76290,375,4,2,0,58,1,0
76665,387.096774193548,4,2,0,58,1,0
77052,451.127819548872,4,2,0,58,1,0
78856,461.538461538462,4,2,0,58,1,0
79779,444.444444444444,4,2,0,58,1,0
80667,472.44094488189,4,2,0,58,1,0
81139,526.315789473684,4,2,0,58,1,0
81665,363.636363636364,4,2,0,58,1,0
82028,361.44578313253,4,2,0,58,1,0
82389,359.281437125748,4,2,0,58,1,0
82748,363.636363636364,4,2,0,58,1,0
83111,352.941176470588,4,2,0,58,1,0
100052,350.877192982456,4,2,0,58,1,0
100402,348.837209302326,4,2,0,58,1,0
100750,346.820809248555,4,2,0,58,1,0
101096,344.827586206897,4,2,0,58,1,0
101440,342.857142857143,4,2,0,58,1,0
102811,352.941176470588,4,2,0,58,1,0
103516,350.877192982456,4,2,0,58,1,0
104217,348.837209302326,4,2,0,58,1,0
104914,346.820809248555,4,2,0,58,1,0
105607,344.827586206897,4,2,0,58,1,0
106296,342.857142857143,4,2,0,58,1,0
106981,340.909090909091,4,2,0,58,1,0
107662,338.983050847458,4,2,0,58,1,0
108339,337.078651685393,4,2,0,58,1,0
109013,335.195530726257,4,2,0,58,1,0
109683,333.333333333333,3,2,0,58,1,0
112683,331.491712707182,4,2,0,58,1,0
113014,329.67032967033,4,2,0,58,1,0
113343,327.868852459016,4,2,0,58,1,0
113670,326.086956521739,4,2,0,58,1,0
114322,324.324324324324,4,2,0,58,1,0
114970,322.58064516129,4,2,0,58,1,0
115615,320.855614973262,4,2,0,58,1,0
116256,319.148936170213,4,2,0,58,1,0
116894,317.460317460317,4,2,0,58,1,0
117528,315.789473684211,4,2,0,58,1,0
118159,333.333333333333,4,2,0,58,1,0
118492,352.941176470588,4,2,0,58,1,0
118844,272.727272727273,4,2,0,58,1,0
119934,363.636363636364,4,2,0,58,1,0

[Colours]
Combo1 : 97,40,215
Combo2 : 29,44,173
Combo3 : 57,215,81
Combo4 : 244,211,21

[HitObjects]
63,100,2545,5,0,0:0:0:0:
125,132,2795,1,0,0:0:0:0:
194,121,3045,1,0,0:0:0:0:
263,124,3295,2,0,B|275:148|299:153|299:153|327:207|314:248,1,140
380,267,4045,2,0,P|396:249|413:197,1,70
423,137,4545,1,0,0:0:0:0:
375,85,4795,2,0,B|350:57|350:57|304:71|276:68|230:58,1,140
178,63,5545,5,0,0:0:0:0:
127,111,5795,1,0,0:0:0:0:
145,178,6045,1,0,0:0:0:0:
203,138,6295,1,0,0:0:0:0:
203,138,6795,1,0,0:0:0:0:
203,138,7045,2,0,P|281:155|347:145,1,140
346,251,7920,6,0,B|367:266|339:288|302:289|256:199|188:202|88:161|7:213|-24:371|130:385|184:359|190:290|148:234,1,525
82,154,10097,6,0,P|64:111|90:69,1,93.3333333333333
121,43,10491,1,0,0:0:0:0:
166,54,10623,2,0,P|184:61|224:54,1,46.6666666666667
257,54,10886,1,0,0:0:0:0:
303,49,11018,2,0,P|327:42|361:49,1,46.6666666666667
393,56,11281,5,0,0:0:0:0:
428,86,11412,1,0,0:0:0:0:
429,132,11544,2,0,P|446:202|474:228,1,105
474,258,11939,2,0,P|463:316|428:342,1,105
395,353,12333,1,0,0:0:0:0:
350,338,12465,6,0,P|308:304|229:291,1,93.3333333333333
231,266,12860,2,0,B|266:222|301:174|256:135|214:135,1,140
215,112,13386,2,0,P|297:71|399:149,1,233.333333333333
400,195,14175,5,0,0:0:0:0:
334,262,14439,2,0,B|286:276|247:304|247:304|181:257,1,140
115,182,15320,2,0,B|170:109|234:178|306:91,1,210
331,35,16320,1,0,0:0:0:0:
406,141,16733,2,0,B|443:199|377:237|432:291,1,140
361,315,17399,2,0,P|314:324|280:301,2,70
331,246,18062,2,0,P|324:207|303:178,1,70
252,142,18461,2,0,P|218:104|296:67,1,140
367,71,18966,5,0,0:0:0:0:
435,193,19353,1,0,0:0:0:0:
355,241,19611,1,0,0:0:0:0:
313,262,19740,2,0,P|250:271|217:256,1,93.3333333333333
204,218,20127,2,0,P|212:177|189:120,1,93.3333333333333
159,99,20514,2,0,P|110:107|50:84,1,93.3333333333333
23,85,20901,1,0,0:0:0:0:
86,286,21480,5,0,0:0:0:0:
154,273,21672,1,0,0:0:0:0:
220,293,21864,1,0,0:0:0:0:
284,265,22057,1,0,0:0:0:0:
357,145,22436,2,0,P|365:106|321:53,1,93.3333333333333
302,33,22815,1,0,0:0:0:0:
243,70,23005,1,0,0:0:0:0:
183,32,23195,1,0,0:0:0:0:
126,73,23385,1,0,0:0:0:0:
92,137,23580,5,0,0:0:0:0:
92,277,23955,1,0,0:0:0:0:
228,306,24330,1,0,0:0:0:0:
362,268,24705,1,0,0:0:0:0:
287,149,25080,2,0,P|213:169|129:145,1,140
357,113,26017,5,0,0:0:0:0:
396,171,26205,1,0,0:0:0:0:
392,240,26392,1,0,0:0:0:0:
354,299,26580,1,0,0:0:0:0:
354,299,26955,5,0,0:0:0:0:
144,299,27517,1,0,0:0:0:0:
105,241,27705,1,0,0:0:0:0:
109,172,27892,1,0,0:0:0:0:
147,113,28080,1,0,0:0:0:0:
147,113,28455,5,0,0:0:0:0:
147,113,28830,1,0,0:0:0:0:
147,113,29209,1,0,0:0:0:0:
147,113,29589,6,0,P|179:113|223:131,1,70
274,162,29976,1,0,0:0:0:0:
327,203,30169,1,0,0:0:0:0:
387,237,30363,2,0,B|410:253|425:289|425:289|457:268|470:204,1,140
437,89,31137,6,0,P|396:75|348:81,1,70
301,92,31524,1,0,0:0:0:0:
234,113,31717,1,0,0:0:0:0:
173,147,31911,2,0,B|130:167|113:190|113:190|95:154|96:113,1,140
184,251,32715,6,0,P|187:293|212:326,1,70
261,350,33097,1,0,0:0:0:0:
275,281,33288,1,0,0:0:0:0:
291,213,33479,2,0,P|294:171|319:138,1,70
368,114,33861,1,0,0:0:0:0:
382,183,34052,1,0,0:0:0:0:
401,250,34243,6,0,P|404:292|429:325,1,70
478,349,34625,1,0,0:0:0:0:
492,280,34816,1,0,0:0:0:0:
486,210,35007,1,0,0:0:0:0:
454,147,35199,1,0,0:0:0:0:
387,124,35390,1,0,0:0:0:0:
320,144,35581,1,0,0:0:0:0:
256,171,35772,5,0,0:0:0:0:
192,200,35963,2,0,P|145:207|101:193,1,70
79,70,36536,1,0,0:0:0:0:
141,39,36727,2,0,P|201:35|224:41,1,70
256,171,37300,5,0,0:0:0:0:
320,200,37491,2,0,P|367:207|411:193,1,70
433,70,38065,1,0,0:0:0:0:
371,39,38256,2,0,P|311:35|288:41,1,70
207,140,38829,6,0,P|204:181|200:231,1,70
194,279,39211,2,0,P|246:327|297:268,1,140
308,224,39785,1,0,0:0:0:0:
302,154,39976,1,0,0:0:0:0:
345,98,40167,1,0,0:0:0:0:
414,109,40358,5,0,0:0:0:0:
459,241,40740,1,0,0:0:0:0:
308,224,41122,1,0,0:0:0:0:
263,91,41504,1,0,0:0:0:0:
124,126,41886,6,0,P|104:233|119:285,1,140
211,358,42636,1,0,0:0:0:0:
234,220,43011,1,0,0:0:0:0:
259,82,43386,6,0,P|332:79|413:130,1,140
384,247,44136,2,0,B|377:294|350:314|350:314|335:289|286:253,1,140
212,159,44886,6,0,B|156:179|156:229|86:242,1,140
51,187,45431,2,0,P|43:139|60:96,2,70
29,253,45976,1,0,0:0:0:0:
77,303,46158,1,0,0:0:0:0:
146,293,46340,6,0,B|214:313|218:279|296:306,1,140
340,259,46886,2,0,P|358:234|361:152,2,70
276,230,47431,1,0,0:0:0:0:
246,166,47613,1,0,0:0:0:0:
244,95,47795,6,0,P|184:59|124:115,1,140
80,141,48340,2,0,P|60:111|64:60,2,70
135,184,48886,1,0,0:0:0:0:
193,221,49067,1,0,0:0:0:0:
258,247,49249,6,0,P|334:273|401:313,1,140
472,192,49976,2,0,L|381:58,1,140
262,25,50704,2,0,P|265:65|249:94,1,70
42,66,51431,2,0,P|39:106|55:135,1,70
260,159,52158,2,0,P|263:199|247:228,1,70
40,197,52886,2,0,P|37:237|53:266,1,70
258,292,53613,2,0,P|261:332|245:361,1,70
49,286,54340,5,0,0:0:0:0:
114,261,54522,1,0,0:0:0:0:
160,208,54704,1,0,0:0:0:0:
185,142,54886,1,0,0:0:0:0:
202,71,55067,2,0,B|263:44|290:105|362:123,1,140
448,175,55867,6,0,P|466:216|465:242,1,70
407,270,56280,2,0,P|393:305|361:335,1,70
292,313,56724,5,0,0:0:0:0:
106,216,57304,1,0,0:0:0:0:
176,198,57498,1,0,0:0:0:0:
27,49,58060,1,0,0:0:0:0:
97,57,58248,1,0,0:0:0:0:
306,63,58803,1,0,0:0:0:0:
238,82,58988,1,0,0:0:0:0:
48,173,59544,1,0,0:0:0:0:
114,196,59729,5,0,0:0:0:0:
177,223,59911,2,0,P|195:253|254:286,2,70
205,158,60460,2,0,P|242:181|300:178,2,70
163,101,61009,1,0,0:0:0:0:
228,75,61192,6,0,P|310:79|376:45,1,140
374,195,61919,1,0,0:0:0:0:
128,328,62646,1,0,0:0:0:0:
72,125,63192,1,0,0:0:0:0:
135,95,63373,6,0,B|181:155|208:107|259:190,1,140
281,234,63915,1,0,0:0:0:0:
327,286,64095,1,0,0:0:0:0:
414,176,64454,1,0,0:0:0:0:
331,62,64813,1,0,0:0:0:0:
192,37,65170,1,0,0:0:0:0:
51,49,65525,6,0,L|30:119,1,70
53,182,65877,2,0,L|91:260,1,70
146,275,66230,2,0,L|207:333,1,70
266,323,66583,2,0,L|316:274,1,70
384,255,66936,2,0,L|414:192,1,70
437,126,67289,2,0,L|416:58,1,70
346,57,67642,2,0,L|275:106,1,70
218,96,67995,2,0,L|160:56,1,70
94,37,68348,5,0,0:0:0:0:
94,176,68711,2,0,P|121:228|126:264,1,70
131,308,69075,1,0,0:0:0:0:
207,191,69438,2,0,P|226:244|225:282,1,70
228,327,69802,1,0,0:0:0:0:
367,319,70166,1,0,0:0:0:0:
359,249,70348,2,0,P|369:217|394:171,1,70
462,67,70893,1,0,0:0:0:0:
321,67,71257,5,0,0:0:0:0:
306,135,71438,1,0,0:0:0:0:
263,191,71620,2,0,P|228:213|175:217,1,70
129,219,71984,1,0,0:0:0:0:
68,171,72165,1,0,0:0:0:0:
49,238,72347,2,0,P|48:288|73:327,1,70
112,347,72711,6,0,B|176:371|183:331|262:353,1,140
319,360,73253,1,0,0:0:0:0:
316,289,73433,2,0,B|327:262|342:249|342:249|324:189|354:157,1,140
392,106,73971,1,0,0:0:0:0:
333,65,74151,2,0,P|269:105|188:101,1,140
138,90,74686,1,0,0:0:0:0:
107,153,74865,2,0,P|119:203|117:240,1,70
154,281,75220,2,0,P|154:324|164:368,1,70
227,365,75575,5,0,0:0:0:0:
291,338,75751,1,0,0:0:0:0:
331,283,75927,1,0,0:0:0:0:
345,214,76108,1,0,0:0:0:0:
330,147,76290,1,0,0:0:0:0:
291,88,76477,1,0,0:0:0:0:
232,52,76665,1,0,0:0:0:0:
163,38,76858,1,0,0:0:0:0:
109,65,77052,1,0,0:0:0:0:
119,242,83111,6,0,P|163:249|200:238,1,70
246,206,83463,1,0,0:0:0:0:
310,81,83816,1,0,0:0:0:0:
390,195,84169,1,0,0:0:0:0:
263,135,84522,2,0,P|197:120|126:156,1,140
89,204,85052,1,0,0:0:0:0:
44,257,85228,5,0,0:0:0:0:
172,312,85581,1,0,0:0:0:0:
84,202,85934,2,0,P|161:226|246:232,1,140
359,218,86640,2,0,P|428:176|464:107,1,140
453,56,87169,1,0,0:0:0:0:
395,16,87346,5,0,0:0:0:0:
326,30,87522,1,0,0:0:0:0:
286,88,87699,2,0,P|228:134|184:75,1,140
58,42,88405,1,0,0:0:0:0:
49,111,88581,1,0,0:0:0:0:
52,181,88758,6,0,P|106:277|147:297,2,140
47,41,89816,1,0,0:0:0:0:
176,93,90169,2,0,P|238:117|332:118,1,140
377,99,90699,1,0,0:0:0:0:
437,62,90875,1,0,0:0:0:0:
467,125,91052,2,0,P|476:174|470:200,1,70
356,272,91581,6,0,P|320:267|285:275,1,70
292,63,92287,2,0,P|256:58|221:66,1,70
217,275,92993,2,0,P|181:270|146:278,1,70
156,67,93699,2,0,P|120:62|85:70,1,70
41,274,94405,6,0,P|55:315|99:343,3,70
143,346,95111,1,0,0:0:0:0:
208,320,95287,1,0,0:0:0:0:
236,250,95463,1,0,0:0:0:0:
254,182,95640,1,0,0:0:0:0:
263,112,95816,6,0,P|345:95|401:129,1,140
455,178,96875,1,0,0:0:0:0:
330,113,97228,6,0,P|248:96|192:130,1,140
138,179,98287,1,0,0:0:0:0:
263,112,98640,6,0,P|345:95|401:129,1,140
455,178,99699,1,0,0:0:0:0:
318,144,100052,5,0,0:0:0:0:
263,187,100227,1,0,0:0:0:0:
200,155,100402,1,0,0:0:0:0:
144,113,100576,1,0,0:0:0:0:
74,124,100750,1,0,0:0:0:0:
32,180,100923,1,0,0:0:0:0:
49,248,101096,1,0,0:0:0:0:
98,297,101268,1,0,0:0:0:0:
167,308,101440,5,0,0:0:0:0:
376,322,101954,1,0,0:0:0:0:
389,253,102125,2,0,B|410:195|361:184|379:108,1,140
240,111,102811,1,0,0:0:0:0:
181,237,103163,2,0,B|153:251|153:251|113:206|128:139,1,140
168,16,103866,1,0,0:0:0:0:
303,52,104217,5,0,0:0:0:0:
303,145,104449,1,0,0:0:0:0:
303,238,104682,1,0,0:0:0:0:
236,304,104914,2,0,L|397:348,1,140
470,241,105607,5,0,0:0:0:0:
377,241,105836,1,0,0:0:0:0:
283,241,106066,1,0,0:0:0:0:
216,174,106296,2,0,L|322:78,1,140
460,80,106981,5,0,0:0:0:0:
394,145,107208,1,0,0:0:0:0:
328,210,107435,1,0,0:0:0:0:
235,222,107662,2,0,P|179:203|214:129,1,140
320,74,108339,6,0,P|365:143|350:227,1,140
302,251,108844,1,0,0:0:0:0:
231,251,109013,2,0,P|163:233|97:252,1,140
44,121,109683,5,0,0:0:0:0:
124,74,109905,1,0,0:0:0:0:
220,73,110127,1,0,0:0:0:0:
305,110,110349,2,0,P|368:119|446:104,1,140
458,244,111016,5,0,0:0:0:0:
408,323,111238,2,0,P|373:356|306:339,1,93.3333333333333
257,295,111683,1,0,0:0:0:0:
183,352,111905,2,0,P|131:359|99:309,1,93.3333333333333
61,250,112349,1,0,0:0:0:0:
66,156,112571,1,0,0:0:0:0:
127,85,112793,1,0,0:0:0:0:
219,99,113014,1,0,0:0:0:0:
263,180,113233,1,0,0:0:0:0:
356,188,113452,1,0,0:0:0:0:
443,154,113670,6,0,P|446:97|367:74,1,140
257,143,114322,2,0,L|354:269,1,140
219,322,114970,2,0,P|155:288|140:211,1,140
257,143,115615,2,0,L|348:261,1,140
443,154,116256,2,0,P|446:97|376:77,1,140
267,166,116894,5,0,0:0:0:0:
132,205,117211,1,0,0:0:0:0:
63,189,117370,1,0,0:0:0:0:
27,128,117528,2,0,P|36:88|64:57,1,70
118,39,117843,1,0,0:0:0:0:
184,61,118001,1,0,0:0:0:0:
251,95,118159,2,0,P|291:102|347:86,1,70
386,97,118492,2,0,P|423:117|459:154,1,70
406,217,118844,6,0,B|260:134|147:288|78:243|138:122|180:191,1,350
256,192,119934,12,0,123843,0:0:0:0:
