osu file format v14

[General]
AudioFilename: -resolve-.mp3
AudioLeadIn: 0
PreviewTime: 18066
Countdown: 0
SampleSet: Soft
StackLeniency: 0.7
Mode: 0
LetterboxInBreaks: 0
WidescreenStoryboard: 0

[Editor]
DistanceSpacing: 1
BeatDivisor: 2
GridSize: 4
TimelineZoom: 1

[Metadata]
Title:#3
TitleUnicode:#3
Artist:osu!speedmapping Challenge
ArtistUnicode:osu!speedmapping Challenge
Creator:_dog
Version:D-Side
Source:
Tags:Yu_Asahina 音楽 -resolve- Ongaku -resolve- fort nivrad00 blocko side xexxar faan dorothy3242 tehdragonguy
BeatmapID:737467
BeatmapSetID:333209

[Difficulty]
HPDrainRate:3
CircleSize:3
OverallDifficulty:4
ApproachRate:4
SliderMultiplier:1
SliderTickRate:1

[Events]
//Background and Video events
0,0,"1346144424.png",0,0
//Break Periods
//Storyboard Layer 0 (Background)
//Storyboard Layer 1 (Fail)
//Storyboard Layer 2 (Pass)
//Storyboard Layer 3 (Foreground)
//Storyboard Sound Samples

[TimingPoints]
0,363.636363636364,4,2,0,100,1,0
2545,500,3,2,0,100,1,0
10097,394.736842105263,3,2,0,100,1,0
15320,500,3,2,0,100,1,0
15320,-90.9090909090909,3,2,0,100,0,0
16733,444.444444444444,3,2,0,100,1,0
18062,413.793103448276,3,2,0,100,1,0
18461,400,3,2,0,100,1,0
18966,387.096774193548,3,2,0,100,1,0
21288,384.615384615385,3,2,0,100,1,0
22436,379.746835443038,3,2,0,100,1,0
23580,375,3,2,0,100,1,0
28830,379.746835443038,3,2,0,100,1,0
29589,387.096774193548,4,2,0,100,1,0
32693,382.165605095541,4,2,0,100,1,0
41886,375,4,2,0,100,1,0
44874,363.636363636364,4,2,0,100,1,0
55067,400,4,2,0,100,1,0
55867,413.793103448276,4,2,0,100,1,0
56280,444.444444444444,4,2,0,100,1,0
56724,387.096774193548,4,2,0,100,1,0
56724,-111.111111111111,4,2,0,100,0,0
57498,375,4,2,0,100,1,0
58248,370.37037037037,4,2,0,100,1,0
59729,365.853658536585,4,2,0,100,1,0
61192,363.636363636364,4,2,0,100,1,0
63373,361.44578313253,4,2,0,100,1,0
64095,359.281437125748,4,2,0,100,1,0
64813,357.142857142857,4,2,0,100,1,0
65170,355.029585798817,4,2,0,100,1,0
65525,352.941176470588,4,2,0,100,1,0
68348,363.636363636364,4,2,0,100,1,0
72711,361.44578313253,4,2,0,100,1,0
73433,359.281437125748,4,2,0,100,1,0
74151,357.142857142857,4,2,0,100,1,0
74865,355.029585798817,4,2,0,100,1,0
75575,352.941176470588,4,2,0,100,1,0
75927,363.636363636364,4,2,0,100,1,0
76290,375,4,2,0,100,1,0
76665,387.096774193548,4,2,0,100,1,0
77052,451.127819548872,4,2,0,100,1,0
77503,-133.333333333333,4,2,0,100,0,0
78856,461.538461538462,4,2,0,100,1,0
79779,444.444444444444,4,2,0,100,1,0
80667,472.44094488189,4,2,0,100,1,0
80667,-100,4,2,0,100,0,0
81139,526.315789473684,4,2,0,100,1,0
81665,363.636363636364,4,2,0,100,1,0
82028,361.44578313253,4,2,0,100,1,0
82389,359.281437125748,4,2,0,100,1,0
82748,363.636363636364,4,2,0,100,1,0
83111,352.941176470588,4,2,0,100,1,0
100052,350.877192982456,4,2,0,100,1,0
100402,348.837209302326,4,2,0,100,1,0
100750,346.820809248555,4,2,0,100,1,0
101096,344.827586206897,4,2,0,100,1,0
101440,342.857142857143,4,2,0,100,1,0
102811,352.941176470588,4,2,0,100,1,0
103516,350.877192982456,4,2,0,100,1,0
104217,348.837209302326,4,2,0,100,1,0
104914,346.820809248555,4,2,0,100,1,0
105607,344.827586206897,4,2,0,100,1,0
106296,342.857142857143,4,2,0,100,1,0
106981,340.909090909091,4,2,0,100,1,0
107662,338.983050847458,4,2,0,100,1,0
108339,337.078651685393,4,2,0,100,1,0
109013,335.195530726257,4,2,0,100,1,0
109683,333.333333333333,3,2,0,100,1,0
112683,331.491712707182,4,2,0,100,1,0
113014,329.67032967033,4,2,0,100,1,0
113343,327.868852459016,4,2,0,100,1,0
113670,326.086956521739,4,2,0,100,1,0
114322,324.324324324324,4,2,0,100,1,0
114970,322.58064516129,4,2,0,100,1,0
115615,320.855614973262,4,2,0,100,1,0
116256,319.148936170213,4,2,0,100,1,0
116894,317.460317460317,4,2,0,100,1,0
117528,315.789473684211,4,2,0,100,1,0
118159,333.333333333333,4,2,0,100,1,0
118492,352.941176470588,4,2,0,100,1,0
118844,272.727272727273,4,2,0,100,1,0
119934,363.636363636364,4,2,0,100,1,0

[HitObjects]
164,124,2545,6,0,P|192:108|220:104,3,50,2|0|0|2,0:0|0:0|0:0|0:0,0:0:0:0:
360,96,4045,2,0,P|359:128|349:154,3,50,2|0|0|2,0:0|0:0|0:0|0:0,0:0:0:0:
268,268,5545,2,0,P|240:251|222:229,3,50,2|0|0|2,0:0|0:0|0:0|0:0,0:0:0:0:
128,244,6795,2,2,L|72:208,1,50
192,176,7920,6,0,B|224:208|224:252|224:252|268:236|312:272|312:272|368:280|408:240|384:180,1,325,2|0,0:0|0:0,0:0:0:0:
216,56,10097,6,0,P|268:48|312:72,1,100
248,148,10886,2,0,P|205:179|191:227,1,100
256,192,11675,12,0,14735,0:0:0:0:
128,92,15320,6,0,P|112:108|232:232,1,220.000006713867
256,192,16570,12,0,18062,0:0:0:0:
164,292,18966,6,0,L|248:228,1,100
304,312,19740,2,0,L|344:214,1,100
284,128,20514,2,0,L|383:115,1,100
464,192,21288,1,0,0:0:0:0:
464,192,21480,2,0,L|432:232,2,50
492,144,22057,6,0,P|460:108|408:96,1,100
400,204,22815,2,0,P|367:240|319:252,1,100
268,240,23385,1,0,0:0:0:0:
228,204,23580,5,0,0:0:0:0:
428,204,24330,1,0,0:0:0:0:
248,120,25080,1,0,0:0:0:0:
376,276,25830,1,0,0:0:0:0:
176,256,26580,6,0,P|176:204|204:164,1,100
272,236,27330,2,0,P|272:288|244:328,1,100
152,360,28080,2,0,B|137:328|137:328|112:308|112:308|99:274,1,100
8,240,28830,2,0,B|22:208|22:208|48:188|48:188|60:154,1,100
172,72,29589,5,0,0:0:0:0:
172,72,29782,2,0,B|200:120|256:120|256:120|272:204|352:224,1,250
352,124,31137,1,0,0:0:0:0:
352,124,31330,2,0,B|428:136|464:216|428:280|428:280|380:308,1,250
96,196,32693,6,0,P|132:144|176:132,1,100
236,56,33457,2,0,P|260:96|268:152,1,100
236,184,34030,1,0,0:0:0:0:
204,220,34221,2,0,P|244:248|296:248,2,100
136,148,35368,1,0,0:0:0:0:
196,68,35750,6,0,L|232:168,1,100
328,184,36514,2,0,L|292:84,1,100
360,16,37278,1,0,0:0:0:0:
460,28,37661,1,0,0:0:0:0:
444,128,38043,1,0,0:0:0:0:
344,112,38425,1,0,0:0:0:0:
332,212,38807,6,0,P|343:261|322:309,1,100
236,344,39571,2,0,P|187:329|155:286,1,100
180,196,40336,2,0,P|196:168|200:132,2,50
84,216,41100,2,0,P|68:244|64:280,2,50
448,320,44874,6,0,L|416:212,1,100
328,260,45601,2,0,L|325:147,1,100
228,176,46328,2,0,L|254:66,2,100
148,236,47419,1,0,0:0:0:0:
148,236,47783,6,0,L|246:289,1,100
275,194,48510,2,0,L|356:271,1,100
405,183,49237,2,0,L|463:279,2,100
408,84,50328,1,0,0:0:0:0:
316,128,50692,5,0,0:0:0:0:
316,128,50874,2,0,B|260:116,1,50
176,156,51419,1,0,0:0:0:0:
176,156,51601,2,0,B|188:100,1,50
260,40,52146,2,0,B|312:40,2,50
164,12,52874,2,0,B|104:12,2,50
136,108,53601,6,0,P|108:152|100:200,1,100
160,280,54328,2,0,P|188:236|196:188,1,100
288,212,55067,2,0,P|296:163|324:121,1,100
384,200,55867,2,0,P|375:248|347:290,1,100
276,364,56724,6,0,B|240:336|244:288|244:288|248:232|208:200,1,179.999994506836
56,72,58248,2,0,B|96:100|146:105|146:105|104:140|92:200,1,200
68,288,59359,5,0,0:0:0:0:
68,288,59729,2,0,B|152:296|184:228|184:228|244:232,1,200
420,328,61192,2,0,P|468:264|432:156,1,200
280,32,62646,6,0,B|248:64|248:64|248:124,1,100
148,120,63373,2,0,B|148:165|148:165|190:207,1,100
248,284,64095,2,0,B|280:252|280:252|280:192,1,100
380,196,64822,2,0,B|380:150|380:150|337:108,1,100
260,60,65525,2,0,P|228:64|196:56,2,50
204,144,66230,2,0,P|179:141|154:145,2,50
192,244,66936,2,0,P|232:280|284:288,1,100
364,240,67642,2,0,P|324:204|272:196,1,100
204,144,68348,6,0,P|268:104|296:104,1,100
388,128,69075,1,0,0:0:0:0:
456,200,69438,1,0,0:0:0:0:
364,240,69802,2,0,P|288:242|264:228,1,100
196,161,70529,1,0,0:0:0:0:
172,65,70892,1,0,0:0:0:0:
100,132,71257,6,0,L|92:192,2,50
68,36,71984,1,0,0:0:0:0:
16,120,72348,1,0,0:0:0:0:
52,216,72711,6,0,P|88:172|128:160,1,100
144,260,73433,2,0,P|200:254|237:274,1,100
252,176,74151,2,0,P|296:197|345:190,1,100
361,290,74871,2,0,P|407:273|436:234,1,100
256,192,75575,12,0,77052,0:0:0:0:
392,112,77503,6,0,P|356:96|244:212,1,225.000008583069
242,205,79779,1,0,0:0:0:0:
148,236,80223,1,0,0:0:0:0:
168,144,80667,1,0,0:0:0:0:
252,112,81139,1,0,0:0:0:0:
388,64,81665,6,0,L|368:176,1,100
316,244,82389,2,0,L|242:330,1,100
160,276,83111,6,0,P|148:232|164:172,1,100
260,168,83816,2,0,P|271:119|259:71,1,100
172,124,84522,2,0,P|152:104|32:176,1,200
208,268,85934,6,0,L|328:220,1,100
316,132,86640,2,0,L|196:180,1,100
124,192,87346,2,0,B|104:128|104:128|236:72,1,200
320,44,88405,1,0,0:0:0:0:
320,44,88758,6,0,L|360:140,1,100
456,148,89463,2,0,P|444:196|404:228,2,100
264,88,90875,1,0,0:0:0:0:
64,108,91581,6,0,B|64:160|64:160|96:204,1,100
164,128,92287,1,0,0:0:0:0:
360,176,92993,2,0,B|360:228|360:228|328:272,1,100
260,196,93699,1,0,0:0:0:0:
112,64,94405,6,0,P|164:76|212:60,1,100
288,124,95111,2,0,P|335:110|383:122,1,100
336,212,95816,5,0,0:0:0:0:
336,212,96169,2,0,B|280:188|208:232|136:200,1,200
136,300,97228,1,0,0:0:0:0:
136,300,97581,2,0,B|192:276|264:320|336:288,1,200
432,272,98640,1,0,0:0:0:0:
432,272,98993,2,0,P|392:172|440:92,1,200
340,64,100052,5,0,0:0:0:0:
248,108,100402,1,0,0:0:0:0:
164,56,100750,1,0,0:0:0:0:
80,108,101096,1,0,0:0:0:0:
164,164,101440,6,0,P|160:208|268:308,1,200
456,280,102811,2,0,P|460:236|352:136,1,200
156,128,104217,6,0,L|160:212,1,75
164,328,104914,1,0,0:0:0:0:
364,320,105607,2,0,L|360:236,1,75
356,120,106304,1,0,0:0:0:0:
164,172,106981,6,0,P|172:213|199:238,2,75
180,124,107662,1,0,0:0:0:0:
260,64,108000,1,0,0:0:0:0:
360,60,108339,2,0,P|384:87|390:123,1,75
304,216,109013,2,0,L|264:268,1,50
224,260,109348,2,0,L|188:296,1,50
140,304,109683,6,0,P|96:272|96:212,1,100
136,140,110349,2,0,P|180:172|180:232,1,100
244,296,111016,5,0,0:0:0:0:
344,292,111349,1,0,0:0:0:0:
292,208,111683,1,0,0:0:0:0:
392,204,112016,1,0,0:0:0:0:
336,120,112349,5,0,0:0:0:0:
236,116,112682,1,0,0:0:0:0:
288,32,113016,1,0,0:0:0:0:
188,28,113349,1,0,0:0:0:0:
128,108,113670,6,0,P|96:200|140:288,1,200
252,188,114808,1,0,0:0:0:0:
252,188,114970,2,0,P|296:132|420:132,1,200
376,276,116096,1,0,0:0:0:0:
376,276,116256,6,0,P|344:308|284:328,1,100
204,276,116894,2,0,P|236:244|296:224,1,100
376,180,117528,2,0,P|352:140|300:120,3,100
256,248,118844,1,0,0:0:0:0:
256,248,119389,1,0,0:0:0:0:
256,248,119934,1,0,0:0:0:0:
256,192,120115,12,0,123570,0:0:0:0:
